#VERSION:0.83;
#TITLE:Enka 1;
#SUBTITLE:;
#ARTIST:Parts Of Console Feat. 河合美智子;
#TITLETRANSLIT:;
#SUBTITLETRANSLIT:;
#ARTISTTRANSLIT:Parts Of Console Feat. Michiko Kawai;
#GENRE:;
#ORIGIN:;
#TAGS:;
#CREDIT:;
#BANNER:Enka 1.png;
#BACKGROUND:Enka 1-bg.png;
#PREVIEWVID:;
#JACKET:Enka 1-jacket.png;
#CDIMAGE:;
#DISCIMAGE:;
#LYRICSPATH:;
#CDTITLE:cdtitle.png;
#MUSIC:Enka 1.ogg;
#OFFSET:-6.000000;
#SAMPLESTART:59.980000;
#SAMPLELENGTH:15.000000;
#SELECTABLE:YES;
#DISPLAYBPM:80.000000:320.000000;
#BPMS:0.000000=319.940002
,160.000000=79.985001
,176.000000=159.970001
,208.000000=319.940002
,336.000000=79.985001
,368.000000=319.940002
,432.000000=79.985001
;
#STOPS:;
#DELAYS:;
#WARPS:;
#TIMESIGNATURES:0.000000=4=4
;
#TICKCOUNTS:0.000000=4
;
#COMBOS:0.000000=1
;
#SPEEDS:0.000000=1.000000=0.000000=0
;
#SCROLLS:0.000000=1.000000
;
#LABELS:0.000000=Song Start
;
#BGCHANGES:32.000=kaliedoscope11.mp4=1.800=1=0=1=Checkerboard2File2x2=fan2.mp4=CrossFade==,
64.000=fan2.mp4=1.800=1=0=1=Checkerboard2File2x2=kaliedoscope12.mp4=CrossFade==,
96.000=blackhole1.mp4=1.800=1=0=1===CrossFade==,
128.000=aliens1.mp4=1.800=1=0=1===CrossFade==,
160.000=film5.mp4=1.000=1=0=1===CrossFade==,
168.000=text1.mp4=1.000=1=0=1===CrossFade==,
176.000=cube7.mp4=1.000=1=0=1===CrossFade==,
192.000=heart1.mp4=1.000=1=0=1===CrossFade==,
204.000=countdown1.mp4=2.000=0=0=0=StretchNoLoop====,
208.000=taiqi3.mp4=1.800=1=0=1=Checkerboard2File2x2=kaliedoscope13.mp4=CrossFade==,
240.000=kaliedoscope14.mp4=1.800=1=0=1=Checkerboard2File2x2=taiqi3.mp4=CrossFade==,
272.000=amoeba1.mp4=1.800=1=0=1===CrossFade==,
304.000=fan2.mp4=1.800=1=1=1=StretchRewind==CrossFade==,
336.000=film5.mp4=1.000=1=1=1=StretchRewind==CrossFade==,
344.000=text1.mp4=1.000=1=1=1=StretchRewind==CrossFade==,
352.000=taiqi3.mp4=1.000=1=1=1=StretchRewind==CrossFade==,
364.000=1.jpg=1.000=0=0=1=====,
364.500=taiqi3.mp4=1.000=0=0=1=====,
365.000=2.jpg=1.000=0=0=1=====,
365.500=taiqi3.mp4=1.000=0=0=1=====,
366.000=3.jpg=1.000=0=0=1=====,
366.500=taiqi3.mp4=1.000=0=0=1=====,
367.000=4.jpg=1.000=0=0=1=====,
367.500=taiqi3.mp4=1.000=0=0=1=====,
368.000=aliens1.mp4=1.800=1=0=1=Checkerboard2File2x2=kaliedoscope11.mp4=CrossFade==,
400.000=kaliedoscope12.mp4=1.800=1=0=1=Checkerboard2x2=aliens1.mp4=CrossFade==,
432.000=Enka 1-bg.png=1.000=1=0=1===CrossFade==,
99999=-nosongbg-=1.000=0=0=0 // don't automatically add -songbackground-
;
#KEYSOUNDS:;
#ATTACKS:
;

//---------------dance-single - ----------------
#NOTEDATA:;
#CHARTNAME:;
#CHARTHASH:1702229420;
#STEPSTYPE:dance-single;
#BANNER:;
#DESCRIPTION:;
#CHARTSTYLE:;
#DIFFICULTY:Beginner;
#METER:7;
#METERF:7.000000;
#LASTSECONDHINT:121.521660;
#RADARVALUES:0.000000,0.000000,0.000000,0.000000,0.000000,0.000000,0.000000,0.000000,0.000000,0.000000,0.000000,0.000000,0.000000,0.000000,0.000000,0.000000,0.000000,0.000000,0.000000,0.000000,0.000000,0.000000,0.000000,0.000000,0.000000,0.000000,0.000000,0.000000;
#CREDIT:;
#DISPLAYBPM:80.000000:320.000000;
#NOTES:
0000
0000
0000
0000
,
0000
0000
0000
0000
,
0000
0000
0000
0000
,
0000
0000
0000
0000
,
0000
0000
0000
0000
,
0000
0000
0000
0000
,
0000
0000
0000
0000
,
0000
0000
0000
0000
,
1000
0000
1000
0000
,
1000
0000
0000
0000
,
1000
0000
1000
0000
,
1000
0000
0000
0000
,
0001
0000
0001
0000
,
0001
0000
0000
0000
,
0001
0000
0001
0000
,
0001
0000
0000
0000
,
0100
0000
0100
0000
,
0100
0000
0000
0000
,
0100
0000
0100
0000
,
0100
0000
0000
0000
,
0010
0000
0010
0000
,
0010
0000
0000
0000
,
0010
0000
0010
0000
,
0010
0000
0000
0000
,
1000
0000
1000
0000
,
1000
0000
0000
0000
,
0001
0000
0001
0000
,
0001
0000
0000
0000
,
1000
0000
1000
0000
,
1000
0000
0000
0000
,
0001
0000
0001
0000
,
0001
0000
0000
0000
,
0100
0000
0100
0000
,
0100
0000
0000
0000
,
0010
0000
0010
0000
,
0010
0000
0000
0000
,
0100
0000
0100
0000
,
0100
0000
0000
0000
,
0010
0000
0010
0000
,
0010
0000
0000
0000
,
1001
0000
0100
0100
,
1001
0000
0010
0010
,
1001
0000
1000
1000
,
0110
0000
0001
0001
,
0110
0100
0100
0000
,
0010
0000
1000
0000
,
0010
0010
0010
0000
,
1000
0000
0001
0000
,
0100
0100
0100
0000
,
0001
0000
0010
0000
,
0100
0100
0100
0000
,
1000
0001
1000
0001
,
1001
0000
1000
0000
,
1000
0000
0000
0000
,
0001
0000
0001
0000
,
0001
0000
0000
0000
,
1000
0000
0000
0000
,
0001
0000
0000
0000
,
1000
0000
1000
0000
,
1000
0000
1000
0000
,
1000
0000
0001
0000
,
0010
0000
0000
0000
,
0001
0000
1000
0000
,
0100
0000
0000
0000
,
1000
0000
0010
0000
,
1000
0000
0010
0000
,
0100
0000
0000
0000
,
0001
0000
0000
0000
,
1000
0000
1000
0000
,
1000
0000
0000
0000
,
0010
0000
0010
0000
,
0010
0000
0000
0000
,
0100
0000
0000
0000
,
0001
0000
0000
0000
,
0100
0000
0001
0000
,
0100
0000
0001
0000
,
1000
0000
0010
0000
,
0100
0000
0000
0000
,
0001
0000
1000
0000
,
0100
0000
0000
0000
,
1000
0000
0000
0000
,
1000
0000
0000
0000
,
0001
0000
0000
0000
,
0001
0000
0000
0000
,
1001
0000
0100
0000
,
1001
0000
0010
0000
,
1001
0000
0100
0000
,
1001
0000
0010
0000
,
0110
0000
1000
0000
,
0110
0000
0001
0000
,
0110
0000
1000
0000
,
0110
0100
0001
1000
,
0001
0000
0001
0000
,
0001
0000
0000
0000
,
1000
0000
0000
0000
,
1000
0000
0000
0000
,
0001
0000
0001
0000
,
0001
0000
0000
0000
,
1000
0000
0000
0000
,
1000
0000
0000
0000
,
0010
0000
0010
0000
,
0010
0000
0000
0000
,
0100
0000
0000
0000
,
0100
0000
0000
0000
,
0010
0000
0010
0000
,
0010
0000
0000
0000
,
0100
0000
0100
0000
,
0100
0000
0100
0000
,
2002
0000
3003
0000
;

//---------------dance-single - ----------------
#NOTEDATA:;
#CHARTNAME:;
#CHARTHASH:2147483647;
#STEPSTYPE:dance-single;
#BANNER:;
#DESCRIPTION:;
#CHARTSTYLE:;
#DIFFICULTY:Easy;
#METER:11;
#METERF:11.000000;
#LASTSECONDHINT:121.521660;
#RADARVALUES:0.000000,0.000000,0.000000,0.000000,0.000000,0.000000,0.000000,0.000000,0.000000,0.000000,0.000000,0.000000,0.000000,0.000000,0.000000,0.000000,0.000000,0.000000,0.000000,0.000000,0.000000,0.000000,0.000000,0.000000,0.000000,0.000000,0.000000,0.000000;
#CREDIT:;
#DISPLAYBPM:80.000000:320.000000;
#NOTES:
0000
0000
0000
0000
,
0000
0000
0000
0000
,
0000
0000
0000
0000
,
0000
0000
0000
0000
,
0000
0000
0000
0000
,
0000
0000
0000
0000
,
0000
0000
0000
0000
,
0000
0000
0000
0000
,
1000
0000
0001
0010
,
0001
0000
1001
0000
,
0010
0000
1000
0100
,
1000
0000
0110
0000
,
0001
0001
0000
1000
,
0000
0010
0100
0000
,
0010
0010
0000
1000
,
0000
0100
0001
0000
,
0100
0000
1000
0001
,
1000
0000
0110
0000
,
0001
0000
1000
0001
,
1000
0000
0101
0000
,
0001
1000
0000
0010
,
0000
1000
1000
0100
,
0010
0001
0000
0100
,
0000
0001
1000
0000
,
0001
0010
0001
0000
,
1000
0000
1001
0000
,
0100
0010
0100
0000
,
0010
0000
1010
0000
,
0001
0100
0000
0001
,
0000
1000
1000
0000
,
0010
0100
0000
0010
,
0000
0100
0100
0000
,
0001
0000
0011
0000
,
1000
0100
1000
0000
,
0010
0000
0110
0000
,
1000
0001
1000
0000
,
0010
1000
0000
0010
,
0000
0100
0100
0001
,
1000
0010
0000
0100
,
0000
0001
1000
0100
,
0010
0000
0011
0000
0000
0001
0000
1000
0001
0000
0010
0000
0000
0001
0000
0100
,
0010
0000
0100
0000
0000
0010
0000
1000
0001
0000
0010
0000
0000
0100
2000
0000
,
3001
0000
1001
0000
0000
0100
0000
0010
1000
0000
0010
0000
0000
1000
0000
0001
,
0100
0000
0010
0000
0000
1000
0000
0100
0010
0000
0001
0000
0000
1000
0002
0000
,
0013
0000
0001
0000
0010
0000
0001
1000
,
0001
0000
1000
0000
0100
0000
1000
0010
,
1000
0000
0010
0000
0100
0000
0010
0100
,
0010
0000
1000
0000
0001
0000
0100
0010
,
0100
0000
0001
0100
1000
0000
0100
0000
,
0001
0000
1000
0010
0001
0000
0010
0000
,
1020
0000
0000
0001
0001
0000
0000
1030
,
1100
1001
0110
1001
,
0001
0010
0001
0010
,
0000
0001
1000
0000
,
0100
1000
0100
1000
,
0000
0001
0100
0000
,
0010
0000
1000
0000
,
0100
0000
1000
0010
,
1000
0001
0100
0010
,
1000
0100
0011
0000
,
0001
1000
0001
1000
,
0000
0010
0100
0000
,
0010
1000
0010
0100
,
0000
0001
0100
0000
,
0001
1000
0100
0000
,
0100
1000
0001
0000
,
1100
0000
1001
0000
,
0011
0000
0110
0000
,
0001
1000
0001
0100
,
0000
0001
0010
0000
,
0001
0100
0010
1000
,
0000
0100
1000
0000
,
0100
1000
0100
0000
,
1000
0001
1000
0000
,
0001
0010
0100
1000
,
0100
0010
0001
0000
,
1000
0010
0100
0001
,
0000
0010
0001
0000
,
0001
0100
0010
1000
,
0000
0010
0100
0000
,
0001
0100
0010
0000
,
0010
1000
0001
0000
,
2100
0000
0010
0000
,
3002
0000
0100
0000
,
2003
0000
0000
0001
3001
0000
0010
0000
0200
0000
0000
1000
1300
0000
0100
0000
,
2000
0000
0000
0010
3010
0000
0100
0000
0002
0000
0000
0010
0013
0000
0001
0000
,
1002
0000
0000
0100
0103
0000
0001
0000
2000
0000
0000
0010
3010
0000
1000
0000
,
0200
0000
0000
1000
1300
0000
0001
0000
0020
0000
0000
0001
0031
0000
1000
0000
,
0110
0000
1000
0010
1000
0000
0010
0000
0100
0000
0001
0010
0100
0000
1000
0000
,
0101
0000
0001
0010
0001
0000
1000
0000
0010
0000
1000
0100
0010
0000
0001
0000
,
2100
0000
0000
0001
3001
0000
1000
0000
0020
0000
0000
0100
0130
0001
1000
0000
,
0120
1030
0210
0301
1002
1003
2001
3001
,
1000
0010
1000
0000
,
0001
0100
0001
0000
,
1000
0100
1000
0000
,
0010
0100
0010
0100
,
0000
0001
0000
1000
,
0000
0001
0100
0000
,
0001
1000
0100
0010
,
0001
0100
0010
0000
,
1000
0001
1000
0000
,
0001
0010
0001
0000
,
0100
0010
0100
0001
,
0000
1000
0000
0001
,
0100
0001
0100
0000
,
0010
1000
0010
0000
,
0110
0000
1100
0000
,
1001
0000
0101
0000
,
2002
0000
3003
0000
;

//---------------dance-single - ----------------
#NOTEDATA:;
#CHARTNAME:;
#CHARTHASH:2147483647;
#STEPSTYPE:dance-single;
#BANNER:;
#DESCRIPTION:;
#CHARTSTYLE:;
#DIFFICULTY:Medium;
#METER:13;
#METERF:13.000000;
#LASTSECONDHINT:121.521660;
#RADARVALUES:0.000000,0.000000,0.000000,0.000000,0.000000,0.000000,0.000000,0.000000,0.000000,0.000000,0.000000,0.000000,0.000000,0.000000,0.000000,0.000000,0.000000,0.000000,0.000000,0.000000,0.000000,0.000000,0.000000,0.000000,0.000000,0.000000,0.000000,0.000000;
#CREDIT:;
#DISPLAYBPM:80.000000:320.000000;
#NOTES:
0000
0000
0000
0000
,
0000
0000
0000
0000
,
0000
0000
0000
0000
,
0000
0000
0000
0000
,
0000
0000
0000
0000
,
0000
0000
0000
0000
,
0000
0000
0000
0000
,
0000
0000
0000
0000
,
1000
0100
1000
0000
,
0010
0010
0010
0000
,
0100
0001
0100
0000
,
0001
0001
0001
0000
,
1000
0010
0001
0000
,
0010
1000
1001
0000
,
1000
0100
0001
0000
,
0100
1000
1001
0000
,
0001
0010
0001
0000
,
1000
1000
1000
0000
,
0010
0100
0010
0000
,
0100
0100
0100
0000
,
0010
1000
0010
0000
,
0100
0100
0100
0000
,
0001
0010
1000
0010
,
0001
0100
1001
0000
,
1000
0001
0010
0100
,
1000
0010
0101
0000
,
0001
1000
0100
0010
,
0100
1000
1001
0000
,
0010
1000
0010
0001
,
0010
0100
0110
0000
,
1000
0100
0001
0100
,
1000
0010
0110
0000
,
1000
0100
0010
0001
,
0100
0001
0100
0000
1001
0000
0000
0000
,
0001
0010
0100
1000
,
0010
0100
0010
0000
1001
0000
0000
0000
,
0100
0001
0100
0010
,
0100
0001
0100
0000
1010
0000
0010
0000
,
0100
0001
1000
0010
,
0100
0001
0100
0000
0110
0000
0010
0000
,
1000
0000
1001
0000
0000
0001
0000
0010
0100
0000
1000
0000
0000
0100
0000
0010
,
0001
0000
1000
0000
0000
0001
0000
0100
0001
0000
0010
0000
0000
0001
2000
0000
,
3100
0000
1100
0000
0000
1000
0000
0010
0100
0000
0010
0000
0000
0100
0000
0001
,
1000
0000
0100
0000
0000
0010
0000
0001
0100
0000
0010
0000
0000
1000
0002
0000
,
0013
0001
0010
0001
1000
0100
1000
0100
,
0010
0001
0010
1000
0010
0001
0100
0010
,
1000
0010
1000
0010
0100
0001
0100
0001
,
0010
0100
1000
0010
0100
0001
2000
0000
,
3001
1000
0100
0001
0100
1000
0010
0100
,
0001
1000
0010
0100
0001
1000
0100
0010
,
2100
0000
0000
0001
0001
0000
0000
3010
,
1010
0101
0110
1001
,
0010
1000
0010
0100
,
0001
0100
0001
0000
0100
0000
0110
0000
,
0010
1000
0100
0010
,
0001
1000
0001
0000
0100
0000
0110
0000
,
0010
1000
0100
0010
,
0001
0000
0000
1000
0100
0000
1000
0000
,
0001
0010
0001
0000
1000
0001
0000
0001
,
0100
0000
0010
0000
1000
0001
1000
0000
,
0010
0100
0001
0010
,
0100
0000
1000
0000
0100
1000
0100
0000
,
1000
0010
0100
0001
,
0010
0000
0100
0000
1000
0001
1000
0000
,
0010
0000
0100
0000
0001
0010
0001
0000
,
1000
0000
0010
0000
1000
0100
1000
0000
,
0001
0100
0000
0100
0001
0000
0010
0000
,
0001
1000
0000
0000
1000
0001
0000
0000
,
0011
0100
0001
1000
,
0010
0100
0010
0000
1000
0000
1001
0000
,
0010
0001
0100
0010
,
1000
0001
1000
0000
0010
0000
0110
0000
,
0100
0001
1000
0100
,
0010
0000
0000
0001
0010
0000
0001
0000
,
1000
0001
1000
0000
0001
0100
0000
0100
,
0010
0000
1000
0000
0001
1000
0001
0000
,
1000
0100
0010
0001
,
0100
0000
0001
0000
1000
0001
1000
0000
,
0001
0010
0100
1000
,
0010
0000
0100
0000
0010
1000
0010
0000
,
1000
0010
0000
0010
1000
0000
0001
0000
,
0100
0001
0000
0001
0100
0000
0010
0000
,
2001
0000
0010
0000
,
3020
0000
0100
0030
,
1002
0000
0000
1000
1003
0000
0010
0000
0100
0001
0000
0001
0100
0000
0010
0000
,
2001
0000
0000
0001
3001
0000
1000
0000
0100
0010
0001
0000
0001
0010
1000
0000
,
0012
0000
0000
0100
0103
0000
0001
0000
1000
0001
0000
0001
1000
0000
0010
0000
,
0120
0000
0000
1000
1030
0000
0010
0000
0100
0001
0100
0000
0001
1000
0100
0000
,
2100
0000
3001
0010
0100
1000
0100
0000
1000
0000
0001
1000
0100
1000
0001
0000
,
0012
0000
1003
0100
0010
0001
0010
0000
0001
0000
1000
0001
0010
0001
1000
0000
,
0120
0000
0000
1000
1030
0000
0010
0000
0210
0000
0000
0001
0301
0000
0100
0000
,
0120
1030
0210
0301
2001
3001
1002
1003
,
0001
0010
0001
1000
,
0100
0000
1000
0000
0010
0100
0010
0000
,
0100
0001
0100
0010
,
1000
0000
0001
0000
1000
0001
1000
0000
,
0001
0010
0100
1000
,
0001
0000
0000
1000
0100
0000
1000
0000
,
0010
0100
0010
0100
0001
1000
0001
1000
,
0100
0000
1000
0000
0010
0100
0010
0000
,
1000
0010
0100
0001
,
0010
0000
0100
0000
0010
0001
0010
0000
,
0100
0001
0100
1000
,
0001
0000
0100
0000
0010
1000
0010
0000
,
1000
0001
0000
0001
0100
0000
0010
0000
,
1000
0010
0000
0010
0100
0000
0001
0000
,
1000
0001
1000
0001
1000
0000
0010
0000
,
1000
0010
1000
0000
0001
0100
0001
2000
,
0002
0000
3003
0000
;

//---------------dance-single - ----------------
#NOTEDATA:;
#CHARTNAME:;
#CHARTHASH:2147483647;
#STEPSTYPE:dance-single;
#BANNER:;
#DESCRIPTION:;
#CHARTSTYLE:;
#DIFFICULTY:Hard;
#METER:17;
#METERF:17.000000;
#LASTSECONDHINT:121.521660;
#RADARVALUES:0.801098,1.656427,0.737265,0.148943,0.443104,753.000000,654.000000,99.000000,20.000000,0.000000,0.000000,0.000000,0.000000,0.000000,0.801098,1.656427,0.737265,0.148943,0.443104,753.000000,654.000000,99.000000,20.000000,0.000000,0.000000,0.000000,0.000000,0.000000;
#CREDIT:;
#DISPLAYBPM:80.000000:320.000000;
#NOTES:
// measure 0
0000
0000
0000
0000
,  // measure 1
0000
0000
0000
0000
,  // measure 2
0000
0000
0000
0000
,  // measure 3
0000
0000
0000
0000
,  // measure 4
0000
0000
0000
0000
,  // measure 5
0000
0000
0000
0000
,  // measure 6
0000
0000
0000
0000
,  // measure 7
0000
0000
0000
0000
,  // measure 8
1001
0000
0100
0000
0010
0000
0000
0010
,  // measure 9
0100
1000
0100
0000
1001
0000
0000
0000
,  // measure 10
0110
0000
0001
0000
1000
0000
0000
0001
,  // measure 11
1000
0001
0010
0000
0110
0000
0100
0000
,  // measure 12
1100
0000
0001
0000
1000
0000
0000
0001
,  // measure 13
1000
0100
1000
0000
0101
0000
0000
0000
,  // measure 14
0011
0000
0001
0000
1000
0000
0010
0100
,  // measure 15
0010
1000
0010
0000
1001
0000
0000
0000
,  // measure 16
1100
0000
1000
0000
0001
0000
0000
0010
,  // measure 17
0001
0100
0001
0000
0110
0000
0000
0000
,  // measure 18
1010
0000
0010
0000
1000
0000
0100
1000
,  // measure 19
0100
0001
0100
0000
1001
0000
0000
0000
,  // measure 20
0011
0000
0100
0000
0001
0000
0000
1000
,  // measure 21
0001
0010
0100
0000
1100
0000
0000
0000
,  // measure 22
1001
0000
0010
0000
0100
0000
0010
1000
,  // measure 23
0001
1000
0100
0000
1001
0000
0010
0000
,  // measure 24
1001
0000
0100
0000
0010
0000
0100
1000
,  // measure 25
0100
0001
0100
0000
1000
0000
0001
0000
,  // measure 26
0011
0000
0100
0000
0001
0000
1000
0010
,  // measure 27
0001
0010
1000
0000
0010
0000
0100
0000
,  // measure 28
0110
0000
0001
0000
1000
0000
0100
0010
,  // measure 29
0001
0010
0100
0000
1000
0000
0001
0000
,  // measure 30
0011
0000
1000
0000
0100
0000
1000
0100
,  // measure 31
0001
0100
1000
0000
0010
0000
0100
0000
,  // measure 32
0101
0000
0010
0000
1000
0000
0010
0100
,  // measure 33
0010
0001
0010
0000
0110
0000
1000
0000
,  // measure 34
0101
0000
1000
0000
0010
0000
1000
0100
,  // measure 35
0010
0100
1000
0000
0110
0000
0001
0000
,  // measure 36
0101
0000
1000
0000
0001
0000
0010
0001
,  // measure 37
0010
1000
0010
0000
0101
0000
0010
0000
,  // measure 38
1001
0000
0100
0000
0010
0000
0100
0001
,  // measure 39
0100
0010
1000
0000
0010
0100
0010
0000
,  // measure 40
1001
0000
1100
0000
0000
0101
0000
0010
1001
0000
0110
0000
0000
1100
0000
0100
,  // measure 41
1010
0000
0000
0000
0110
0000
0000
0000
0000
0000
0101
0000
0000
0000
0001
0000
0110
0000
0000
0000
1001
0000
0000
0000
0000
0000
1000
0000
0001
0100
1000
0100
,  // measure 42
0001
0000
0110
0000
0000
1010
0000
1000
0101
0000
1001
0000
0000
0110
0000
0010
,  // measure 43
1001
0000
0000
0000
1100
0000
0000
0000
0000
0000
0110
0000
0000
0000
0010
0000
0101
0000
0000
0000
0110
0000
0000
0000
0000
0000
0001
0000
1000
0010
0001
0010
,  // measure 44
1000
0010
0000
0000
0010
0100
0000
0000
0100
0001
0000
0100
0010
0000
0100
0000
,  // measure 45
0001
1000
0000
0000
1000
0001
0000
0000
0001
0010
0000
0001
0100
0000
0010
0000
,  // measure 46
1000
0100
0000
0000
0100
0010
0000
0000
0010
0001
0000
0100
0001
0100
0010
0000
,  // measure 47
0100
0001
0000
0000
0010
0100
0000
0000
1000
0000
0001
0100
1000
0100
0001
0000
,  // measure 48
1000
0001
0000
0001
1000
0000
0010
0000
0100
0010
0000
0010
0100
0000
0001
0000
,  // measure 49
1000
0100
0000
0100
1000
0000
0010
0000
0100
0001
0000
0001
0100
0000
0010
0000
,  // measure 50
1000
0010
1000
0010
0100
0001
0100
0001
1000
0100
0010
0001
0100
0010
0100
1000
,  // measure 51
0100
0101
0100
1100
0100
0110
1000
1001
,  // measure 52
0001
0100
0001
0000
0010
0000
0110
0000
,  // measure 53
1000
0010
1000
0000
0100
0000
0110
0000
,  // measure 54
0001
0010
0100
0000
1000
0000
0100
0000
,  // measure 55
0010
0001
1000
0000
0010
0000
1000
0000
,  // measure 56
0100
1100
1001
0011
,  // measure 57
0101
0000
0000
0001
1000
0000
1001
0000
,  // measure 58
0001
1000
0100
1000
0100
0010
0001
0010
,  // measure 59
0001
1000
0010
1000
0010
0001
0010
0001
,  // measure 60
0010
0100
0010
0000
1000
0000
0101
0000
,  // measure 61
0100
0010
0100
0000
0001
0000
1010
0000
,  // measure 62
0100
0001
0100
0000
0010
0000
1001
0000
,  // measure 63
0100
1000
0100
0000
0010
0000
1001
0000
,  // measure 64
1000
0100
0010
0000
0001
0000
0110
0000
,  // measure 65
0001
0010
0100
0000
1000
0000
0110
0000
,  // measure 66
1000
0001
0000
0001
0100
0000
0110
0000
,  // measure 67
0010
1000
0100
0000
0010
0001
1000
0000
,  // measure 68
0001
0100
0010
0000
0100
0000
0101
0000
,  // measure 69
0001
1000
0100
0000
1000
0000
1010
0000
,  // measure 70
0010
0100
0001
0000
0010
0000
0100
0000
,  // measure 71
1000
0001
0100
0001
1000
0000
0110
0000
,  // measure 72
0001
0011
1001
1100
,  // measure 73
0110
0000
0000
0010
0001
0000
1001
0000
,  // measure 74
0001
0100
0010
0100
0001
1000
0100
0001
,  // measure 75
0100
1000
0001
0010
1000
0010
0001
0100
,  // measure 76
0010
1000
0001
0000
0010
0000
0001
0100
,  // measure 77
0000
0100
0010
0000
1000
0010
1000
0000
,  // measure 78
0010
0100
0001
0000
1000
0000
0001
0100
,  // measure 79
0000
0100
0010
0000
1000
0100
0010
0000
,  // measure 80
0001
0010
0100
0000
1000
0000
0001
0000
,  // measure 81
1000
0100
0010
0000
0001
0000
0100
0000
,  // measure 82
0020
2030
3200
0320
,  // measure 83
0032
0203
0320
2030
,  // measure 84
3001
1000
0000
1000
0100
0000
0010
0000
0021
0000
0000
0000
1000
0000
0000
0000
0031
0100
0001
0000
1000
0000
0010
0000
0120
0000
0000
0000
1000
0000
0000
0000
,  // measure 85
0130
0001
0000
0001
1000
0000
0001
0000
0201
0000
0000
0000
1000
0000
0000
0000
0301
1000
0001
0000
1000
0000
0010
0100
0010
0000
1000
0000
0010
0000
0000
0000
,  // measure 86
0100
0010
0000
0010
0001
0000
0010
0000
0210
0000
0000
0000
1000
0000
0000
0000
0310
0100
0001
0000
1000
0000
0010
0000
0120
0000
0000
0000
1000
0000
0000
0000
,  // measure 87
0130
0010
0000
0010
1000
0000
0001
0000
0012
0000
0000
0000
1000
0000
0000
0000
0103
0001
1000
0000
0010
0000
0100
0010
1000
0000
0010
0000
0100
0000
0000
0000
,  // measure 88
0010
1000
0000
0010
1000
0000
0010
1000
0000
0010
1000
0000
0001
0000
0100
0000
0001
0010
0001
0000
1000
0000
0100
1000
0100
0000
1000
0000
0001
0000
0000
0000
,  // measure 89
0010
0001
0000
0010
0001
0000
0010
0001
0000
0010
0001
0000
1000
0000
0010
0000
0100
0010
0100
0000
0001
0000
1000
0010
1000
0000
0001
0000
0010
0000
0000
0000
,  // measure 90
0100
1000
0000
1000
0100
0000
0100
0010
0000
0010
0001
0000
0010
0000
0100
0000
1000
0001
0000
0001
0100
0000
0100
0010
0000
0010
1000
0000
0001
0000
0100
0000
,  // measure 91
0102
1003
1020
0130
0210
0301
0120
1000
,  // measure 92
0130
0001
0100
0000
0001
0000
1001
0000
,  // measure 93
0100
1000
0100
0000
1000
0000
1001
0000
,  // measure 94
0010
0100
0010
0000
1000
0000
0110
0000
,  // measure 95
0100
0010
0100
0000
0001
0000
0110
0000
,  // measure 96
1000
0101
1001
1010
,  // measure 97
0110
0000
0000
0100
0001
0000
0110
0000
,  // measure 98
0010
1000
0010
0001
0010
0100
0010
1000
,  // measure 99
0100
0010
0001
0100
0010
1000
0001
0100
,  // measure 100
0001
0010
0100
0000
1000
0000
1100
0000
,  // measure 101
0100
0010
0001
0000
1000
0000
0110
0000
,  // measure 102
0001
1000
0100
0000
1000
0000
0101
0000
,  // measure 103
0001
0010
1000
0000
0010
0000
0101
0000
,  // measure 104
0001
1000
0000
1000
0010
0000
0110
0000
,  // measure 105
0100
0001
0000
0001
1000
0000
1001
0000
,  // measure 106
0001
0010
0000
0010
0100
1000
0100
0000
,  // measure 107
1000
0001
0100
0000
0001
1000
0100
2000
,  // measure 108
0002
0000
3003
0000
;
