#TITLE:EXPLORATION OF SPACE;
#SUBTITLE:;
#ARTIST:COSMIC GATE;
#TITLETRANSLIT:;
#SUBTITLETRANSLIT:;
#ARTISTTRANSLIT:;
#GENRE:;
#CREDIT:;
#BANNER:EXPLORATION OF SPACE.png;
#BACKGROUND:EXPLORATION OF SPACE-bg.png;
#LYRICSPATH:;
#CDTITLE:DANCE MANIA BEST OF WORLD TRANCE -FANTASIA- 2.PNG;
#MUSIC:EXPLORATION OF SPACE.ogg;
#OFFSET:-1.760000;
#SAMPLESTART:41.747997;
#SAMPLELENGTH:15.000000;
#SELECTABLE:YES;
#BPMS:0.000000=138.000000
,188.000000=69.000000
,194.000000=138.000000
;
#STOPS:194.000000=1.272000
;
#BGCHANGES:28.000=blackhole1.mp4=1.000=1=0=1===CrossFade==,
36.000=light8.mp4=1.000=0=0=1=====,
44.000=blackhole1.mp4=1.000=0=0=1=====,
46.000=light8.mp4=1.000=0=0=1=====,
48.000=blackhole1.mp4=1.000=0=0=1=====,
50.000=light8.mp4=1.000=0=0=1=====,
52.000=blackhole1.mp4=2.000=0=0=1=====,
53.000=light8.mp4=2.000=0=0=1=====,
54.000=blackhole1.mp4=2.000=0=0=1=====,
55.000=light8.mp4=2.000=0=0=1=====,
56.000=blackhole1.mp4=2.000=0=0=1=====,
57.000=light8.mp4=2.000=0=0=1=====,
58.000=blackhole1.mp4=2.000=0=0=1=====,
59.000=light8.mp4=2.000=0=0=1=====,
60.000=light4.mp4=1.000=0=0=1=====,
76.000=planet2.mp4=1.000=0=0=1=====,
92.000=star3.mp4=1.000=0=0=1=====,
100.000=space2.mp4=0.900=0=0=1=====,
108.000=light6.mp4=1.000=0=0=1=====,
116.000=space1.mp4=0.900=0=0=1=====,
124.000=blizzard1.mp4=1.000=0=0=1=====,
132.000=snow4.mp4=1.000=0=0=1=====,
140.000=spark1.mp4=1.000=0=0=1=====,
148.000=smoke2.mp4=1.400=0=0=1=====,
156.000=blackhole1.mp4=1.000=0=1=1=StretchRewind====,
164.000=light8.mp4=1.000=0=1=1=StretchRewind====,
172.000=blackhole1.mp4=1.000=0=0=1=====,
176.000=light8.mp4=1.000=0=0=1=====,
180.000=blackhole1.mp4=1.000=0=0=1=====,
184.000=light8.mp4=1.000=0=0=1=====,
188.000=star3.mp4=1.000=0=1=1=StretchRewind====,
194.000=star3.mp4=0.100=0=0=1=====,
195.000=light4.mp4=1.000=0=1=1=StretchRewind====,
203.000=space2.mp4=0.900=0=1=1=StretchRewind====,
211.000=light6.mp4=1.000=0=1=1=StretchRewind====,
219.000=space1.mp4=0.900=0=1=1=StretchRewind====,
227.000=EXPLORATION OF SPACE-bg.png=1.000=0=0=1=====,
99999=-nosongbg-=1.000=0=0=0 // don't automatically add -songbackground-
;
#KEYSOUNDS:;
#ATTACKS:;

//---------------dance-single - ----------------
#NOTES:
     dance-single:
     :
     Beginner:
     4:
     0.000000,0.000000,0.000000,0.000000,0.000000,0.000000,0.000000,0.000000,0.000000,0.000000,0.000000,0.000000,0.000000,0.000000,0.000000,0.000000,0.000000,0.000000,0.000000,0.000000,0.000000,0.000000:
0000
0000
0000
0000
,
0000
0000
0000
0000
,
0000
0000
0000
0000
,
0000
0000
0000
0000
,
0000
0000
0000
0000
,
0000
0000
0000
0000
,
0000
0000
0000
0000
,
1000
0000
0000
0000
,
0001
0000
0000
0000
,
1000
0000
0000
0000
,
0001
0000
0000
0000
,
1000
0000
0001
0000
,
1000
0000
0001
0000
,
1000
1000
0001
0001
,
1000
1000
0001
0001
,
1000
0000
1000
0000
,
1000
0000
0000
0000
,
0001
0000
0001
0000
,
0001
0000
0000
0000
,
1000
0000
1000
0000
,
1000
0000
0000
0000
,
0001
0000
0001
0000
,
0001
0000
0000
0000
,
1000
1000
1000
0000
,
0001
0000
0001
0000
,
1000
1000
1000
0000
,
0001
0000
0001
0000
,
0001
0001
0001
0000
,
1000
0000
1000
0000
,
0001
0001
0001
0000
,
1000
0000
1000
0000
,
0001
0000
1000
1000
,
0000
0000
0010
0010
,
0000
0000
0100
0100
,
0000
0000
0001
0001
,
1000
0000
1000
0000
,
0010
0000
0010
0000
,
0100
0000
0100
0000
,
0001
0000
0001
0000
,
1000
0000
1000
1000
,
1000
0000
0001
0001
,
0001
0000
0100
0100
,
0100
0000
0010
0010
,
0010
0000
1000
1000
,
1000
0000
0100
0100
,
0100
0000
0010
0010
,
0010
0000
0001
0001
,
2002
0000
0000
0000
,
0000
0000
3003
0100
,
0000
0100
0000
0100
,
0000
0000
0000
0010
,
0000
0010
0000
0010
,
0000
0000
0000
0100
,
0000
0100
0000
0100
,
0000
0000
0000
0010
,
0000
0010
0000
0010
,
0000
0000
0000
2002
,
0000
3003
0000
0000
;

//---------------dance-single - ----------------
#NOTES:
     dance-single:
     :
     Easy:
     5:
     0.000000,0.000000,0.000000,0.000000,0.000000,0.000000,0.000000,0.000000,0.000000,0.000000,0.000000,0.000000,0.000000,0.000000,0.000000,0.000000,0.000000,0.000000,0.000000,0.000000,0.000000,0.000000:
0000
0000
0000
0000
,
0000
0000
0000
0000
,
0000
0000
0000
0000
,
1000
0000
1000
0000
,
1000
0000
0000
0000
,
0001
0000
0001
0000
,
0001
0000
0000
0000
,
0100
0100
0100
0000
,
0100
0100
0100
0000
,
0010
0010
0010
0000
,
0010
0010
0010
0000
,
1001
0000
0110
0000
,
1001
0000
0110
0000
,
1000
1001
0010
0110
,
0001
1001
0100
0110
,
0010
1000
0010
0000
,
1000
0001
1000
0000
,
0001
0010
0001
0000
,
1000
0100
1000
0000
,
0001
0010
0100
0000
,
1000
0100
0001
0000
,
0001
0100
1000
0000
,
1000
0010
0001
0000
,
0010
1000
0100
0000
,
1000
1000
0001
0001
,
0100
0001
1000
0000
,
0010
0010
0100
0100
,
0001
0010
0100
0000
,
1000
1000
0100
0100
,
0010
0000
0010
0000
,
0001
0000
0001
0000
,
1001
0000
0100
0000
,
1001
0000
0010
0000
,
1001
0000
0100
0000
,
1001
0000
0010
0000
,
1000
1000
0000
0001
,
0100
0100
0000
0010
,
1000
1000
0000
0100
,
0010
0010
0000
0100
,
1000
1100
0000
0100
,
1000
1001
0000
0010
,
0001
1001
0000
0001
,
0100
0110
0000
1000
,
0010
0110
0000
0100
,
0001
1001
0000
0001
,
1000
1010
0000
0010
,
0100
0101
0000
0001
,
2002
0000
0000
0000
,
0000
0000
0000
0000
0000
0000
0000
0000
0000
0000
0000
0000
0000
0000
0000
0000
0000
0000
0000
0000
0000
0000
0000
0000
0000
0000
0000
0000
0000
0000
0000
0000
0000
0000
0000
0000
0000
0000
0000
0000
0000
0000
0000
0000
0000
0000
0000
0000
0000
0000
0000
0000
0000
0000
0000
0000
0000
0000
0000
0000
0000
0000
0000
0000
0000
0000
0000
0000
0000
0000
0000
0000
0000
0000
0000
0000
0000
0000
0000
0000
0000
0000
0000
0000
0000
0000
0000
0000
0000
0000
0000
0000
0000
0000
0000
0000
0000
3003
0000
0000
0000
0000
0000
0000
0000
0000
0000
0000
0000
0000
0000
0000
0000
0000
0000
0000
0000
0000
0000
0000
0000
0000
0000
0000
0000
0000
0000
0000
0000
0000
0000
0000
0000
0000
0000
0000
0000
0000
0000
0000
0000
0000
0000
0000
1000
0000
0000
0000
0000
0000
0000
0000
0000
0000
0000
0000
0000
0000
0000
0000
0000
0000
0000
0000
0000
0000
0000
0000
0000
0000
0000
0000
0000
0000
0000
0000
0000
0000
0000
0000
0000
0000
0000
0000
0000
0000
0000
0000
0000
0000
0000
0000
,
1000
1000
0000
0010
,
0010
0010
0000
1000
,
1000
1000
0000
0010
,
0010
0010
0000
0100
,
0100
0100
0000
0001
,
0001
0001
0000
0100
,
0100
0100
0000
0001
,
0001
0001
0000
2002
,
0000
3003
0000
0000
;

//---------------dance-single - ----------------
#NOTES:
     dance-single:
     :
     Medium:
     11:
     0.000000,0.000000,0.000000,0.000000,0.000000,0.000000,0.000000,0.000000,0.000000,0.000000,0.000000,0.000000,0.000000,0.000000,0.000000,0.000000,0.000000,0.000000,0.000000,0.000000,0.000000,0.000000:
0000
0000
0000
0000
,
0000
0000
0000
0000
,
0000
0000
0000
0000
,
1000
1000
1000
0000
0001
0010
0001
1000
,
0000
0010
0000
0100
0000
0001
0010
0100
,
1000
1000
1000
0000
0100
1000
0100
0010
,
0000
0001
0000
0100
0001
0100
1000
0100
,
0010
0000
0101
0000
0001
1000
0001
0000
,
1000
0000
1010
0000
1000
0001
1000
0000
,
0010
0000
0110
0000
0100
0001
0100
0000
,
0001
0000
0011
0000
1000
0001
1000
0000
,
0010
0010
0010
0000
0100
0100
0100
0000
,
0001
0001
0001
0000
1000
1000
1000
0000
,
0001
0001
1000
1000
0010
0010
0100
0100
,
0001
0010
0100
1000
0010
0100
0001
0010
,
0100
0000
1100
0000
1000
0100
0001
0100
,
0000
1000
0000
0010
0000
0100
0001
0001
,
0010
0000
1000
0000
0010
0000
0000
0010
0001
0000
1000
0000
0100
0000
1000
0000
,
0000
0001
0000
0100
0001
0000
1001
0000
,
0010
0000
0110
0000
1000
0010
0001
0010
,
0000
0100
0000
0010
0000
1000
0001
0001
,
0100
0000
1000
0000
0100
0000
0000
0100
0001
0000
0010
0000
0001
0000
1000
0000
,
0000
0001
0000
0100
0010
0000
1001
0000
,
0100
0100
0100
0000
1000
0010
1000
0000
,
0001
0010
0001
0000
1000
0100
1000
0000
,
0010
0010
0010
0000
1000
0001
1000
0000
,
0001
0100
0001
0000
0010
0001
0010
0001
,
1000
1000
1000
0000
0010
0100
0010
0000
,
0010
0001
0010
0000
0010
1000
0010
0000
,
0100
0100
0100
0000
0100
0001
0100
0000
,
0100
1000
0100
0000
0100
0010
0100
0000
,
0010
0000
0000
0000
1001
0000
0000
0000
1000
0200
0000
0000
1300
0000
0000
0000
,
1000
0000
0000
0000
1001
0000
0000
0000
0001
0020
0000
0000
0031
0000
0000
0000
,
0100
0000
0001
0000
0100
0000
0000
0000
0001
2000
0000
0000
3100
0000
0000
0000
,
1000
0010
1000
0000
0001
0001
0001
0000
,
0100
0000
0010
0000
1000
0010
0001
0000
,
0010
0000
1000
0000
0001
0100
1000
0000
,
0100
0000
0010
0000
0100
0001
1000
0000
,
0010
0000
1000
0000
0100
0010
0001
0000
,
1100
0000
1100
0000
0001
0100
0001
0000
,
0110
0000
0110
0000
1000
0001
1000
0000
,
0011
0000
0011
0000
0001
0100
1000
0000
,
1100
0000
1100
0000
0100
0010
1000
0000
,
1001
0000
1001
0000
0010
0100
0001
1000
,
0010
0000
1010
0000
1000
0100
0010
0001
,
1000
0000
1001
0000
0001
0010
1000
0010
,
0001
0000
1001
0000
1000
0100
0010
0002
,
2000
0000
0000
0000
,
0000
0000
0000
0000
0000
0000
0000
0000
0000
0000
0000
0000
0000
0000
0000
0000
0000
0000
0000
0000
0000
0000
0000
0000
0000
0000
0000
0000
0000
0000
0000
0000
0000
0000
0000
0000
0000
0000
0000
0000
0000
0000
0000
0000
0000
0000
0000
0000
0000
0000
0000
0000
0000
0000
0000
0000
0000
0000
0000
0000
0000
0000
0000
0000
0000
0000
0000
0000
0000
0000
0000
0000
0000
0000
0000
0000
0000
0000
0000
0000
0000
0000
0000
0000
0000
0000
0000
0000
0000
0000
0000
0000
0000
0000
0000
0000
0000
3003
0000
0000
0000
0000
0000
0000
0000
0000
0000
0000
0000
0000
0000
0000
0000
0000
0000
0000
0000
0000
0000
0000
0000
0000
0000
0000
0000
0000
0000
0000
0000
0000
0000
0000
0000
0000
0000
0000
0000
0000
0000
0000
0000
0000
0000
0000
1000
0000
0000
0000
0000
0000
0000
0000
0000
0000
0000
0000
0000
0000
0000
0000
0000
0000
0000
0000
0000
0000
0000
0000
0100
0000
0000
0000
0000
0000
0000
0000
0000
0000
0000
0000
0000
0000
0000
0000
0000
0000
0000
0000
0000
0000
0000
0000
,
1000
0000
0010
0100
0010
0001
0010
0000
,
1010
0000
0010
0000
0011
0000
0010
0100
,
0010
0000
1000
0100
0010
0100
1000
0001
,
1000
0000
0001
0001
0001
0000
0010
0001
,
0010
0000
0001
1000
0100
0010
0100
0000
,
1100
0000
0100
0000
0101
0000
0100
1000
,
0100
0000
0000
1000
0001
0000
0010
0000
0100
0000
1000
0000
0001
0000
1000
0000
,
0001
0000
0100
0100
0100
0000
2002
0000
,
0000
3003
0000
0000
;

//---------------dance-single - ----------------
#NOTES:
     dance-single:
     :
     Hard:
     14:
     0.605708,0.874491,0.185151,0.138863,0.481392,458.000000,438.000000,20.000000,15.000000,0.000000,0.000000,0.605708,0.874491,0.185151,0.138863,0.481392,458.000000,438.000000,20.000000,15.000000,0.000000,0.000000:
// measure 0
0000
0000
0000
0000
,  // measure 1
0000
0000
0000
0000
,  // measure 2
0000
0000
0000
0000
,  // measure 3
1000
0100
1000
0100
1000
0000
0000
0000
0010
0000
1000
0000
0001
0000
0010
0000
,  // measure 4
0000
0001
0000
1000
0000
0100
0000
1000
,  // measure 5
0001
0010
0001
0010
0001
0000
0000
1000
0001
0000
0010
0000
0001
0000
1000
0000
,  // measure 6
0000
0100
0000
0010
0100
1000
0100
0001
,  // measure 7
0100
1000
0100
1000
0100
0000
0000
0000
1000
0000
0001
0000
1000
0000
0000
0000
,  // measure 8
0001
0010
0001
0010
0001
0000
0000
0000
0100
0000
0010
0000
0100
0000
0000
0000
,  // measure 9
0010
1000
0010
1000
0010
0000
0000
0000
1000
0000
0100
0000
0010
0000
0001
0000
,  // measure 10
0100
0010
0100
0010
0100
0000
0000
0000
0001
0000
0100
0000
0010
0000
1000
0000
,  // measure 11
0001
0100
0001
0100
0001
0000
0000
0000
1000
0010
1000
0010
1000
0000
0000
0000
,  // measure 12
0010
0100
0010
0100
0010
0000
0000
0000
1000
0001
1000
0001
1000
0000
0000
0000
,  // measure 13
0001
0100
0001
0100
0010
1000
0010
1000
0100
1000
0100
0010
0001
0010
0001
1000
,  // measure 14
0001
1000
0001
1000
0001
1000
0001
1000
0010
0100
0010
0100
0010
0100
0010
0100
,  // measure 15
0010
0000
1000
0000
0010
1000
0100
0010
,  // measure 16
0000
0000
0101
0000
0000
0000
1000
0000
0000
0000
1010
0000
1000
0001
1000
0000
,  // measure 17
0001
0010
0001
0000
0100
0000
0000
0100
0010
0000
1000
0000
0001
0000
0100
0000
,  // measure 18
0000
1001
0000
0010
1000
1000
0100
1000
,  // measure 19
0001
0000
0100
0001
0100
0000
0000
0000
0001
0000
1000
0000
0100
0000
0010
0000
,  // measure 20
0000
0000
1100
0000
0000
0000
0100
0000
0000
0000
1000
0001
1000
0001
1000
0000
,  // measure 21
0001
0010
0001
0000
1000
0000
0000
1000
0001
0000
0010
0000
0100
0000
1000
0000
,  // measure 22
0000
1001
0000
0010
0001
0001
0100
0001
,  // measure 23
1000
0000
0010
1000
0001
0000
0000
0000
0100
0000
0010
0000
1000
0000
0001
0000
,  // measure 24
0000
0000
0110
0000
0000
0000
1000
0000
0000
0000
0101
0000
0010
0001
0010
0000
,  // measure 25
0001
1000
0100
0000
1000
0000
0000
1000
0010
0000
0100
0000
0001
0000
0010
0000
,  // measure 26
0000
0101
0000
0001
1000
1000
0100
1000
,  // measure 27
0010
0000
1000
0100
0010
0000
0000
0000
0010
0000
0001
0000
0100
0000
1000
0000
,  // measure 28
0000
0000
0101
0000
0000
0000
0010
0000
0000
0000
1000
0001
1000
0001
1000
0001
,  // measure 29
0100
0001
0000
1000
0000
0010
0000
1000
,  // measure 30
0000
0100
0000
1000
0100
0100
1000
0010
,  // measure 31
0200
0000
0001
0000
0301
0000
0000
0000
0001
1000
0000
0000
1001
0000
0000
0000
,  // measure 32
2000
0000
0010
0000
3010
0000
0000
0000
0010
1000
0000
0000
1100
0000
0100
0000
,  // measure 33
2000
0000
0001
0000
3001
0000
0000
0000
0001
0010
0000
0000
0101
0000
0001
0000
,  // measure 34
0200
0000
0010
0000
0310
0000
0000
0000
0010
1000
0000
0000
1001
0000
0001
0000
,  // measure 35
0100
0000
0010
0000
1000
0000
0002
0000
0000
0103
0010
0000
1010
0000
0000
0000
,  // measure 36
1000
0000
0100
0000
0001
0000
0200
0000
0000
1300
0100
0000
1001
0000
0001
0000
,  // measure 37
0100
0001
0100
0000
0001
0000
0020
0000
0000
0031
1000
0000
1001
0000
0001
0000
,  // measure 38
1000
0100
1000
0000
0010
0000
0200
0000
0000
0301
0100
0000
0101
0000
0001
0000
,  // measure 39
1000
0010
1000
0010
1000
0000
0000
0000
0010
0000
0100
0000
0001
0000
0010
0000
,  // measure 40
0001
1000
0001
1000
0001
0000
0000
0000
1000
0000
0100
0000
0010
0000
0100
0000
,  // measure 41
1000
0001
1000
0001
1000
0000
0000
0000
0001
0000
1000
0000
0100
0000
0010
0000
,  // measure 42
0100
1000
0100
1000
0100
0000
0000
0000
1000
0000
0010
0000
0001
0000
0010
0000
,  // measure 43
1000
0010
1000
0010
2000
0000
0000
0000
3010
0100
0000
0000
0100
0000
0001
0000
,  // measure 44
1000
0001
1000
0001
2000
0000
0000
0000
3001
1000
0000
0000
1000
0000
0010
0000
,  // measure 45
0100
0010
0100
0010
0200
0000
0000
0000
0301
0100
0000
0000
0010
0000
1000
0000
,  // measure 46
1001
0000
0000
0001
1000
0000
0000
0000
1000
0001
0100
0000
0010
0000
0100
0000
,  // measure 47
0220
0000
0000
0000
,  // measure 48
0000
0000
0000
0000
0000
0000
0000
0000
0000
0000
0000
0000
0000
0000
0000
0000
0000
0000
0000
0000
0000
0000
0000
0000
0000
0000
0000
0000
0000
0000
0000
0000
0000
0000
0000
0000
0000
0000
0000
0000
0000
0000
0000
0000
0000
0000
0000
0000
0000
0000
0000
0000
0000
0000
0000
0000
0000
0000
0000
0000
0000
0000
0000
0000
0000
0000
0000
0000
0000
0000
0000
0000
0000
0000
0000
0000
0000
0000
0000
0000
0000
0000
0000
0000
0000
0000
0000
0000
0000
0000
0000
0000
0000
0000
0000
0000
0000
0330
0000
0000
0000
0000
0000
0000
0000
0000
0000
0000
0000
0000
0000
0000
0000
0000
0000
0000
0000
0000
0000
0000
0000
0000
0000
0000
0000
0000
0000
0000
0000
0000
0000
0000
0000
0000
0000
0000
0000
0000
0000
0000
0000
0000
0000
0000
1000
0000
0000
0000
0000
0000
0000
0000
0000
0000
0000
0000
0010
0000
0000
0000
0000
0000
0000
0000
0000
0000
0000
0000
1000
0000
0000
0000
0000
0000
0000
0000
0000
0000
0000
0000
0010
0000
0000
0000
0000
0000
0000
0000
0000
0000
0000
0000
,  // measure 49
1000
0000
0000
1000
0010
0000
0100
0000
0001
0000
0010
0000
1000
0000
0010
0000
,  // measure 50
0001
0000
0100
0000
0010
0000
1000
0000
0001
0010
0001
0000
1000
0100
1000
0100
,  // measure 51
1000
0000
0000
0001
0100
0000
0001
0000
1000
0000
0100
1000
0000
0000
1000
0001
,  // measure 52
0000
0100
0001
0000
0010
0000
0001
0000
1000
0000
0010
0000
0100
0010
0100
0010
,  // measure 53
0100
0000
0000
0100
0001
0000
1000
0000
0100
0000
1000
0000
0010
0000
0100
0001
,  // measure 54
0000
1000
0010
0000
1000
0000
0001
0000
0100
0010
0100
0000
0001
1000
0001
1000
,  // measure 55
0001
0000
0000
0001
0010
0000
0100
0000
1000
0000
0010
0000
0100
0000
0001
0100
,  // measure 56
0000
0010
1000
0000
0001
0000
0001
0000
1000
0000
0001
0000
2002
0000
0000
0000
,  // measure 57
0000
3003
0000
0000
;
