#VERSION:0.83;
#TITLE:EVERYBODY'S FREE;
#SUBTITLE:(Green Court Remix);
#ARTIST:AQUAGEN;
#TITLETRANSLIT:;
#SUBTITLETRANSLIT:;
#ARTISTTRANSLIT:;
#GENRE:;
#ORIGIN:;
#TAGS:;
#CREDIT:;
#BANNER:EVERYBODY'S FREE (Green Court Remix).png;
#BACKGROUND:EVERYBODY'S FREE (Green Court Remix)-bg.png;
#PREVIEWVID:;
#JACKET:EVERYBODY'S FREE (Green Court Remix)-jacket.png;
#CDIMAGE:;
#DISCIMAGE:;
#LYRICSPATH:;
#CDTITLE:DANCE MANIA BEST OF WORLD TRANCE -FANTASIA- 3.png;
#MUSIC:EVERYBODY'S FREE (Green Court Remix).ogg;
#OFFSET:-0.400000;
#SAMPLESTART:64.595421;
#SAMPLELENGTH:15.000000;
#SELECTABLE:YES;
#BPMS:0.000000=138.100006
,64.000000=69.050003
,84.000000=138.100006
;
#STOPS:84.000000=2.920000
,87.000000=0.655000
,89.500000=0.655000
,92.000000=0.655000
,94.500000=0.655000
,97.000000=0.655000
,99.500000=0.655000
,102.000000=0.655000
,106.250000=1.525000
;
#DELAYS:;
#WARPS:;
#TIMESIGNATURES:0.000000=4=4
;
#TICKCOUNTS:0.000000=4
;
#COMBOS:0.000000=1
;
#SPEEDS:0.000000=1.000000=0.000000=0
;
#SCROLLS:0.000000=1.000000
;
#LABELS:0.000000=Song Start
;
#BGCHANGES:16.000=geometry1.mp4=0.800=1=0=1===CrossFade==,
24.000=ring9.mp4=1.000=0=0=1=====,
32.000=text8.mp4=0.900=0=0=1=====,
48.000=text1.mp4=1.000=0=0=1=====,
62.000=circle5.mp4=1.000=0=0=1=====,
64.000=bubble1.mp4=0.500=0=0=1=====,
68.500=bubble3.mp4=0.500=0=0=1=====,
72.000=fish1.mp4=0.500=0=0=1=====,
76.500=bubble3.mp4=0.500=0=1=1=StretchRewind====,
80.000=circle5.mp4=0.700=0=1=1=StretchRewind====,
84.000=circle5.mp4=0.001=0=0=1=====,
85.000=arrows2.mp4=1.000=0=0=1=====,
87.000=arrows2.mp4=0.001=0=0=1=====,
87.500=arrows2.mp4=1.000=0=0=1=====,
89.500=arrows2.mp4=0.001=0=0=1=====,
90.000=arrows2.mp4=1.000=0=0=1=====,
92.000=arrows2.mp4=0.001=0=0=1=====,
92.500=arrows2.mp4=1.000=0=0=1=====,
94.500=arrows2.mp4=0.001=0=0=1=====,
95.000=blackhole1.mp4=1.000=0=0=1=====,
97.000=blackhole1.mp4=0.001=0=0=1=====,
97.500=blackhole1.mp4=1.000=0=0=1=====,
99.500=blackhole1.mp4=0.001=0=0=1=====,
100.000=blackhole1.mp4=1.000=0=0=1=====,
102.000=blackhole1.mp4=0.001=0=0=1=====,
102.500=blackhole1.mp4=1.000=0=0=1=====,
106.250=beads1.mp4=0.001=0=0=1=====,
107.000=beads1.mp4=1.000=0=0=1=====,
123.000=fish1.mp4=1.000=0=1=1=StretchRewind====,
139.000=ring3.mp4=1.000=0=0=1=====,
147.000=ring9.mp4=1.000=0=1=1=StretchRewind====,
155.000=text1.mp4=1.000=0=1=1=StretchRewind====,
163.000=text8.mp4=1.000=0=1=1=StretchRewind====,
167.000=bubble3.mp4=1.100=0=1=1=StretchRewind====,
171.000=EVERYBODY'S FREE (Green Court Remix)-bg.png=1.000=0=0=1=====,
99999=-nosongbg-=1.000=0=0=0 // don't automatically add -songbackground-
;
#KEYSOUNDS:;
#ATTACKS:
;

//---------------dance-single - ----------------
#NOTEDATA:;
#CHARTNAME:;
#CHARTHASH:1852131264;
#STEPSTYPE:dance-single;
#BANNER:;
#DESCRIPTION:;
#CHARTSTYLE:;
#DIFFICULTY:Beginner;
#METER:2;
#METERF:2.000000;
#LASTSECONDHINT:93.716736;
#RADARVALUES:0.107704,0.136649,0.041885,0.167539,0.005236,72.000000,68.000000,4.000000,16.000000,0.000000,0.000000,0.000000,0.000000,0.000000,0.107704,0.136649,0.041885,0.167539,0.005236,72.000000,68.000000,4.000000,16.000000,0.000000,0.000000,0.000000,0.000000,0.000000;
#CREDIT:;
#NOTES:
0000
0000
0000
0000
,
0000
0000
0000
0000
,
0000
0000
0000
0000
,
0000
0000
0000
0000
,
1000
0000
1000
0000
,
1000
0000
0000
0000
,
0001
0000
0001
0000
,
0001
0000
0000
0000
,
1000
0000
1000
0000
,
1000
0000
0000
0000
,
0001
0000
0001
0000
,
0001
0000
0000
0000
,
1000
0000
1000
0000
,
1000
0000
0000
0000
,
0001
0000
0001
0000
,
0001
0000
0000
0000
,
1001
0000
0000
0000
,
0100
0000
0000
0000
,
1001
0000
0000
0000
,
0010
0000
0000
0000
,
2002
0000
0000
0000
,
3003
0000
2000
0000
0000
0000
3000
0002
,
0000
0000
0000
0003
2000
0000
0000
0000
,
3000
0002
0000
0000
0000
0003
0200
0000
,
0000
0000
0300
0020
0000
0000
0000
0030
,
0200
0000
0000
0000
0000
0020
0000
0000
,
0000
0000
0000
0000
0000
0000
0000
0000
0000
0330
0000
0000
1000
0000
0000
0000
,
1000
1000
0000
0001
,
0000
0001
0000
1000
,
1000
1000
0000
0001
,
0000
0001
0000
0001
,
0001
0001
0000
1000
,
0000
1000
0000
0001
,
0001
0001
0000
1000
,
0000
1000
0000
0002
,
0000
0003
0000
0100
,
0100
0100
0000
0002
,
0000
0003
0000
1000
,
1000
1000
0000
0020
,
0000
0030
0000
0100
,
0100
0100
0000
0020
,
0000
0030
0000
0100
,
0100
0100
0000
2002
,
0000
0000
3003
0000
;

//---------------dance-single - ----------------
#NOTEDATA:;
#CHARTNAME:;
#CHARTHASH:3661792102;
#STEPSTYPE:dance-single;
#BANNER:;
#DESCRIPTION:;
#CHARTSTYLE:;
#DIFFICULTY:Easy;
#METER:5;
#METERF:5.000000;
#LASTSECONDHINT:94.151207;
#RADARVALUES:0.173523,0.320681,0.083770,0.230366,0.010471,116.000000,108.000000,8.000000,22.000000,0.000000,0.000000,0.000000,0.000000,0.000000,0.173523,0.320681,0.083770,0.230366,0.010471,116.000000,108.000000,8.000000,22.000000,0.000000,0.000000,0.000000,0.000000,0.000000;
#CREDIT:;
#NOTES:
0000
0000
0000
0000
,
0000
0000
0000
0000
,
0000
0000
0000
0000
,
0000
0000
0000
0000
,
1000
0000
1000
0000
,
0001
0000
0001
0000
,
0100
0100
0010
0010
,
0100
0100
0010
0010
,
0100
0000
0100
0000
,
0010
0000
0010
0000
,
1000
1000
0001
0001
,
1000
1000
0001
0001
,
0100
0000
0100
0000
,
0001
0000
0001
0000
,
1000
1000
0100
0100
,
0010
0010
0001
0001
,
2002
0000
0000
0000
0000
0000
3003
0002
,
0200
0000
0000
0000
0000
0000
0000
0303
,
2002
0000
0000
0000
0000
0000
3003
2000
,
0200
0000
0000
0000
0000
0000
0000
3300
,
0220
0000
0000
0000
,
0000
0330
0000
0000
0000
0000
0000
0000
0000
0000
0000
0000
0000
0000
0000
0000
0000
0000
0000
0000
0000
0000
0000
0000
0000
0000
0000
0000
0000
0000
0000
0000
0000
0000
0000
0000
0000
0000
0000
0000
0000
0000
0000
0000
0000
0000
0000
0000
2000
0000
0000
0000
0000
0000
0000
0000
0000
0000
0000
0000
0000
0000
0000
0000
0000
0000
0000
0000
0000
0000
0000
0000
0000
0000
0000
0000
0000
0000
0000
0000
0000
0000
0000
0000
0000
0000
0000
0000
0000
0000
0000
0000
0000
0000
0000
0000
0000
0000
0000
0000
0000
0000
0000
0000
0000
0000
0000
0000
0000
0000
0000
0000
0000
0000
0000
0000
0000
0000
0000
0000
0000
0000
0000
0000
0000
0000
0000
0000
0000
0000
0000
0000
0000
0000
0000
0000
0000
0000
0000
0000
0000
0000
0000
0000
3000
0000
0000
0000
0000
0000
0000
0000
0000
0000
0000
0000
0000
0000
0000
0000
0000
0000
0000
0000
0000
0000
0000
0000
0002
0000
0000
0000
0000
0000
0000
0000
0000
0000
0000
0000
0000
0000
0000
0000
0000
0000
0000
0000
0000
0000
0000
0000
,
0000
0000
0000
0003
2000
0000
0000
0000
,
3000
0002
0000
0000
0000
0003
0100
0000
,
0100
0000
0110
0010
0000
0010
0000
0110
,
0100
0000
0100
0000
0110
2002
0000
0000
,
0000
0000
0000
0000
0000
0000
0000
0000
0000
0000
0000
0000
0000
0000
0000
0000
0000
0000
0000
0000
0000
0000
0000
0000
0000
0000
0000
0000
0000
0000
0000
0000
0000
0000
0000
0000
0000
0000
0000
0000
0000
0000
0000
0000
0000
0000
0000
0000
0000
0000
0000
0000
0000
0000
0000
0000
0000
0000
0000
0000
0000
0000
0000
0000
0000
0000
0000
0000
0000
0000
0000
0000
0000
0000
0000
0000
0000
0000
0000
0000
0000
0000
0000
0000
0000
0000
0000
0000
0000
0000
0000
0000
0000
0000
0000
0000
0000
0000
0000
0000
0000
0000
0000
0000
0000
0000
0000
0000
0000
3003
0000
0000
0000
0000
0000
0000
0000
0000
0000
0000
0000
0000
0000
0000
0000
0000
0000
0000
0000
0000
0000
0000
0000
0000
0000
0000
0000
0000
0000
0000
0000
0000
0000
0000
1000
0000
0000
0000
0000
0000
0000
0000
0000
0000
0000
0000
0000
0000
0000
0000
0000
0000
0000
0000
0000
0000
0000
0000
0000
0000
0000
0000
0000
0000
0000
0000
0000
0000
0000
0000
0000
0000
0000
0000
0000
0000
0000
0000
0000
0000
0000
0000
,
0000
0010
0000
0000
1000
0000
0001
0000
,
0000
0010
0000
0000
0001
0000
0100
0000
,
0000
0010
0000
0000
1000
0000
0010
0000
,
0010
1000
1000
0001
,
0000
0100
0000
0000
0001
0000
0010
0000
,
0000
0001
0000
0000
1000
0000
0100
0000
,
0000
1000
0000
0000
0010
0000
0100
0000
,
0100
0001
0001
2000
,
0000
3010
1000
0001
,
0000
0001
0000
0200
,
0000
0310
1000
0001
,
0001
1000
1000
0200
,
0000
0310
0001
1000
,
0000
0100
0000
0020
,
0000
0031
0100
0001
,
0001
1000
1000
0220
,
0000
0000
0000
0330
;

//---------------dance-single - ----------------
#NOTEDATA:;
#CHARTNAME:;
#CHARTHASH:3031053441;
#STEPSTYPE:dance-single;
#BANNER:;
#DESCRIPTION:;
#CHARTSTYLE:;
#DIFFICULTY:Medium;
#METER:9;
#METERF:9.000000;
#LASTSECONDHINT:94.151207;
#RADARVALUES:0.324607,0.389398,0.125654,0.240838,0.057592,217.000000,205.000000,12.000000,23.000000,0.000000,0.000000,0.000000,0.000000,0.000000,0.324607,0.389398,0.125654,0.240838,0.057592,217.000000,205.000000,12.000000,23.000000,0.000000,0.000000,0.000000,0.000000,0.000000;
#CREDIT:;
#NOTES:
0000
0000
0000
0000
,
0000
0000
0000
0000
,
0000
0000
0000
0000
,
0000
0000
0000
0000
,
1000
1000
0001
0001
,
0100
0100
0010
0010
,
1000
0100
0010
0000
0010
0001
1000
0000
,
1000
0001
0100
0001
1000
0010
1000
0000
,
0010
0010
0100
0100
,
0001
0001
0010
0010
,
0001
0010
1000
0000
1000
0010
0001
0000
,
1000
0100
0001
0000
0001
0100
1000
0000
,
0010
0010
1000
1000
,
1001
0000
0000
0001
0100
0000
0010
0000
,
1000
0100
0001
0000
0001
0100
1000
0000
,
0001
0010
1000
0000
1000
0010
0001
0010
,
0000
2002
0000
0000
0000
0000
0000
0000
0000
0000
0003
0000
0000
3100
1000
0000
,
0100
0000
1002
0000
0000
0000
0010
0000
0000
0000
0103
0000
0001
0010
0100
1000
,
0000
2002
0000
0000
0000
0000
0000
0000
0000
0000
3000
0000
0000
0103
0010
0000
,
0100
0000
2001
0000
0000
0000
0010
0000
0000
0000
3100
0000
1000
0100
0010
0001
,
0000
2002
0000
0000
0000
0000
0000
0000
0000
0000
3000
0000
0000
0100
0103
0000
,
2001
0000
3001
0010
0001
0010
0002
1003
,
0100
1000
0100
2000
3001
0100
0001
0100
,
0002
1003
0010
1000
0010
2000
3010
0010
,
0010
0010
0020
0130
0100
0100
0100
0200
,
0310
0010
0010
0010
0020
0200
0000
0000
,
0000
0000
0000
0000
0000
0000
0000
0000
0000
0000
0000
0000
0000
0000
0000
0000
0000
0000
0000
0000
0000
0000
0000
0000
0000
0000
0000
0000
0000
0000
0000
0000
0000
0000
0000
0000
0000
0000
0000
0000
0000
0000
0000
0000
0000
0000
0000
0000
0000
0000
0000
0000
0000
0000
0000
0000
0000
0000
0000
0000
0000
0000
0000
0000
0000
0000
0000
0000
0000
0000
0000
0000
0000
0000
0000
0000
0000
0000
0000
0000
0000
0000
0000
0000
0000
0000
0000
0000
0000
0000
0000
0000
0000
0000
0000
0000
0000
0000
0000
0000
0000
0000
0000
0000
0000
0000
0000
0000
0000
0330
0000
0000
0000
0000
0000
0000
0000
0000
0000
0000
0000
0000
0000
0000
0000
0000
0000
0000
0000
0000
0000
0000
0000
0000
0000
0000
0000
0000
0000
0000
0000
0000
0000
0000
1001
0000
0000
0000
0000
0000
0000
0000
0000
0000
0000
0000
0000
0000
0000
0000
0000
0000
0000
0000
0000
0000
0000
0000
0000
0000
0000
0000
0000
0000
0000
0000
0000
0000
0000
0000
0000
0000
0000
0000
0000
0000
0000
0000
0000
0000
0000
0000
,
1000
0100
0000
0010
0001
0000
0100
0000
,
0001
1000
0001
0000
0100
0000
0110
0000
,
0010
1000
0000
1000
0100
0000
1000
0001
,
0010
0100
1000
0100
0010
0000
0011
0000
,
1000
0100
0000
1000
0001
0000
0010
0000
,
0001
1000
0001
0000
0100
0000
0110
0000
,
0001
0100
0000
0001
1000
0000
0100
0000
,
0010
0000
0001
0010
0100
1000
0200
0000
,
0000
0000
1300
0100
1000
0000
0001
0000
,
0010
0001
0100
0020
,
0000
0000
1030
0001
1000
0000
0001
0000
,
0010
0100
1000
0100
0010
0000
0002
0000
,
0000
0000
1003
0001
1000
0000
0001
0000
,
0010
0000
0001
1000
0100
0000
2000
0000
,
0000
0000
3001
0010
0001
0000
0100
0000
,
0010
0000
1000
0001
0010
0100
2002
0000
,
0000
0000
0000
3003
;

//---------------dance-single - ----------------
#NOTEDATA:;
#CHARTNAME:;
#CHARTHASH:2446646689;
#STEPSTYPE:dance-single;
#BANNER:;
#DESCRIPTION:;
#CHARTSTYLE:;
#DIFFICULTY:Hard;
#METER:13;
#METERF:13.000000;
#LASTSECONDHINT:94.151207;
#RADARVALUES:0.538519,0.710079,0.251309,0.198953,0.502618,360.000000,336.000000,24.000000,19.000000,0.000000,0.000000,0.000000,0.000000,0.000000,0.538519,0.710079,0.251309,0.198953,0.502618,360.000000,336.000000,24.000000,19.000000,0.000000,0.000000,0.000000,0.000000,0.000000;
#CREDIT:;
#NOTES:
// measure 0
0000
0000
0000
0000
,  // measure 1
0000
0000
0000
0000
,  // measure 2
0000
0000
0000
0000
,  // measure 3
0000
0000
0000
0000
,  // measure 4
1000
0000
0000
0010
0000
0000
0100
0000
0001
0000
0000
0010
0000
0000
0001
0000
,  // measure 5
1000
0000
0000
0100
0000
0000
0010
0000
0001
0000
0000
0000
0001
0000
1000
0000
,  // measure 6
0100
0000
0010
0000
0001
1000
0000
0000
1000
0000
0100
0000
1000
0001
0000
0000
,  // measure 7
0001
0000
0010
0000
0001
1000
0000
0000
0100
0000
0010
0000
0001
0010
0000
0000
,  // measure 8
0100
0000
0000
1000
0000
0000
0010
0000
0100
0000
0000
0001
0000
0000
1000
0000
,  // measure 9
0001
0000
0000
0100
0000
0000
0010
0000
1010
0000
0000
1000
0000
0000
0001
0000
,  // measure 10
1001
0000
0000
0100
0000
0000
0010
0000
0001
0000
1000
0000
0100
1000
0000
0000
,  // measure 11
0001
0000
0100
0000
0010
1000
0000
0000
1000
0000
0100
0000
0010
0001
0000
0000
,  // measure 12
0001
0000
0000
1000
0000
0000
0010
0000
0100
0000
0000
0001
0000
0000
1000
0000
,  // measure 13
0100
0000
0000
0010
0000
0000
0100
0000
1100
0000
0000
1000
0000
0000
0001
0000
,  // measure 14
1001
0000
0000
0010
0000
0000
0100
0000
0001
0000
0010
0000
0001
1000
0000
0000
,  // measure 15
0100
0000
1000
0000
0100
0010
0000
0000
0100
0000
1000
0001
1000
0000
0010
0000
,  // measure 16
1000
0001
0000
0001
0010
0000
0001
0000
2000
0000
0000
0000
0000
0100
3100
0000
,  // measure 17
1000
0000
0002
0000
0000
0010
0010
0000
0000
1000
1000
0000
1003
0100
0010
0100
,  // measure 18
0010
0001
0000
0001
1000
0000
1000
0000
0002
0000
0000
0000
0000
0010
0013
0000
,  // measure 19
0001
0000
2000
0000
0000
0100
0100
0000
0000
3001
0000
0010
0100
1000
0100
0010
,  // measure 20
0000
0022
0000
0000
0000
0000
0000
0000
0000
0000
0030
0000
0000
1000
1003
0000
,  // measure 21
2002
3000
0000
0000
0000
0000
0000
0000
0000
0000
0000
0000
0000
0000
0000
0000
0000
0000
0000
0000
0000
0000
0000
0000
0000
0000
0000
0000
0000
0000
0000
0000
0000
0000
0000
0000
0000
0000
0000
0000
0000
0000
0000
0000
0000
0000
0000
0000
1003
0000
0000
0000
0000
0000
0000
0000
0000
0000
0000
0000
0000
0000
0000
0000
0000
0000
0000
0000
0000
0000
0000
0000
1000
0000
0000
0000
0000
0000
0000
0000
0000
0000
0000
0000
0000
0000
0000
0000
0000
0000
0000
0000
0000
0000
0000
0000
1000
0000
0000
0000
0000
0000
0000
0000
0000
0000
0000
0000
0000
0000
0000
0000
0000
0000
0000
0000
0000
0000
0000
0000
1000
0000
0000
0000
0000
0000
0000
0000
0000
0000
0000
0000
0000
0000
0000
0000
0000
0000
0000
0000
0000
0000
0000
0000
2100
0000
0000
0000
0000
0000
0000
0000
0000
0000
0000
0000
0000
0000
0000
0000
0000
0000
0000
0000
0000
0000
0000
0000
3001
0000
0000
0000
0000
0000
0000
0000
0000
0000
0000
0000
0000
0000
0000
0000
0000
0000
0000
0000
0000
0000
0000
0000
,  // measure 22
0001
0001
0001
0102
0103
0100
0100
0100
,  // measure 23
0210
0000
0310
0000
0010
0000
0010
0000
0010
0000
1020
0000
0130
0001
0100
0001
,  // measure 24
0100
0001
0100
0001
0200
0000
0301
1000
0001
1000
0001
1000
0001
1000
0002
0000
,  // measure 25
1003
0100
1000
0100
1000
0100
1000
0100
2000
0000
3010
0100
0010
0100
0010
0100
,  // measure 26
0010
0100
0010
0100
0010
0100
0010
0100
0020
0200
0330
0000
1001
0000
0100
0000
,  // measure 27
0100
1000
0010
0010
0100
0001
1010
0010
,  // measure 28
0100
0001
1000
1000
0100
0010
0101
0001
,  // measure 29
1000
0000
0100
0000
0010
0000
0010
0000
0100
0000
1000
0000
1001
0000
0001
0010
,  // measure 30
0001
0000
1000
0000
0001
1000
0001
0000
1000
0000
0100
0000
0011
0000
1000
0000
,  // measure 31
1000
0001
0100
0100
0010
1000
1100
0010
,  // measure 32
0001
1000
0010
0010
0100
0001
1010
0001
,  // measure 33
0100
0000
0010
0000
1000
0000
1000
0000
0100
0000
0010
0000
1100
0000
0001
1000
,  // measure 34
0001
0000
1000
0100
1000
0000
0010
0100
0010
0100
0010
0000
1000
0010
1000
0010
,  // measure 35
1000
0000
0001
0000
0010
0001
0000
0000
1001
0000
0000
0000
1000
0100
0000
0000
,  // measure 36
0010
0000
0100
0000
1000
0001
0000
0000
0110
0000
0000
0000
0001
0100
0001
0100
,  // measure 37
0001
0000
1000
0000
0100
0010
0000
0000
1100
0000
0000
0000
1000
0001
0000
0010
,  // measure 38
0001
0000
0100
0000
0001
1000
0001
1000
0001
0000
0000
0000
0100
0010
0100
0010
,  // measure 39
0100
0000
0001
0000
0010
0001
0000
0000
1001
0000
0000
0000
1000
0100
0000
1000
,  // measure 40
0010
0000
0100
0001
0100
0001
0100
0000
1010
0000
0000
0000
0001
1000
0001
1000
,  // measure 41
0001
0000
0100
0000
0010
1000
0000
0000
1001
0000
0000
0000
0100
0001
0000
1000
,  // measure 42
0010
0000
0100
0001
0100
0001
0100
0001
1000
0000
0010
0000
0100
0010
0100
0020
,  // measure 43
0200
0000
0000
0330
;
