#VERSION:0.83;
#TITLE:EURO-ROMANCE;
#SUBTITLE:;
#ARTIST:K-MASERA;
#TITLETRANSLIT:;
#SUBTITLETRANSLIT:;
#ARTISTTRANSLIT:;
#GENRE:;
#ORIGIN:;
#TAGS:;
#CREDIT:;
#BANNER:EURO-ROMANCE.png;
#BACKGROUND:EURO-ROMANCE-bg.png;
#PREVIEWVID:;
#JACKET:EURO-ROMANCE-jacket.png;
#CDIMAGE:;
#DISCIMAGE:;
#LYRICSPATH:;
#CDTITLE:Beatmania IIDX.png;
#MUSIC:EURO-ROMANCE.ogg;
#OFFSET:-0.470000;
#SAMPLESTART:54.134598;
#SAMPLELENGTH:15.000000;
#SELECTABLE:YES;
#BPMS:0.000000=161.000000
,312.000000=148.000000
,313.000000=138.000000
,314.000000=124.000000
,315.000000=98.000000
;
#STOPS:;
#DELAYS:;
#WARPS:;
#TIMESIGNATURES:0.000000=4=4
;
#TICKCOUNTS:0.000000=4
;
#COMBOS:0.000000=1
;
#SPEEDS:0.000000=1.000000=0.000000=0
;
#SCROLLS:0.000000=1.000000
;
#LABELS:0.000000=Song Start
;
#BGCHANGES:-1.000=EURO-ROMANCE.mp4=1.000=1=0=1===CrossFade==,
324.000=EURO-ROMANCE-bg.png=1.000=1=0=1===CrossFade==,
99999.000=-nosongbg-=1.000=0=0=0=StretchNoLoop====,
99999=-nosongbg-=1.000=0=0=0 // don't automatically add -songbackground-
;
#KEYSOUNDS:;
#ATTACKS:
;

//---------------dance-single - ----------------
#NOTEDATA:;
#CHARTNAME:;
#CHARTHASH:3630194006;
#STEPSTYPE:dance-single;
#BANNER:;
#DESCRIPTION:;
#CHARTSTYLE:;
#DIFFICULTY:Easy;
#METER:6;
#METERF:6.000000;
#LASTSECONDHINT:123.577560;
#RADARVALUES:0.000000,0.000000,0.000000,0.000000,0.000000,0.000000,0.000000,0.000000,0.000000,0.000000,0.000000,0.000000,0.000000,0.000000,0.000000,0.000000,0.000000,0.000000,0.000000,0.000000,0.000000,0.000000,0.000000,0.000000,0.000000,0.000000,0.000000,0.000000;
#CREDIT:;
#NOTES:
0000
0000
0000
0000
,
0000
0000
0000
0000
,
0000
0000
0000
0000
,
0000
0000
0000
0000
,
0000
0000
0000
0000
,
1000
0000
1000
0000
,
0001
0001
1000
1000
,
0100
0000
0010
0000
,
0001
0001
0010
0010
,
0001
1000
0100
0010
,
0100
0000
1000
1001
,
0001
0000
0001
0001
,
1000
0000
1000
1000
,
0010
0100
0001
0010
,
0001
1000
0100
1000
,
1010
0000
0010
0010
,
0100
0000
0100
0100
,
0001
0000
0001
0001
,
1000
0100
0010
0100
,
1001
0000
1000
1000
,
0010
0000
0100
0100
,
0001
1000
0100
0010
,
0100
1000
0001
0010
,
0100
0000
1000
1000
,
0001
0000
0001
0001
,
0100
0000
0100
0100
,
0010
1000
0001
0100
,
0002
0000
0003
0000
,
1000
1000
0010
0010
,
2000
0000
3000
0000
,
0100
0100
1000
1000
,
0020
0000
0030
0000
,
0100
0100
0001
0001
,
2002
0000
0000
0000
,
3003
2000
3100
1000
,
0020
0130
0010
0200
,
0301
0000
0001
0000
0000
0001
0001
0000
,
1000
0010
1000
0010
,
1000
0000
1000
0000
,
0001
0001
1000
1000
,
0010
0000
0010
0000
0000
0010
0010
0000
,
0100
0001
0100
0001
,
0100
0000
0100
0000
,
0010
0010
1000
1000
,
0100
0000
0100
0000
0000
0100
0100
0000
,
1000
0010
1000
0001
,
0100
0000
0100
0000
,
0001
0001
0010
0010
,
0001
0000
0001
0000
0000
0001
0001
0000
,
0100
0010
1000
0100
,
0001
0000
0100
0000
,
1000
0100
1000
0010
,
0200
0000
0000
0300
,
0020
0000
0000
0030
,
2000
0000
0000
3000
,
0002
0000
0000
0003
,
2000
0000
0000
3000
,
0200
0000
0000
0300
,
2000
0000
0000
3000
,
0002
0000
0000
0003
,
1001
0000
1001
0000
,
1000
1000
0001
0001
,
1000
0100
1000
0010
,
1000
1000
0001
0001
,
1000
0000
0100
0000
,
0010
0010
0001
0001
,
0010
0001
1000
0001
,
0010
0001
1000
0100
,
1000
0000
0010
0000
,
2000
3000
0020
0000
,
1030
0010
0100
0001
,
1000
1000
0010
0010
,
0100
0000
0001
0000
,
1000
1000
0001
0001
,
0010
0001
0100
0010
,
1000
0000
0100
0000
,
1000
0000
0010
0000
,
0100
0000
0001
0000
,
1000
0000
0000
0000
0010
0000
0000
2002
,
0000
0000
0000
0000
,
0000
0000
0000
0000
,
3003
0000
0000
0000
;

//---------------dance-single - ----------------
#NOTEDATA:;
#CHARTNAME:;
#CHARTHASH:1719378968;
#STEPSTYPE:dance-single;
#BANNER:;
#DESCRIPTION:;
#CHARTSTYLE:;
#DIFFICULTY:Medium;
#METER:9;
#METERF:9.000000;
#LASTSECONDHINT:123.577560;
#RADARVALUES:0.000000,0.000000,0.000000,0.000000,0.000000,0.000000,0.000000,0.000000,0.000000,0.000000,0.000000,0.000000,0.000000,0.000000,0.000000,0.000000,0.000000,0.000000,0.000000,0.000000,0.000000,0.000000,0.000000,0.000000,0.000000,0.000000,0.000000,0.000000;
#CREDIT:;
#NOTES:
0000
0000
0000
0000
,
0000
0000
0000
0000
,
0000
0000
0000
0000
,
0000
0000
0000
0000
,
0000
0000
0000
0000
,
1000
0000
0010
1000
0000
0100
0000
1000
,
0000
0001
0000
0100
0000
0001
0000
1000
,
0100
0000
1000
0000
0100
0010
0001
0010
,
0000
0001
0000
1000
0000
0001
0000
0100
,
0010
0000
0000
1000
0000
0010
0000
1000
,
0001
0010
0000
0001
1000
0100
0010
0001
,
2000
0100
0010
3100
,
2000
0001
0010
3001
,
0002
1000
0010
0103
,
0200
0010
0001
0310
,
0101
0000
0000
0001
1000
0000
0100
1000
,
0100
0000
0000
1000
0010
0000
0100
0001
,
0200
0000
0000
0010
0000
0000
0001
0000
,
0320
0000
0000
0001
0000
0000
1000
0000
,
0230
0000
0301
0000
0002
0000
1003
0001
,
2000
0000
3100
0000
0200
0000
0310
0100
,
0010
0002
2003
3002
,
2003
3200
2300
3010
,
1001
0000
0000
1000
0010
0000
1000
0001
,
1000
0000
0000
0001
0010
0000
0001
0100
,
0002
1000
0100
1000
,
0203
0010
0001
1000
,
0310
0010
0010
0010
0010
0000
0000
0000
,
1000
0100
0001
0100
,
1000
1000
1000
1000
1000
0000
0000
0000
,
0010
0000
0100
0000
0001
0000
0010
0001
,
0100
0100
0100
0100
0100
0000
0010
1000
,
0001
1000
0100
1000
,
2002
0000
0000
0000
0000
0000
3003
1001
,
0000
0001
0010
0001
,
1000
0100
1000
0010
,
0100
0000
0001
0100
1000
0000
1000
0100
,
0002
1000
0203
0001
,
0310
0000
1000
0010
0001
0000
0001
0010
,
1000
0000
1000
0100
0010
0100
1000
0001
,
0100
0000
0001
0100
1000
0000
1000
0100
,
0002
0100
0023
0100
,
0031
0000
1000
0010
0001
0000
0001
0010
,
2000
0000
3100
1000
,
0002
0000
0000
1000
1003
0000
0010
0000
,
1000
0000
0100
0000
1000
0010
0100
0001
,
0010
0000
0001
0010
0100
0000
0100
0010
,
0001
1000
0100
0001
0100
1000
0010
0000
,
2000
0000
0000
0001
3001
0000
1000
0000
,
0010
1000
0100
0010
0001
0100
0010
0000
,
1000
0000
0100
1000
0001
0000
0001
1000
,
0100
0000
1000
0100
0010
0100
1000
0000
,
1002
0000
0000
0000
,
2003
0000
0000
0000
,
3200
0000
0000
0000
,
0320
0000
0000
0000
,
0032
0100
0100
0100
,
0203
0010
0010
0010
,
0320
1000
0100
1000
,
0230
0000
0001
0000
,
0320
0000
0000
0001
0001
0000
0000
1000
,
2030
0000
3001
1001
,
0120
0000
0000
1000
1030
0000
0010
0000
,
0100
0001
0100
0000
0001
1000
0100
0010
,
0001
0000
1000
1000
0001
0000
0001
0001
,
0100
0000
0100
0100
0010
1000
0001
0000
,
0102
0000
0000
0010
0013
0000
0001
0000
,
1000
0100
1000
0000
0010
1000
0001
0100
,
0001
0000
0100
0100
0010
0000
0010
0010
,
1000
0000
1000
1000
0001
0100
0010
1000
,
0001
0010
0100
1000
,
0100
1000
0100
1000
0001
0100
0001
0100
,
0020
0000
0000
1000
1030
0000
0010
1000
,
2000
0000
0000
0100
3100
0000
1000
1000
,
0001
0000
1000
0001
1000
0000
0001
0010
,
0001
1000
0100
1000
0100
0010
0001
0010
,
0001
0000
1000
0000
0001
0000
0010
0001
,
0010
0000
0001
0000
1000
0000
0100
1000
,
0100
1000
0010
0100
0001
1000
0001
2002
,
0000
0000
0000
0000
,
0000
0000
0000
0000
,
3003
0000
0000
0000
;

//---------------dance-single - ----------------
#NOTEDATA:;
#CHARTNAME:;
#CHARTHASH:2539455322;
#STEPSTYPE:dance-single;
#BANNER:;
#DESCRIPTION:;
#CHARTSTYLE:;
#DIFFICULTY:Hard;
#METER:13;
#METERF:0.000000;
#LASTSECONDHINT:123.577560;
#RADARVALUES:0.000000,0.000000,0.000000,0.000000,0.000000,0.000000,0.000000,0.000000,0.000000,0.000000,0.000000,0.000000,0.000000,0.000000,0.000000,0.000000,0.000000,0.000000,0.000000,0.000000,0.000000,0.000000,0.000000,0.000000,0.000000,0.000000,0.000000,0.000000;
#CREDIT:;
#NOTES:
0000
0000
0000
0000
,
0000
0000
0000
0000
,
0000
0000
0000
0000
,
0000
0000
0000
0000
,
0000
0000
0000
0000
,
1000
0100
1000
0200
0000
2300
0000
3002
,
0000
0203
0000
0302
0000
2003
0000
3010
,
0200
0001
1000
0001
,
0320
0000
1000
1000
0000
0000
1000
1030
,
0020
0000
0100
0100
0000
0000
0100
0130
,
0002
0000
0000
0000
1003
0000
0001
1000
0000
0000
0100
0000
1000
0000
0010
1000
,
0020
0000
0100
0000
0001
0000
0130
0010
,
2000
0000
3200
0000
0302
0000
0103
1000
,
0020
0230
0302
2003
,
3020
0032
0023
0230
,
0302
0000
0000
1000
1003
0000
0100
1000
,
0002
0000
0000
0010
0013
0001
1000
0100
,
0020
0000
0000
0001
0001
0000
0100
0000
,
0031
1000
0100
0010
0100
1000
0001
0010
,
0002
0000
1000
1003
0020
0000
0100
0130
,
0020
2030
3200
0302
,
0203
0000
1300
1000
0002
0000
2003
0000
,
3020
0230
0302
2003
,
3200
0000
0000
1000
1300
0000
0100
1000
,
0002
0010
0000
0010
0013
0001
0010
0100
,
2000
0000
0100
3100
0020
0000
0001
0031
,
0100
0000
0001
0000
1000
0000
0010
0000
0100
0000
0001
0000
1000
0100
1000
0000
,
0010
0000
0010
0000
0010
0000
0010
0000
0010
0000
0000
0100
0001
0000
1000
0000
,
0200
0000
1000
1000
0000
1300
0001
0000
,
0100
0000
0100
0000
0100
0000
0100
0000
0100
0000
0000
0001
0010
0000
0001
0000
,
2000
0000
0010
0010
0000
3010
1000
0000
,
0001
0000
0001
0000
0001
1000
0001
1000
0001
0000
0000
0001
1000
0000
0100
0000
,
0010
0001
1000
0200
0000
2300
0000
0002
,
0000
3000
0000
2003
0000
3001
0010
0200
,
0000
2300
3200
2000
,
0000
0000
0000
0000
3300
0000
0000
1000
0001
1000
0001
1000
0001
1000
0001
1000
,
0001
0100
0010
1000
0100
0001
0100
1000
,
0002
0010
0010
0010
0013
0001
1000
0100
,
0020
0000
0031
0100
0020
0000
1030
0001
,
0200
0000
0301
1000
0200
1000
1000
1300
,
0100
1000
0010
0100
0001
0010
1000
0010
,
0002
1000
1000
1000
1003
0001
0100
0010
,
2000
0000
3100
1000
0002
0000
0013
0001
,
1000
0000
0000
0000
0010
0000
1000
0010
0000
0000
0100
0000
0001
0010
0001
0000
,
1000
0100
0010
0100
1000
0001
0010
0001
,
2000
0100
0100
0100
3100
1000
0010
0100
,
0002
0000
0000
0000
1003
0000
0001
0000
0100
0000
0000
0001
1000
0000
0100
0000
,
2000
0010
0000
0100
0000
0010
0000
3100
,
1000
0001
0010
0001
1000
0100
0001
0100
,
0020
0001
0001
0001
0031
0010
0001
1000
,
0200
0000
0000
0000
1300
0000
0100
0000
0010
0000
0000
0010
0001
0000
1000
0000
,
0100
1000
0000
0000
0100
0000
0000
0010
0001
0010
0001
0010
0001
0010
0001
0010
,
0002
0000
0000
1000
1000
0000
0100
0000
,
0023
0000
0000
0001
0000
0000
0100
0000
,
0032
0000
0000
1000
1000
0000
0100
0000
,
1003
0001
0100
0010
1000
0100
0010
0001
,
0200
0000
0000
0010
0010
0000
1000
0000
,
0302
0000
0000
1000
0000
0000
0100
0000
,
2000
0000
0000
0000
,
0000
0000
0000
0003
,
0100
0000
0000
0100
0100
0000
0000
0100
,
3200
0000
2300
0000
3010
1000
0100
0010
,
0001
0100
0010
2000
0000
0010
0000
3010
,
1000
0100
0010
0001
0100
0010
0100
0001
,
0100
0000
0000
0001
0010
0000
0001
0000
1000
0000
0000
1000
0001
0000
1000
0000
,
0100
0000
0000
0100
1000
0000
0000
1000
0010
0000
0000
0010
0200
0000
0000
0000
,
0301
0100
0010
0200
0000
0001
0000
0310
,
0100
0010
1000
0100
0001
0100
1000
0010
,
0100
0000
0000
0100
0001
0000
0010
0000
0001
0000
0000
1000
0010
0000
0100
0000
,
0001
0000
0001
0000
1000
0000
0100
1000
0100
0000
0000
1000
0000
0000
0010
0000
,
0100
0001
1000
0200
0000
1000
0000
1300
,
0100
0100
1000
0010
0100
0001
0001
0010
,
0001
0000
0000
1000
0001
1000
0001
0000
0010
0000
0000
0001
1000
0001
1000
0000
,
0100
0000
0000
1000
0010
0000
0100
0000
0001
0000
0010
0000
0001
0000
1000
0000
,
0100
1000
0010
0200
0000
0001
0000
0310
,
0100
0100
0010
1000
0100
1000
1000
0001
,
0100
0000
0010
0000
0100
0000
0001
0000
1000
0000
0000
1000
0100
0000
1000
0000
,
0001
0010
0000
0001
0010
0000
0001
1000
0000
0001
1000
0000
0100
1000
0000
0100
,
1000
0100
1000
0010
0100
0001
0020
0002
,
0000
0000
0000
0000
,
0000
0000
0000
0000
,
0033
0000
0000
0000
;

//---------------dance-single - ----------------
#NOTEDATA:;
#CHARTNAME:;
#CHARTHASH:2779231216;
#STEPSTYPE:dance-single;
#BANNER:;
#DESCRIPTION:;
#CHARTSTYLE:;
#DIFFICULTY:Beginner;
#METER:3;
#METERF:3.000000;
#LASTSECONDHINT:0.470000;
#RADARVALUES:0.117152,0.225717,0.000000,0.039809,0.000000,103.000000,103.000000,0.000000,5.000000,0.000000,0.000000,0.000000,0.000000,0.000000,0.117152,0.225717,0.000000,0.039809,0.000000,103.000000,103.000000,0.000000,5.000000,0.000000,0.000000,0.000000,0.000000,0.000000;
#CREDIT:;
#NOTES:
// measure 0
0000
0000
0000
0000
,  // measure 1
0000
0000
0000
0000
,  // measure 2
0000
0000
0000
0000
,  // measure 3
0000
0000
0000
0000
,  // measure 4
0000
0000
0000
0000
,  // measure 5
1000
0000
1000
0000
,  // measure 6
1000
0000
0000
0000
,  // measure 7
0001
0000
0001
0000
,  // measure 8
0001
0000
0000
0000
,  // measure 9
0100
0000
0000
0000
,  // measure 10
0010
0000
0000
0000
,  // measure 11
1000
0000
0000
0000
,  // measure 12
1000
0000
0000
0000
,  // measure 13
0001
0000
0000
0000
,  // measure 14
0001
0000
0001
0000
,  // measure 15
0100
0000
0000
0000
,  // measure 16
0100
0000
0000
0000
,  // measure 17
0010
0000
0000
0000
,  // measure 18
0010
0000
0000
0000
,  // measure 19
1000
0000
0000
0000
,  // measure 20
1000
0000
0000
0000
,  // measure 21
0001
0000
0000
0000
,  // measure 22
0100
0000
0100
0000
,  // measure 23
0010
0000
0000
0000
,  // measure 24
0010
0000
0000
0000
,  // measure 25
1000
0000
0000
0000
,  // measure 26
1000
0000
0000
0000
,  // measure 27
0002
0000
0003
0000
,  // measure 28
0001
0001
0001
0000
,  // measure 29
2000
0000
3000
0000
,  // measure 30
1000
1000
1000
0000
,  // measure 31
0002
0000
0003
0000
,  // measure 32
0001
0001
0001
0000
,  // measure 33
0000
0000
0000
0000
,  // measure 34
0000
0000
0000
0000
,  // measure 35
1000
1000
1000
1000
,  // measure 36
1000
0000
1000
0000
,  // measure 37
1000
0000
0000
0000
,  // measure 38
0001
0000
0001
0000
,  // measure 39
0001
0000
0000
0000
,  // measure 40
0100
0000
0100
0000
,  // measure 41
0100
0000
0000
0000
,  // measure 42
0010
0000
0010
0000
,  // measure 43
0010
0000
0000
0000
,  // measure 44
1000
0000
1000
0000
,  // measure 45
1000
0000
0000
0000
,  // measure 46
0001
0000
0001
0000
,  // measure 47
0001
0000
0000
0000
,  // measure 48
0100
0000
0100
0000
,  // measure 49
0100
0000
0000
0000
,  // measure 50
0010
0000
0010
0000
,  // measure 51
0010
0000
0000
0000
,  // measure 52
1000
0000
0000
0000
,  // measure 53
0000
0000
0000
0000
,  // measure 54
0001
0000
0000
0000
,  // measure 55
0000
0000
0000
0000
,  // measure 56
1000
0000
0000
0000
,  // measure 57
0000
0000
0000
0000
,  // measure 58
0001
0000
0000
0000
,  // measure 59
0000
0000
0000
0000
,  // measure 60
1000
0000
0001
0000
,  // measure 61
1000
1000
1000
1000
,  // measure 62
1000
0000
0010
0000
,  // measure 63
1000
0000
0000
0000
,  // measure 64
0001
0000
0100
0000
,  // measure 65
0001
0000
0000
0000
,  // measure 66
0100
0000
0010
0000
,  // measure 67
0100
0000
0000
0000
,  // measure 68
0001
0000
1000
0000
,  // measure 69
0001
0000
0000
0000
,  // measure 70
1000
0000
0100
0000
,  // measure 71
1000
0000
0000
0000
,  // measure 72
0001
0000
0010
0000
,  // measure 73
0001
0000
0000
0000
,  // measure 74
1000
0000
0100
0000
,  // measure 75
1000
0000
0000
0000
,  // measure 76
0010
0000
0100
0000
,  // measure 77
0010
0000
0100
0000
,  // measure 78
0020
0000
0000
0000
0000
0000
0000
0200
,  // measure 79
0000
0000
0000
0000
,  // measure 80
0000
0000
0000
0000
,  // measure 81
0330
0000
0000
0000
;
