#VERSION:0.83;
#TITLE:EPLE;
#SUBTITLE:;
#ARTIST:RöYKSOPP;
#TITLETRANSLIT:;
#SUBTITLETRANSLIT:;
#ARTISTTRANSLIT:;
#GENRE:;
#ORIGIN:;
#TAGS:;
#CREDIT:;
#BANNER:EPLE.png;
#BACKGROUND:EPLE-bg.png;
#PREVIEWVID:;
#JACKET:EPLE-jacket.png;
#CDIMAGE:;
#DISCIMAGE:;
#LYRICSPATH:;
#CDTITLE:Zip Mania 7.png;
#MUSIC:EPLE.ogg;
#OFFSET:-4.560000;
#SAMPLESTART:63.065239;
#SAMPLELENGTH:15.000000;
#SELECTABLE:YES;
#DISPLAYBPM:106.000000;
#BPMS:0.000000=106.489998
;
#STOPS:;
#DELAYS:;
#WARPS:;
#TIMESIGNATURES:0.000000=4=4
;
#TICKCOUNTS:0.000000=4
;
#COMBOS:0.000000=1
;
#SPEEDS:0.000000=1.000000=0.000000=0
;
#SCROLLS:0.000000=1.000000
;
#LABELS:0.000000=Song Start
;
#BGCHANGES:-8.000=EPLE.mp4=1.000=1=0=0=StretchNoLoop==CrossFade==,
183.500=EPLE-bg.png=1.000=1=0=1===CrossFade==,
99999=-nosongbg-=1.000=0=0=0 // don't automatically add -songbackground-
;
#KEYSOUNDS:;
#ATTACKS:
;

//---------------dance-single - ----------------
#NOTEDATA:;
#CHARTNAME:;
#CHARTHASH:2126547242;
#STEPSTYPE:dance-single;
#BANNER:;
#DESCRIPTION:;
#CHARTSTYLE:;
#DIFFICULTY:Beginner;
#METER:1;
#METERF:1.000000;
#LASTSECONDHINT:107.668274;
#RADARVALUES:0.096618,0.140646,0.000000,0.000000,0.000000,77.000000,77.000000,0.000000,0.000000,0.000000,0.000000,0.000000,0.000000,0.000000,0.096618,0.140646,0.000000,0.000000,0.000000,77.000000,77.000000,0.000000,0.000000,0.000000,0.000000,0.000000,0.000000,0.000000;
#CREDIT:;
#DISPLAYBPM:106.000000;
#NOTES:
0000
0000
0000
0000
,
0000
0000
0000
0000
,
1000
0000
0000
0000
,
0001
0000
0000
0000
,
1000
0000
0000
0000
,
0001
0000
0000
0000
,
1000
0000
1000
0000
,
0001
0000
0001
0000
,
1000
0000
1000
0000
,
0001
0000
0001
0000
,
1000
0000
0000
0000
,
0010
0000
0000
0000
,
1000
0000
0000
0000
,
0010
0000
0000
0000
,
0100
0000
0000
0000
,
0001
0000
0000
0000
,
0100
0000
0000
0000
,
0001
0000
0000
0000
,
1000
0000
1000
0000
,
0001
0000
0001
0000
,
0010
0000
0010
0000
,
0100
0000
0100
0000
,
1000
0000
1000
0000
,
0001
0000
0001
0000
,
1000
0000
1000
0000
,
0010
0000
0010
0000
,
1000
0000
1000
1000
,
1000
0000
0001
0001
,
0001
0000
0100
0100
,
0100
0000
0010
0010
,
0010
0000
1000
1000
,
1000
0000
0100
0100
,
0100
0000
0010
0010
,
0010
0000
0001
0001
,
0001
0000
0000
0000
,
1000
0000
0000
0000
,
0001
0000
0000
0000
,
1000
0000
0000
0000
,
0010
0000
0000
0000
,
0100
0000
0000
0000
,
0010
0000
0000
0000
,
0100
0000
0000
0000
,
0010
0000
0010
0000
,
1000
0000
1000
0000
,
0001
0000
0001
0000
,
0100
0000
0100
0001
;

//---------------dance-single - ----------------
#NOTEDATA:;
#CHARTNAME:;
#CHARTHASH:953099245;
#STEPSTYPE:dance-single;
#BANNER:;
#DESCRIPTION:;
#CHARTSTYLE:;
#DIFFICULTY:Easy;
#METER:3;
#METERF:3.000000;
#LASTSECONDHINT:107.668274;
#RADARVALUES:0.168141,0.200922,0.114185,0.210804,0.000000,134.000000,121.000000,13.000000,24.000000,0.000000,0.000000,0.000000,0.000000,0.000000,0.168141,0.200922,0.114185,0.210804,0.000000,134.000000,121.000000,13.000000,24.000000,0.000000,0.000000,0.000000,0.000000,0.000000;
#CREDIT:;
#DISPLAYBPM:106.000000;
#NOTES:
0000
0000
0000
0000
,
0000
0000
0000
0000
,
1000
0000
1000
1000
,
0001
0000
0001
0001
,
1000
0000
0100
0100
,
0010
0000
0001
0001
,
0100
0000
0010
1010
,
1000
0000
0100
0110
,
0010
0000
0001
1001
,
1000
0000
0001
0101
,
0200
0300
0001
1000
,
0200
0300
1000
0001
,
0020
0030
0001
1000
,
0020
0030
0100
0001
,
2000
3000
1000
1000
,
0002
0003
0001
0001
,
2000
3000
0010
0010
,
0200
0300
0100
0100
,
0020
0000
0030
1000
,
0002
0000
0003
0100
,
0020
0000
0030
1000
,
0020
0000
0030
0100
,
0110
0000
0010
1000
,
0101
0000
0001
1000
,
1100
0000
0010
0001
,
1010
0000
0010
0100
,
2001
0000
0010
3010
,
1002
0000
0100
0103
,
0020
0030
0010
1000
,
0002
0003
0001
1000
,
2100
0000
0001
3001
,
0012
0000
1000
1003
,
0020
0030
0100
0001
,
2000
3000
0001
1000
,
0200
0000
0000
0300
,
2000
0000
0000
3000
,
0002
0000
0000
0003
,
0020
0000
0000
0030
,
0001
0000
0001
1000
,
0100
0000
0010
0001
,
1000
0000
0010
0100
,
0001
0000
1000
0010
,
0100
0000
0001
1000
,
0100
0010
0001
0000
,
1000
0000
0001
0010
,
0100
1000
0001
1001
;

//---------------dance-single - ----------------
#NOTEDATA:;
#CHARTNAME:;
#CHARTHASH:1788825588;
#STEPSTYPE:dance-single;
#BANNER:;
#DESCRIPTION:;
#CHARTSTYLE:;
#DIFFICULTY:Medium;
#METER:6;
#METERF:6.000000;
#LASTSECONDHINT:107.949989;
#RADARVALUES:0.273543,0.302207,0.079051,0.158103,0.000000,218.000000,209.000000,9.000000,18.000000,0.000000,0.000000,0.000000,0.000000,0.000000,0.273543,0.302207,0.079051,0.158103,0.000000,218.000000,209.000000,9.000000,18.000000,0.000000,0.000000,0.000000,0.000000,0.000000;
#CREDIT:;
#DISPLAYBPM:106.000000;
#NOTES:
0000
0000
0000
0000
,
0000
0000
0000
0000
,
1000
0000
0101
0000
0010
1000
0010
0000
,
0100
0000
0010
1000
0000
0001
0100
0000
,
0001
0000
1100
0000
0010
0001
0010
0000
,
0100
0000
1000
0001
0000
1000
0010
0000
,
0100
0001
0100
0010
,
1000
0010
1000
0000
0001
0100
0001
0000
,
1000
0100
0010
0001
,
1000
0100
1000
0000
0001
0010
0001
0000
,
0200
0000
0300
0000
0100
0010
0100
0000
,
0020
0000
0030
0000
0010
0100
0010
0000
,
2000
0000
3000
0000
0001
0100
1000
0000
,
2000
0000
3000
0000
1000
0100
0001
0000
,
0002
0000
0003
0000
1000
0010
0001
0000
,
0002
0000
0003
0000
0001
0010
1000
0000
,
1001
0000
0010
0000
0100
0001
0100
0000
,
1001
0000
0100
0000
0010
1000
0010
0000
,
1000
0000
0001
0000
0010
1000
0010
0001
,
0010
0000
0001
0000
0100
0010
0000
1000
,
0001
0000
0100
0000
0010
1000
0000
0001
,
0100
0000
0010
0000
1000
0100
0001
0100
,
1000
0000
0001
0000
0100
0010
1000
0000
,
0001
0000
0100
0000
0001
0010
0100
0000
,
1000
0000
0100
0000
0010
0001
1000
0000
,
0010
0000
0100
0000
0001
1000
0010
0000
,
1002
0000
0100
0000
1000
1000
1003
0000
,
2001
0000
0010
0000
0001
0001
3001
0000
,
0100
0010
1000
0000
0100
0010
0001
0000
,
0010
0100
1000
0000
0001
1000
0100
0000
,
1002
0000
0010
0000
0100
0100
0103
0000
,
2001
0000
0010
0000
0001
0001
3001
0000
,
0010
0100
0001
0000
1000
0100
0001
0000
,
0001
0100
1000
0000
0001
0100
0010
0000
,
2000
0000
0000
0000
,
3002
0000
0000
0000
,
0203
0000
0000
0000
,
0320
0000
0000
0000
,
1030
0000
0100
1000
0000
0001
0100
0010
,
1000
0000
0100
0010
0000
0001
1000
0100
,
0010
0001
0000
1000
0010
0100
0001
0100
,
0010
1000
0000
0001
0100
1000
0100
0001
,
0200
0010
0001
0310
,
0002
1000
0100
1003
,
0200
0000
0010
0310
0000
0001
0100
0000
,
0020
0000
1000
1030
0000
0010
0100
1001
;

//---------------dance-single - ----------------
#NOTEDATA:;
#CHARTNAME:;
#CHARTHASH:2147483647;
#STEPSTYPE:dance-single;
#BANNER:;
#DESCRIPTION:;
#CHARTSTYLE:;
#DIFFICULTY:Hard;
#METER:8;
#METERF:8.000000;
#LASTSECONDHINT:107.949989;
#RADARVALUES:0.332518,0.322354,0.008783,0.087835,0.105402,265.000000,264.000000,1.000000,10.000000,0.000000,0.000000,0.000000,0.000000,0.000000,0.332518,0.322354,0.008783,0.087835,0.105402,265.000000,264.000000,1.000000,10.000000,0.000000,0.000000,0.000000,0.000000,0.000000;
#CREDIT:;
#DISPLAYBPM:106.000000;
#NOTES:
0000
0000
0000
0000
,
0000
0000
0000
0000
,
1000
0000
0000
0001
0100
0000
0000
0000
0010
0000
1000
0000
0010
0000
0000
0000
,
0100
0000
0000
0001
1000
0000
0010
0000
0000
0000
1000
0000
0001
0000
0000
0000
,
0100
0000
0000
0010
1000
0000
0000
0000
0001
0000
0100
0000
0001
0000
0000
0000
,
1000
0000
0000
0100
0010
0000
0001
0000
0000
0000
1000
0000
0100
0000
0000
0000
,
1000
0100
0001
0000
0001
0100
1000
0000
,
0010
0001
0100
1000
,
0001
0010
1000
0000
1000
0010
0001
0000
,
0100
1000
0010
0001
,
1000
0001
0000
0100
0010
1000
0010
0000
,
0100
0001
0000
0010
0000
0001
1000
0100
,
0010
0001
0000
1000
0001
0010
0001
0000
,
0010
0100
0000
1000
0000
0100
0010
0001
,
1000
0000
0000
0001
1000
0000
0000
0000
0100
0000
0010
0000
0100
0000
0000
0000
,
0010
0001
1000
0000
0100
0010
0001
0000
,
0010
0000
0000
0001
0100
0000
0000
0000
0010
0000
1000
0000
0010
0000
0000
0000
,
1000
0001
0100
0000
0001
0010
0100
0000
,
2000
0000
0001
0000
0010
0010
3010
1000
,
0002
0000
1000
0000
0100
0103
0000
0001
,
2000
0000
3001
0010
1000
0001
0100
1000
,
0002
0000
1003
0010
0001
1000
0100
0001
,
1000
0000
0000
0001
0200
0000
0000
0000
0010
0000
0010
0000
0310
0000
0000
0000
,
0001
0000
0000
1000
0020
0000
0000
0000
0100
0000
0100
0000
0130
0000
0000
0000
,
0001
0000
1000
0100
0000
0000
0010
0000
0001
0000
1000
0000
0001
0000
0000
0000
,
0100
0000
0001
1000
0000
0000
0010
0000
0100
0000
0010
0000
0100
0000
0000
0000
,
0001
0100
1000
0000
1000
0100
0001
0000
,
0010
1000
0100
0001
,
1000
0010
0001
0000
0001
0010
1000
0000
,
0100
0001
0010
1000
,
0001
0000
0000
0100
0001
0000
0010
0000
0001
0000
1000
0000
0100
0000
0000
0000
,
1000
0000
0000
0001
0010
0000
0100
0000
1000
0000
0100
0000
0010
0000
0000
0000
,
0001
0000
1000
0100
0000
0000
0010
0000
0001
0000
0010
0000
1000
0000
0000
0000
,
0010
0000
0001
0100
0000
0000
0010
0000
1000
0000
0010
0000
0100
0000
0000
0000
,
0002
0000
1000
0000
0010
0010
0013
0000
,
2000
0000
0001
0000
0100
0100
3100
0000
,
1000
0000
0000
0001
0000
0000
0010
0000
0000
0001
0000
0000
0100
0000
0010
0000
,
1000
0000
0000
0001
0000
0000
1000
0000
0000
0100
0000
0000
0010
0000
0001
0000
,
2000
0000
0000
0010
0000
0000
0010
0000
0000
0000
0001
0000
3001
0000
0000
0000
,
0002
0000
0000
1000
0000
0000
1000
0000
0000
0000
0100
0000
0103
0000
0001
0000
,
1000
0000
0000
0010
0000
0000
0100
0000
0000
0001
0000
0000
0010
0000
0100
0000
,
1000
0000
0000
0100
0000
0000
0010
0000
0000
0001
0000
0000
1000
0000
0001
0000
,
0010
0001
0100
0001
0000
1000
0010
1000
,
0001
0100
0010
0100
0000
0001
0010
0100
,
1000
0100
0001
0100
0000
0010
0001
0010
,
0100
1000
0001
1000
0000
0010
0100
1001
;

//---------------dance-single - ----------------
#NOTEDATA:;
#CHARTNAME:;
#CHARTHASH:2147483647;
#STEPSTYPE:dance-single;
#BANNER:;
#DESCRIPTION:;
#CHARTSTYLE:;
#DIFFICULTY:Challenge;
#METER:12;
#METERF:12.000000;
#LASTSECONDHINT:107.949989;
#RADARVALUES:0.478073,0.483531,0.008783,0.061484,0.500659,381.000000,380.000000,1.000000,7.000000,0.000000,0.000000,0.000000,0.000000,0.000000,0.478073,0.483531,0.008783,0.061484,0.500659,381.000000,380.000000,1.000000,7.000000,0.000000,0.000000,0.000000,0.000000,0.000000;
#CREDIT:;
#DISPLAYBPM:106.000000;
#NOTES:
// measure 0
0000
0000
0000
0000
,  // measure 1
0000
0000
0000
0000
,  // measure 2
1000
0000
0001
0000
0010
0000
0000
0000
0100
1000
0000
1000
0001
0000
0000
0000
,  // measure 3
0100
0000
0010
0000
1000
0000
0000
0001
0100
0001
0000
1000
0010
0000
0010
0000
,  // measure 4
0100
0000
0001
0000
0010
0000
0000
0000
0001
0100
0000
0100
0010
0000
0000
0000
,  // measure 5
1000
0000
0100
0000
0010
0000
0000
0001
0010
0001
0000
1000
0001
0000
0001
1000
,  // measure 6
0100
0000
1000
0000
0001
0000
0000
0000
0100
0010
0000
0010
1000
0000
0000
0000
,  // measure 7
0001
0000
0010
0000
0100
0000
0000
1000
0100
1000
0100
1000
0100
0000
1000
0000
,  // measure 8
0001
0000
0010
0000
0100
0000
0000
0000
1000
0001
0000
0001
0010
0000
0000
0000
,  // measure 9
0001
0000
0100
0000
0010
0000
0000
1000
0001
1000
0001
1000
0001
0000
1000
0100
,  // measure 10
0010
0000
0000
0001
2000
0000
0000
0000
0010
0000
0010
0000
3010
0000
0000
0000
,  // measure 11
1000
0001
0100
0000
0001
0010
0100
1000
,  // measure 12
0001
0000
0000
1000
0200
0000
0000
0000
0010
0000
0010
0000
0310
0000
0000
0000
,  // measure 13
0001
0000
0100
0000
0010
0000
0000
0000
1000
0000
0001
0000
0100
0000
0001
0010
,  // measure 14
0100
0000
0000
1000
0010
0000
0200
0000
0000
0000
0001
0000
0301
0000
0000
0000
,  // measure 15
0001
1000
0100
0000
0010
0001
1000
0100
,  // measure 16
0010
0000
0000
0001
0100
0000
0020
0000
0000
0000
1000
0000
1030
0000
0000
0000
,  // measure 17
0010
0000
0100
0000
0001
0000
0000
0000
1000
0000
0010
0000
0100
0001
0100
0001
,  // measure 18
1000
0000
0000
0001
0010
0001
0010
0001
0010
0000
1000
0000
0010
0000
0001
0000
,  // measure 19
0100
0000
0000
0001
1000
0001
1000
0001
1000
0000
0100
0000
0010
0000
0100
0000
,  // measure 20
1000
0000
0000
0001
1000
0001
1000
0001
1000
0010
1000
0000
0010
0000
0100
0000
,  // measure 21
0001
0000
0000
1000
0100
1000
0100
1000
0100
0010
0001
0000
0010
0000
0100
1000
,  // measure 22
0001
0000
0000
1000
0100
0000
1000
0001
0100
0000
0010
0000
1000
0000
0001
0000
,  // measure 23
0100
0000
0000
0001
0010
0000
0001
1000
0100
1000
0000
0100
0010
0000
0001
0000
,  // measure 24
1000
0000
0001
0100
0000
0000
0010
1000
0010
0000
0100
0000
0001
0000
1000
0000
,  // measure 25
0100
0000
1000
0001
0000
0010
0000
0001
1000
0000
0010
0000
0200
0000
0000
0000
,  // measure 26
0301
0000
0100
0010
0000
0000
1000
0010
1000
0010
0000
0000
0100
0000
0001
1000
,  // measure 27
0100
0000
1000
0010
0000
0000
0100
0001
0100
0001
0000
0010
0000
0000
0001
1000
,  // measure 28
0100
0000
1000
0001
0000
0000
0010
0001
0010
0001
0000
0000
0100
0000
0001
0010
,  // measure 29
0100
0000
1000
0001
0000
0000
0100
0010
0100
0010
0000
1000
0001
0000
0010
0100
,  // measure 30
1000
0000
0001
0000
0100
0000
0010
0100
0010
0100
0000
0001
1000
0000
0100
0000
,  // measure 31
0010
0000
0001
0000
0100
0000
0010
1000
0010
1000
0000
0100
0010
0000
0001
0000
,  // measure 32
1000
0000
0001
0000
0100
0000
0001
0010
0001
0010
0000
0001
1000
0000
0100
0010
,  // measure 33
0001
0000
0010
0000
1000
0000
0010
0001
0010
0001
0000
1000
0010
1000
0001
1000
,  // measure 34
0200
0000
0001
0000
1000
1000
1000
0000
,  // measure 35
0320
0000
0000
0000
0001
0000
0000
1000
0000
1000
0000
1000
0000
0000
0031
0000
,  // measure 36
0010
0000
0000
0001
0000
0000
1000
0100
0000
1000
0100
0000
0010
0000
0001
0000
,  // measure 37
1000
0000
0000
0100
0000
0000
1000
0001
0000
1000
0001
0000
0010
0000
0100
0000
,  // measure 38
0010
0000
0000
0001
0000
0100
0001
0100
0000
0001
0100
0000
0010
0000
1000
0000
,  // measure 39
0010
0000
0000
0100
0000
0001
1000
0001
0000
1000
0001
0000
1000
0000
0100
0000
,  // measure 40
0010
0000
0000
0001
0000
1000
0100
0010
0000
0001
0010
0000
0100
0000
1000
0001
,  // measure 41
0100
0000
0000
0010
0000
1000
0001
0010
0000
0001
0100
0000
0010
0000
1000
0000
,  // measure 42
0001
0010
0010
0100
1000
0001
0000
1000
,  // measure 43
0010
0100
0100
0001
0010
0100
0000
1000
,  // measure 44
0100
0010
0010
0001
0010
0010
0100
1000
,  // measure 45
0100
0001
0001
0100
1000
1000
0001
1001
;
