#VERSION:0.83;
#TITLE:ENTER THE DRAGON;
#SUBTITLE:(G'z Island Mix);
#ARTIST:B3-PROJECT;
#TITLETRANSLIT:;
#SUBTITLETRANSLIT:;
#ARTISTTRANSLIT:;
#GENRE:;
#ORIGIN:;
#TAGS:;
#CREDIT:;
#BANNER:ENTER THE DRAGON (G'z Island Mix).png;
#BACKGROUND:ENTER THE DRAGON (G'z Island Mix)-bg.png;
#PREVIEWVID:;
#JACKET:ENTER THE DRAGON (G'z Island Mix)-jacket.png;
#CDIMAGE:;
#DISCIMAGE:;
#LYRICSPATH:;
#CDTITLE:DanceManiaX.png;
#MUSIC:ENTER THE DRAGON (G'z Island Mix).ogg;
#OFFSET:-6.220000;
#SAMPLESTART:42.969990;
#SAMPLELENGTH:15.000000;
#SELECTABLE:YES;
#DISPLAYBPM:77.000000:155.000000;
#BPMS:0.000000=155.000000
,80.000000=77.500000
,88.000000=155.000000
,152.000000=77.500000
,168.000000=155.000000
;
#STOPS:;
#DELAYS:;
#WARPS:;
#TIMESIGNATURES:0.000000=4=4
;
#TICKCOUNTS:0.000000=4
;
#COMBOS:0.000000=1
;
#SPEEDS:0.000000=1.000000=0.000000=0
;
#SCROLLS:0.000000=1.000000
;
#LABELS:0.000000=Song Start
;
#BGCHANGES:0.000=amoeba3.mp4=1.000=1=0=1===CrossFade==,
8.000=amoeba4.mp4=1.000=0=0=1=====,
16.000=amoeba3.mp4=1.000=0=0=1=====,
24.000=amoeba4.mp4=1.000=0=0=1=====,
32.000=heat1.mp4=0.500=0=0=1=====,
40.000=taiqi1.mp4=0.500=0=0=1=====,
44.000=taiqi1.mp4=2.000=0=0=1=====,
48.000=circle4.mp4=1.000=0=0=1=====,
56.000=circle9.mp4=1.000=0=0=1=====,
64.000=circle4.mp4=1.000=0=0=1=====,
72.000=circle9.mp4=1.000=0=0=1=====,
80.000=taiqi2.mp4=0.500=0=0=1=====,
88.000=taiqi3.mp4=1.000=0=0=1=====,
104.000=circle7.mp4=1.000=0=0=1=====,
104.500=circle7.mp4=1.000=0=1=1=StretchRewind====,
105.500=circle7.mp4=1.000=0=1=1=StretchRewind====,
106.500=circle7.mp4=1.000=0=1=1=StretchRewind====,
107.500=circle7.mp4=1.000=0=1=1=StretchRewind====,
112.000=ninja4.mp4=1.000=0=0=1=====,
112.500=ninja4.mp4=1.000=0=1=1=StretchRewind====,
113.500=ninja4.mp4=1.000=0=1=1=StretchRewind====,
114.500=ninja4.mp4=1.000=0=1=1=StretchRewind====,
115.500=ninja4.mp4=1.000=0=1=1=StretchRewind====,
120.000=amoeba3.mp4=1.000=0=1=1=StretchRewind====,
128.000=amoeba4.mp4=1.000=0=1=1=StretchRewind====,
132.000=ninja4.mp4=1.000=0=1=1=StretchRewind====,
136.000=amoeba3.mp4=1.000=0=0=1=====,
144.000=amoeba4.mp4=1.000=0=0=1=====,
152.000=circle4.mp4=0.500=0=0=1=====,
160.250=circle9.mp4=0.500=0=0=1=====,
168.000=taiqi2.mp4=1.000=0=1=1=StretchRewind====,
172.500=circle7.mp4=1.000=0=1=1=StretchRewind====,
173.500=circle7.mp4=1.000=0=1=1=StretchRewind====,
174.500=circle7.mp4=1.000=0=1=1=StretchRewind====,
175.500=circle7.mp4=1.000=0=1=1=StretchRewind====,
176.000=taiqi3.mp4=1.000=0=1=1=StretchRewind====,
180.500=ninja4.mp4=1.000=0=1=1=StretchRewind====,
181.500=ninja4.mp4=1.000=0=1=1=StretchRewind====,
182.500=ninja4.mp4=1.000=0=1=1=StretchRewind====,
183.500=ninja4.mp4=1.000=0=1=1=StretchRewind====,
184.000=taiqi1.mp4=1.000=0=1=1=StretchRewind====,
188.500=circle7.mp4=1.000=0=1=1=StretchRewind====,
189.500=circle7.mp4=1.000=0=1=1=StretchRewind====,
190.500=circle7.mp4=1.000=0=1=1=StretchRewind====,
191.500=circle7.mp4=1.000=0=1=1=StretchRewind====,
192.000=taiqi2.mp4=1.000=0=1=1=StretchRewind====,
196.000=taiqi2.mp4=0.500=0=0=1=====,
200.000=ENTER THE DRAGON (G'z Island Mix)-bg.png=1.000=0=0=1=====,
99999.000=-nosongbg-=1.000=0=0=0=StretchNoLoop====,
99999=-nosongbg-=1.000=0=0=0 // don't automatically add -songbackground-
;
#KEYSOUNDS:;
#ATTACKS:
;

//---------------dance-single - ----------------
#NOTEDATA:;
#CHARTNAME:;
#CHARTHASH:3717547940;
#STEPSTYPE:dance-single;
#BANNER:;
#DESCRIPTION:;
#CHARTSTYLE:;
#DIFFICULTY:Easy;
#METER:7;
#METERF:7.000000;
#LASTSECONDHINT:94.671623;
#RADARVALUES:0.239147,0.341288,0.133511,0.225942,0.056486,163.000000,150.000000,13.000000,22.000000,0.000000,0.000000,0.000000,0.000000,0.000000,0.239147,0.341288,0.133511,0.225942,0.056486,163.000000,150.000000,13.000000,22.000000,0.000000,0.000000,0.000000,0.000000,0.000000;
#CREDIT:;
#DISPLAYBPM:77.000000:155.000000;
#NOTES:
1000
0000
1000
0000
,
0001
0001
1000
1000
,
0001
0000
1000
0000
,
0001
0000
0100
0000
,
0010
0000
0100
0000
,
0010
0010
0100
0100
,
0001
0000
1000
0000
,
0001
0000
0100
0100
,
2002
0000
0000
3003
,
0000
0000
0020
0200
0000
0000
0330
0000
,
0000
2002
0000
0000
0000
0000
3003
0000
,
0100
0100
0100
0100
,
1001
0000
0010
1000
,
0010
0000
0100
0001
,
0100
0000
0001
0001
,
0001
0000
1000
1000
,
1001
0000
0010
0100
,
0010
0000
1000
0001
,
1000
0000
0001
0001
,
0001
0000
1000
1000
,
2001
0000
0000
0002
0000
0000
0000
0000
0000
0000
0000
0000
0000
0000
3003
0000
,
1002
0000
0000
2000
0000
0000
0000
0000
0000
0000
0000
0000
0000
0000
3003
0000
,
1000
0010
1000
0010
,
1000
0001
0100
0001
,
0100
0010
0100
0010
,
1000
0100
0010
0001
,
0000
1000
0000
1000
0000
1000
0000
1000
,
0000
0100
0000
0010
,
0000
0001
0000
0001
0000
0001
0000
0001
,
0000
0010
0000
0100
,
1001
0000
0010
0000
,
1000
1000
0100
0100
,
0010
0000
0001
0000
,
2002
0000
0000
3003
,
0000
0100
0010
1000
,
0010
0000
0100
0000
,
0001
0010
0100
0010
,
0001
0000
1000
0000
,
2002
0000
0000
3003
,
0002
0000
0000
0000
0000
0000
0003
0000
0200
0000
0000
0000
0300
0010
0100
0000
,
0000
2002
0000
0000
0000
0000
0000
0000
0000
0000
0000
3003
0000
1100
0000
1001
,
0000
0000
0000
0000
0000
0000
0000
0001
0000
1000
0001
0000
0000
0100
0010
0000
,
1000
1000
1000
1000
,
0000
0001
0000
0001
0000
0001
0000
0001
,
1000
1000
1000
1000
,
0000
0001
0000
0001
0000
0001
0000
0001
,
0100
0100
0100
0100
,
0000
0010
0000
0010
0000
0010
0000
0010
,
0100
0100
0100
0100
,
2002
0000
0000
0000
0000
0000
0000
0000
3003
0000
0000
1000
0000
0000
0002
0000
,
2000
0000
0000
0000
,
0000
3003
0000
0000
0000
0000
0000
0000
;

//---------------dance-single - ----------------
#NOTEDATA:;
#CHARTNAME:;
#CHARTHASH:1753930135;
#STEPSTYPE:dance-single;
#BANNER:;
#DESCRIPTION:;
#CHARTSTYLE:;
#DIFFICULTY:Medium;
#METER:9;
#METERF:9.000000;
#LASTSECONDHINT:94.671623;
#RADARVALUES:0.382928,0.393794,0.154052,0.318373,0.107836,261.000000,246.000000,15.000000,31.000000,0.000000,0.000000,0.000000,0.000000,0.000000,0.382928,0.393794,0.154052,0.318373,0.107836,261.000000,246.000000,15.000000,31.000000,0.000000,0.000000,0.000000,0.000000,0.000000;
#CREDIT:;
#DISPLAYBPM:77.000000:155.000000;
#NOTES:
0000
1000
0000
0001
0000
1000
0000
0010
,
0000
0100
0000
0010
0000
1000
0000
0001
,
0100
0001
0000
0100
0001
0100
0000
0010
,
0100
0010
0000
1000
0100
0010
0001
0100
,
0000
0010
0000
1000
0000
0010
0000
0100
,
0000
0001
0000
0100
0000
0010
0000
1000
,
0100
0010
0000
0001
0010
0100
0000
1000
,
0100
0001
0000
0001
0100
1000
0100
0000
,
2002
0000
0000
0000
0000
3003
0000
1001
,
0000
0100
0020
0200
0000
0000
0330
0000
,
2000
0000
0001
0000
0000
0000
0000
0000
0000
0001
0000
3001
0000
0000
0000
0000
,
0001
0010
0100
1000
0010
0100
0001
0000
,
1000
0000
0101
0000
0010
1000
0010
0000
,
0100
0000
0000
0000
0011
0000
0000
0000
1000
0000
0001
0000
0000
0010
0000
0000
,
0100
1000
0001
0000
0001
1000
0100
0000
,
1000
0100
0010
0001
0100
0010
1000
0000
,
0010
0000
1001
0000
0100
0010
0100
0010
,
0000
0000
1000
0000
0000
0000
0100
0000
0010
0000
0100
0000
0000
1000
0000
0000
,
0001
0000
1000
0010
0000
0100
0001
0000
,
0010
0000
0001
0010
0100
1000
0010
0000
,
1002
0000
0000
0020
0000
0000
0000
0000
0000
0000
0000
0000
0033
0000
0000
0000
,
2001
0000
0000
0200
0000
0000
0000
0000
0000
0000
0000
0000
0000
0000
3300
0000
,
1000
0001
0000
0010
0000
0001
0100
0000
,
0010
0100
0000
0010
0000
1000
0100
0000
,
0010
0001
0000
1000
0001
0000
0100
0000
,
0010
0000
1000
0000
0010
0000
0100
0002
,
0000
1000
0000
1000
0000
1000
0000
1003
,
0100
2002
0000
3003
,
0000
2000
0000
0001
0000
0001
0000
3001
,
1000
0000
0110
0220
0000
0000
0330
0000
,
0001
0100
0001
0000
0100
0001
0100
0000
,
0001
0100
0001
0000
1000
0000
0010
0000
,
1000
0010
1000
0000
0010
1000
0010
0000
,
2002
0000
0000
0000
0000
0000
0000
0000
3003
0000
0000
1000
0000
0000
0010
0000
,
0100
0001
0100
0000
0001
1000
0001
0000
,
1000
0010
1000
0000
0001
1000
0001
0000
,
0100
0010
0100
0000
0001
1000
0001
0000
,
0100
0010
0100
0000
0010
1000
0010
0100
,
2001
0000
0000
0002
0000
0000
0000
0000
0000
0000
0000
0000
3003
0000
0001
0000
,
2000
0000
0000
0000
0000
0000
0000
0000
0000
0000
3010
0000
0000
1000
0000
0000
0200
0000
0000
0000
0000
0000
1300
0000
0000
0000
0001
0000
0100
0000
0000
0000
,
0000
0220
0000
0000
0000
0000
0000
0000
0000
0000
0330
0000
0000
1001
0000
1000
,
0100
0000
0010
0002
0000
0000
0000
1003
0000
0001
0100
0000
0000
0001
1000
0000
,
0000
0010
0000
1000
0000
0010
0100
0020
,
0000
1000
0000
1000
0000
1000
0000
1030
,
0000
0010
0000
0100
0000
0001
1000
0001
,
0000
0200
0000
0001
0000
0001
0000
0301
,
0100
0010
1000
0100
0010
0001
1000
0002
,
0000
1000
0000
1000
0000
1000
0000
1003
,
0001
0000
0010
0000
0100
0000
1000
0000
0010
0000
0000
0100
0000
0000
0002
0000
,
2000
0000
0000
0000
0000
0000
0000
0000
3003
0000
0000
1001
0000
0000
2000
0000
,
0002
0000
0000
0000
,
0000
3003
0000
0000
0000
0000
0000
0000
;

//---------------dance-single - ----------------
#NOTEDATA:;
#CHARTNAME:;
#CHARTHASH:1751871426;
#STEPSTYPE:dance-single;
#BANNER:;
#DESCRIPTION:;
#CHARTSTYLE:;
#DIFFICULTY:Hard;
#METER:11;
#METERF:11.000000;
#LASTSECONDHINT:94.671623;
#RADARVALUES:0.516439,0.603818,0.410804,0.246482,0.220807,352.000000,312.000000,40.000000,24.000000,0.000000,0.000000,0.000000,0.000000,0.000000,0.516439,0.603818,0.410804,0.246482,0.220807,352.000000,312.000000,40.000000,24.000000,0.000000,0.000000,0.000000,0.000000,0.000000;
#CREDIT:;
#DISPLAYBPM:77.000000:155.000000;
#NOTES:
1000
0001
0010
0100
1000
0010
0100
0001
,
1000
0100
0010
0001
1000
0010
0010
0000
,
0100
0001
0000
1000
0010
0001
0000
0001
,
0010
0000
1000
0000
0000
0000
0100
0000
0010
0000
0000
0001
0000
0000
1000
0000
,
0001
0010
0100
0010
0001
1000
0010
0100
,
1000
0100
0010
1000
0001
1000
0000
0001
,
0100
0010
0000
1000
0010
0001
0000
0001
,
0010
0000
1000
0000
0000
0000
0001
0000
0100
0010
0000
0100
0010
0000
1000
0000
,
2002
0000
0003
0100
0000
0010
0000
3100
,
0000
1000
0001
0022
0000
0000
0033
0000
,
1000
0000
0002
0000
0000
0000
0010
0000
0000
0100
0000
0103
0000
0000
0000
0000
,
0001
0010
0100
1000
0100
0010
0100
1000
,
0001
0000
0000
0000
1000
0000
0000
0010
0000
0000
0100
0000
0001
0000
0000
0000
,
0010
0000
0100
0000
1000
0000
0010
0000
0000
0000
0110
0000
0000
1001
0000
0000
,
0011
0000
0000
0000
0001
0000
1000
0100
0000
0000
0010
0000
0001
0000
0000
0000
,
1000
0000
0001
0000
0010
0000
0000
0100
0000
1000
0001
0000
0010
0000
0100
0000
,
1000
0000
0000
0000
0001
0000
0000
0010
0000
0000
0100
0000
1000
0000
0000
0000
,
0100
0000
0010
0000
0001
0000
1000
0000
0000
0000
1100
0000
0000
0101
0000
0000
,
1001
0000
0010
0100
0000
0001
0010
0000
,
0001
1000
0100
0010
0001
0001
1000
0010
,
2001
0000
0000
0020
0000
0000
0000
0000
0000
0000
0000
0000
3030
0000
0001
0100
,
1002
0000
0000
0200
0000
0000
0000
0000
0000
0000
0000
0000
0303
0000
1000
0000
,
0010
0100
0000
0001
0000
1000
0100
0010
,
0001
1000
0000
0010
0000
0100
0001
0100
,
0010
1000
0000
0001
0000
0010
0000
0001
,
1000
0000
0100
0000
0010
0000
0001
0000
1000
0001
0000
1000
0001
0000
0010
0000
,
0000
0011
0000
1001
0000
1010
0000
0110
,
0010
2000
0002
0000
0000
0000
3003
0000
,
0000
0110
0000
1100
0000
0101
0000
1010
,
0000
1000
0001
0000
0020
0000
0200
0000
0000
0000
0000
0000
0000
0000
0330
0000
,
1000
0001
0001
1000
0010
0010
1000
0100
,
0010
0001
0001
0100
0010
0000
1000
0001
,
0010
0100
0100
1000
0001
0001
1000
0000
,
0202
0000
0000
0000
0000
0000
0000
0000
0303
0000
0000
1001
0000
0000
0001
0000
,
0100
0010
0010
1000
0100
0100
1000
0001
,
0100
0100
0001
0010
0010
0001
1000
0000
,
0100
0010
0010
0001
1000
1000
0001
0100
,
0010
0010
1000
0100
0100
1000
0001
0100
,
0110
0000
2000
0020
0000
0000
0000
0000
0000
0000
0000
0000
3030
0000
0100
0000
,
0001
0000
0000
0000
0010
0000
0001
0000
0000
0000
0001
0000
0000
0010
0000
0000
0100
0000
0000
0000
1000
0000
0100
0000
0000
0000
1000
0000
1000
0000
0010
0000
,
0100
0000
0001
1000
0000
0000
0001
0000
0200
0000
0020
0000
0000
0000
0000
0000
0000
0000
0000
0000
0000
0000
0330
0000
0000
0000
1001
0000
0000
0000
1000
0000
,
0100
0000
0010
0002
0000
0000
0000
1003
0000
1001
1001
0000
0000
0110
0110
0000
,
1001
1000
0100
0001
0100
1000
0001
0001
,
0000
1100
0000
1001
0000
0011
0000
0101
,
1001
0000
0001
0000
0010
0000
1000
0000
0010
0000
0001
0000
1000
0000
0001
1000
,
0000
0000
1100
0000
0000
0000
0110
0000
0000
0000
0010
0001
0000
1000
0001
0000
,
0110
0010
1000
0010
0001
0010
1000
0001
,
0100
0110
0000
1010
0000
1001
0000
0101
,
0100
0000
0001
0000
0100
0000
1000
0000
0100
0001
0000
0100
0000
0000
0020
0000
,
2000
0000
0000
0000
0000
0000
0030
0000
0000
0000
0000
3001
0000
0000
1000
0000
,
2002
0000
0000
0000
,
0000
3003
0000
0000
0000
0000
0000
0000
;

//---------------dance-single - ----------------
#NOTEDATA:;
#CHARTNAME:;
#CHARTHASH:1865444997;
#STEPSTYPE:dance-single;
#BANNER:;
#DESCRIPTION:;
#CHARTSTYLE:;
#DIFFICULTY:Challenge;
#METER:14;
#METERF:14.000000;
#LASTSECONDHINT:94.671623;
#RADARVALUES:0.639681,0.840094,0.287563,0.195132,0.611071,436.000000,408.000000,28.000000,19.000000,0.000000,0.000000,0.000000,0.000000,0.000000,0.639681,0.840094,0.287563,0.195132,0.611071,436.000000,408.000000,28.000000,19.000000,0.000000,0.000000,0.000000,0.000000,0.000000;
#CREDIT:;
#DISPLAYBPM:77.000000:155.000000;
#NOTES:
1000
0000
0001
0000
0010
0000
0100
1000
0100
0000
0010
0000
0001
0000
1000
0001
,
1000
0000
0010
0000
0100
0000
0001
0010
0001
0000
1000
0000
1000
0000
0000
0000
,
0001
0010
0000
0100
1000
0001
0000
0100
,
0010
0000
1000
0000
0000
0000
0001
0100
0001
0100
0000
0010
1000
0000
1000
0000
,
0010
0100
0010
0001
0010
1000
0100
0010
,
0001
0010
0100
1000
0001
0001
0000
1000
,
0010
0100
0000
0001
1000
0100
0000
0010
,
0001
0000
1000
0000
0000
0000
0010
0000
1000
0001
0000
0010
0000
0001
1000
0000
,
2002
0000
3000
1000
0000
0103
0000
2001
,
0000
3010
1001
1002
0000
1003
0100
0010
,
0002
0000
1000
0000
0000
0000
0100
0000
0000
1000
0000
1003
0000
0000
0001
0000
,
1000
0100
1000
0000
0001
0100
0001
0000
0100
0010
0000
1000
0001
0000
0010
0000
,
0100
0000
1000
0000
0001
0000
0000
1000
0100
0000
1000
0000
0010
0000
0000
0100
,
0001
0000
0010
0000
0001
0000
1000
0001
0000
0000
0011
0000
0000
1001
0000
0000
,
1000
0000
0100
0000
0010
0000
0001
0010
0000
0001
1000
0000
0010
0000
0000
1000
,
0010
0000
0100
0000
0001
0100
0000
0010
0000
1000
0100
0000
0010
0000
0001
0000
,
1000
0000
0010
0000
0100
0000
0000
0001
0100
0000
0001
0000
0010
0000
0000
0100
,
1000
0000
0100
0000
0010
0001
0000
1000
0000
0001
0100
0000
0000
0110
0000
0000
,
1001
0000
0000
0000
0001
0010
0000
0001
0000
1000
0100
0000
1000
0000
0000
0010
,
0100
0000
0001
0000
1000
0100
0000
0010
0000
0001
0010
0100
1000
0000
0010
0000
,
1002
0000
0000
0020
0000
0000
0000
0000
0000
0000
0000
0000
0033
0000
0001
0100
,
2001
0000
0000
0200
0000
0000
0000
0000
0000
0000
0000
0000
3300
0000
0010
0000
,
1000
0000
0100
0000
0001
0000
0100
0000
1000
0000
0001
0000
0010
0001
0010
0000
,
0100
0000
1000
0000
0100
0000
0010
0000
0100
1000
0000
0001
1000
0000
0010
0000
,
0100
0001
0100
1000
0100
0010
0001
1000
,
0010
0000
0100
0000
0001
0000
0010
0000
0100
1000
0000
0100
0000
1000
0001
0000
,
0000
0001
0100
0000
0000
0001
1000
0000
0000
0001
0010
0000
0000
0001
1000
0000
,
0010
0000
1000
0000
1000
0000
0010
0000
0000
0100
0000
0001
1000
0000
0100
0000
,
0000
1000
0010
0000
0000
1000
0100
0000
0000
1000
0010
0000
0000
1000
0001
0000
,
0010
0000
0100
0000
1000
0000
1000
0000
0000
0001
0000
1000
0100
0000
0010
0000
,
1001
1000
0100
1000
0010
0010
1000
0001
,
1000
0000
1000
0000
0001
0000
0100
0000
0001
0010
0000
0001
1000
0001
0100
0000
,
0110
0000
0000
0000
0010
0000
0000
0000
1000
0000
0000
0000
0001
0000
0000
0000
1000
0000
0000
0000
1000
0000
0000
0000
0010
0000
0000
0000
0000
0000
0000
2000
,
0002
0000
0000
0000
0000
0000
0000
0000
3003
0000
0000
1100
0000
0000
0001
0000
,
1001
0010
0010
0001
1000
0100
0100
1000
,
0010
0000
0010
0000
0010
0000
0100
0000
0001
0010
0000
0100
1000
0100
0010
0000
,
0011
1000
1000
0010
0100
0001
0001
1000
,
0010
0000
0010
0000
0010
0000
1000
0000
0001
1000
0001
1000
0001
1000
0100
1000
,
0100
0000
1000
0001
0000
0010
0100
0000
1000
0100
0000
0010
0001
0000
0100
0000
,
0010
0000
0000
0000
1000
0000
0100
0000
0000
0000
1000
0000
0000
0001
0000
0000
0100
0000
0000
0000
0010
0000
0100
0000
0000
0000
0001
0000
0001
0000
0010
0000
,
0100
0000
1000
0001
0000
0000
0010
0000
0001
0000
1000
0000
0100
0000
0010
0000
0001
0000
0010
0100
0000
0000
1000
0000
0100
0000
1100
0000
0000
0000
1000
0000
,
0001
0000
0001
0010
0000
0100
1000
0100
0000
0011
0011
0000
0000
1100
1100
0000
,
2001
0000
0010
0000
3010
0000
1000
0000
0001
0100
0000
0001
0100
0000
0010
0000
,
0000
1000
0001
0000
0000
0100
0010
0000
0000
1000
0010
0000
0000
0100
0001
0000
,
0102
0000
1000
0000
1000
0000
1000
0000
1003
0001
0000
0001
0010
0000
0100
0000
,
1000
0100
1000
0000
0000
0001
0100
0000
0000
0001
1000
0000
0000
0001
0010
0000
,
2100
0000
0001
0000
0001
0000
0001
0000
3001
1000
0000
1000
0010
0000
0100
0000
,
0000
0100
0001
0000
0000
1000
0010
0000
0000
0100
0010
0100
0000
0001
1000
0000
,
0210
0000
0010
0000
0010
0000
0010
0000
0310
0001
0000
1000
0000
0000
0001
0000
,
2002
0000
0000
0000
0000
0000
0000
0000
3003
0000
0000
0101
0000
0000
1010
0000
,
2002
0000
0000
0000
,
0000
3003
0000
0000
0000
0000
0000
0000
;

//---------------dance-single - ----------------
#NOTEDATA:;
#CHARTNAME:;
#CHARTHASH:2965865616;
#STEPSTYPE:dance-single;
#BANNER:;
#DESCRIPTION:;
#CHARTSTYLE:;
#DIFFICULTY:Beginner;
#METER:2;
#METERF:2.000000;
#LASTSECONDHINT:6.220000;
#RADARVALUES:0.121774,0.210024,0.082161,0.061621,0.000000,83.000000,75.000000,8.000000,6.000000,0.000000,0.000000,0.000000,0.000000,0.000000,0.121774,0.210024,0.082161,0.061621,0.000000,83.000000,75.000000,8.000000,6.000000,0.000000,0.000000,0.000000,0.000000,0.000000;
#CREDIT:;
#DISPLAYBPM:77.000000:155.000000;
#NOTES:
// measure 0
1000
0000
0000
0000
,  // measure 1
1000
0000
0000
0000
,  // measure 2
0001
0000
0000
0000
,  // measure 3
0001
0000
0000
0000
,  // measure 4
1000
1000
1000
0000
,  // measure 5
1000
0000
0000
0000
,  // measure 6
0001
0001
0001
0000
,  // measure 7
0001
0000
0000
0000
,  // measure 8
1001
0000
0000
0000
,  // measure 9
0000
0000
0000
0000
,  // measure 10
0100
0000
0000
0000
,  // measure 11
0010
0010
0010
0010
,  // measure 12
0010
0000
0100
0000
,  // measure 13
0010
0000
0000
0000
,  // measure 14
1000
0000
0001
0000
,  // measure 15
1000
0000
0000
0000
,  // measure 16
0010
0000
0100
0000
,  // measure 17
0010
0000
0000
0000
,  // measure 18
1000
0000
0001
0000
,  // measure 19
1000
0000
0000
0000
,  // measure 20
1001
0000
0000
0000
,  // measure 21
1001
0000
0000
0000
,  // measure 22
1001
0000
0000
0000
,  // measure 23
0010
0000
0000
0000
,  // measure 24
0010
0000
0000
0000
,  // measure 25
0010
0000
0000
0000
,  // measure 26
0020
0000
0000
0000
,  // measure 27
0030
0000
0000
0000
,  // measure 28
0200
0000
0000
0000
,  // measure 29
0300
0000
0000
0000
,  // measure 30
0001
0000
0001
0000
,  // measure 31
0001
0000
0000
0000
,  // measure 32
1000
0000
1000
0000
,  // measure 33
1001
0000
0000
0000
,  // measure 34
0010
0000
0010
0000
,  // measure 35
0010
0000
0000
0000
,  // measure 36
0100
0000
0100
0000
,  // measure 37
0100
0000
0000
0000
,  // measure 38
1001
0000
0000
0000
,  // measure 39
0100
0000
0010
0000
,  // measure 40
0000
0000
0000
0000
,  // measure 41
0000
0000
0000
0000
,  // measure 42
1000
1000
1000
1000
,  // measure 43
1000
0000
0000
0000
,  // measure 44
0001
0001
0001
0001
,  // measure 45
0001
0000
0000
1000
,  // measure 46
1000
1000
1000
1000
,  // measure 47
1000
0000
0000
0000
,  // measure 48
0001
0001
0001
0001
,  // measure 49
2002
0000
0000
3003
,  // measure 50
2002
0000
0000
0000
,  // measure 51
0000
3003
0000
0000
0000
0000
0000
0000
;
