#VERSION:0.83;
#TITLE:EL TIBURÓN;
#SUBTITLE:;
#ARTIST:PROYECTO UNO;
#TITLETRANSLIT:EL TIBURON;
#SUBTITLETRANSLIT:;
#ARTISTTRANSLIT:;
#GENRE:LATIN URBANO;
#ORIGIN:;
#TAGS:;
#CREDIT:YonabearCWY;
#BANNER:EL TIBURON.png;
#BACKGROUND:EL TIBURON-bg.png;
#PREVIEWVID:;
#JACKET:EL TIBURON-jacket.png;
#CDIMAGE:;
#DISCIMAGE:;
#LYRICSPATH:;
#CDTITLE:Dance Mania Bass 8.png;
#MUSIC:EL TIBURON.ogg;
#OFFSET:-0.190000;
#SAMPLESTART:48.032417;
#SAMPLELENGTH:15.000000;
#SELECTABLE:YES;
#BPMS:0.000000=130.449997
;
#STOPS:;
#DELAYS:;
#WARPS:;
#TIMESIGNATURES:0.000000=4=4
;
#TICKCOUNTS:0.000000=4
;
#COMBOS:0.000000=1
;
#SPEEDS:0.000000=1.000000=0.000000=0
;
#SCROLLS:0.000000=1.000000
;
#LABELS:0.000000=Song Start
;
#BGCHANGES:-0.250=EL TIBURON.mp4=1.000=1=0=0=StretchNoLoop==CrossFade==,
208.000=EL TIBURON-bg.png=1.000=0=0=1=====,
99999.000=-nosongbg-=1.000=0=0=0=StretchNoLoop====,
99999=-nosongbg-=1.000=0=0=0 // don't automatically add -songbackground-
;
#KEYSOUNDS:;
#ATTACKS:
;

//---------------dance-single - ----------------
#NOTEDATA:;
#CHARTNAME:;
#CHARTHASH:2147483647;
#STEPSTYPE:dance-single;
#BANNER:;
#DESCRIPTION:;
#CHARTSTYLE:;
#DIFFICULTY:Beginner;
#METER:2;
#METERF:2.000000;
#LASTSECONDHINT:94.479004;
#RADARVALUES:0.130192,0.183677,0.000000,0.000000,0.000000,89.000000,89.000000,0.000000,0.000000,0.000000,0.000000,0.000000,0.000000,0.000000,0.130192,0.183677,0.000000,0.000000,0.000000,89.000000,89.000000,0.000000,0.000000,0.000000,0.000000,0.000000,0.000000,0.000000;
#CREDIT:;
#NOTES:
0000
0000
0000
0000
,
0000
0000
0000
0000
,
0000
0000
0000
0000
,
0000
0000
0000
0000
,
0000
0000
0000
0000
,
0000
0000
0000
0000
,
1000
0000
1000
0000
,
1000
0000
0000
0000
,
0001
0000
0001
0000
,
0001
0000
0000
0000
,
1000
1000
1000
0000
,
0000
1000
0000
0001
,
0010
0010
0010
0000
,
0000
0001
0000
0100
,
0010
0010
0010
0000
,
1000
0000
1000
0000
,
0001
0001
0001
0000
,
1000
0000
1000
0000
,
0100
0000
1000
0000
,
0001
0001
0001
0000
,
0000
0100
0000
0010
,
0000
1000
1000
1000
,
0001
0000
0000
0010
,
0000
0001
0000
1000
,
0100
0000
1000
0010
,
0100
0000
0000
0001
,
0100
0000
0100
0000
,
0010
0000
0010
0000
,
1000
0000
0000
0000
,
0001
0000
0000
0000
,
1000
0000
1000
0000
,
0001
0000
0001
0000
,
0100
0000
0000
0000
,
0010
0000
0000
0000
,
0100
0100
0100
0000
,
0100
0100
0100
0000
,
0010
0010
0010
0000
,
0010
0010
0010
0000
,
1000
0000
1000
0000
,
0001
0000
0001
0000
,
1000
0000
1000
0000
,
0001
0000
0001
0000
,
0001
0000
0000
0000
,
0010
0000
0000
0000
,
0100
0000
0000
0000
,
1000
0000
0000
0000
,
0100
0000
0000
0000
,
0010
0000
0000
0000
,
0001
0000
0000
0000
,
0000
0000
0000
0000
,
1000
1000
1000
0000
,
0001
0001
0000
0000
;

//---------------dance-single - ----------------
#NOTEDATA:;
#CHARTNAME:;
#CHARTHASH:1230739565;
#STEPSTYPE:dance-single;
#BANNER:;
#DESCRIPTION:;
#CHARTSTYLE:;
#DIFFICULTY:Easy;
#METER:6;
#METERF:6.000000;
#LASTSECONDHINT:94.708977;
#RADARVALUES:0.229664,0.315642,0.194557,0.000000,0.000000,157.000000,138.000000,19.000000,0.000000,0.000000,0.000000,0.000000,0.000000,0.000000,0.229664,0.315642,0.194557,0.000000,0.000000,157.000000,138.000000,19.000000,0.000000,0.000000,0.000000,0.000000,0.000000,0.000000;
#CREDIT:;
#NOTES:
0000
0000
0000
0000
,
0000
0000
0000
0000
,
0000
0000
0000
0000
,
0000
0000
0000
0000
,
0000
0000
0000
0000
,
0000
0000
0000
0000
,
1000
1000
0000
0001
,
0001
0001
0000
0100
,
0010
0010
0000
1000
,
1000
1000
0000
1001
,
0010
0100
0010
0000
,
0100
0001
0100
0010
,
1000
0000
1000
0100
,
0010
0000
0010
0100
,
1000
0000
0001
0100
,
0010
0000
0010
0100
,
0001
1000
0100
0010
,
0001
0000
0001
1000
,
0010
0000
1010
0000
,
0100
0100
0100
0001
,
1000
0000
1001
0000
,
0010
0010
0010
1000
,
0100
0000
1000
1001
,
0001
0000
0001
1000
,
0010
0000
0100
0110
,
0010
0000
1000
0100
,
0010
0010
0000
0001
,
0001
1000
0000
1000
,
0010
0100
0001
0010
,
0100
1000
0001
0100
,
0010
0010
0000
1000
,
1000
0001
0000
0010
,
0001
0010
1000
0010
,
0001
1000
0100
0010
,
1100
1100
1100
0000
,
1000
1000
1000
0000
,
0011
0011
0011
0000
,
0001
0001
0001
0000
,
1001
1001
1001
0000
,
0100
0100
0100
0000
,
0110
0110
0110
0000
,
0001
0001
0001
0001
,
0001
1000
0000
0010
,
0000
0100
0000
0001
,
0010
0100
0000
1000
,
0000
0100
0000
0010
,
0001
1000
0000
0010
,
0000
0100
0000
0001
,
1000
0010
0000
1000
,
1001
0000
0000
0000
,
0001
0000
0000
0001
0000
0000
0000
0000
,
1000
0000
0000
1001
0000
0000
0000
0000
;

//---------------dance-single - ----------------
#NOTEDATA:;
#CHARTNAME:;
#CHARTHASH:2147483647;
#STEPSTYPE:dance-single;
#BANNER:;
#DESCRIPTION:;
#CHARTSTYLE:;
#DIFFICULTY:Medium;
#METER:8;
#METERF:8.000000;
#LASTSECONDHINT:94.708977;
#RADARVALUES:0.370096,0.447160,0.133118,0.000000,0.010240,253.000000,240.000000,13.000000,0.000000,0.000000,0.000000,0.000000,0.000000,0.000000,0.370096,0.447160,0.133118,0.000000,0.010240,253.000000,240.000000,13.000000,0.000000,0.000000,0.000000,0.000000,0.000000,0.000000;
#CREDIT:;
#NOTES:
0000
0000
0000
0000
,
0000
0000
0000
0000
,
0000
0000
0000
0000
,
0000
0000
0000
0000
,
0000
0000
0000
0000
,
0000
0000
0000
0000
,
0000
1000
0100
0000
0000
1000
0001
0000
,
0010
0001
0100
1001
,
0000
0001
0010
0000
0000
0001
1000
0000
,
0100
0010
0100
1001
,
0100
1000
0100
1000
0001
0000
0010
0000
,
0001
0100
0010
1000
,
0100
0010
0100
0010
0001
0000
0010
0000
,
0100
1000
0001
0110
,
1000
0010
1000
0010
0001
0000
0010
0000
,
1000
0100
0001
0100
,
0010
0001
0010
0001
1000
0000
0001
0000
,
0010
1000
0010
0001
,
0100
0000
0001
0010
0001
0000
0100
0000
,
0010
1000
0010
0000
1000
0000
1000
0000
,
0001
0000
1000
0100
1000
0000
0010
0000
,
0100
0001
0100
0000
0010
0000
0010
0000
,
1000
0100
1000
0000
0001
0000
0110
0000
,
1000
0001
1000
0000
0010
0000
1001
0000
,
0100
0010
0100
0000
0010
0000
1000
0000
,
0100
0000
0010
0000
0001
0000
1000
0100
,
0000
1000
0010
1000
0000
0001
0100
0001
,
0100
0000
1010
0000
0100
0000
1000
0001
,
0000
0010
0001
0010
0000
0001
0100
0001
,
0100
0000
0010
0000
1000
0001
0101
0000
,
0000
1000
0010
1000
0000
0010
0100
0010
,
0100
0000
0001
0000
0010
0000
0100
1000
,
0000
0001
1000
0001
0000
1000
0100
1000
,
0100
0000
0010
0000
0001
0010
0110
0000
,
1001
0000
1000
0100
0000
1000
0000
0001
,
0100
0000
0000
0000
0001
0000
0010
0000
0000
0000
0001
0000
0000
1000
0000
0000
,
0100
0000
1000
0010
0000
0100
0000
0010
,
0100
0000
0000
0000
0001
0000
0010
0000
0000
0000
0001
0000
0000
0100
0000
0000
,
0010
1000
0100
0001
0100
1000
0010
0000
,
1000
0001
0100
1000
0100
0001
1000
0000
,
0100
1000
0010
0001
0010
1000
0100
0000
,
1000
1000
0001
0001
1000
0001
1001
0000
,
0011
0000
0001
0010
1000
0000
1000
0010
,
0001
0000
1000
0100
0001
0000
0001
0100
,
1000
0000
0001
0001
0001
0000
1000
0010
,
0001
0000
0001
0010
1000
0000
0001
0001
,
0001
0000
1000
1000
1000
0000
0001
0100
,
1000
0000
1000
0100
0001
0000
1000
1000
,
1000
0000
0001
0010
1000
0000
1000
0010
,
1001
0000
0000
0000
,
0001
0001
0001
0000
1000
1000
1000
0000
,
0010
0010
0000
1001
0000
0000
0000
0000
;

//---------------dance-single - ----------------
#NOTEDATA:;
#CHARTNAME:EXPERT;
#CHARTHASH:1797642999;
#STEPSTYPE:dance-single;
#BANNER:;
#DESCRIPTION:;
#CHARTSTYLE:;
#DIFFICULTY:Hard;
#METER:11;
#METERF:11.000000;
#LASTSECONDHINT:94.823959;
#RADARVALUES:0.453478,0.526711,0.163837,0.112638,0.143357,310.000000,294.000000,16.000000,11.000000,0.000000,0.000000,0.000000,0.000000,0.000000,0.453478,0.526711,0.163837,0.112638,0.143357,310.000000,294.000000,16.000000,11.000000,0.000000,0.000000,0.000000,0.000000,0.000000;
#CREDIT:YonabearCWY;
#NOTES:
// measure 0
0000
0000
0000
0000
,  // measure 1
0000
0000
0000
0000
,  // measure 2
0000
0000
0000
0000
,  // measure 3
0000
0000
0000
0000
,  // measure 4
0000
0000
0000
0000
,  // measure 5
0000
0000
0000
0000
,  // measure 6
0000
0001
0200
0000
0000
0310
2000
0000
,  // measure 7
3100
0000
0000
0000
0010
0000
0000
0000
0001
1000
0000
1000
0020
0000
0000
0000
,  // measure 8
0000
0130
0002
0000
0000
0013
0200
0000
,  // measure 9
1300
0000
0001
0000
0100
0000
0100
0000
0000
0001
1000
0001
1000
0000
0000
0000
,  // measure 10
0011
0000
1000
0000
0100
0010
0001
0000
,  // measure 11
1010
0000
0001
0000
0010
1000
0001
0000
,  // measure 12
0110
0000
0001
0000
0010
0100
1000
0001
,  // measure 13
0000
0100
0000
0010
0000
1000
0001
0000
,  // measure 14
0110
0000
1000
0000
0001
0100
1000
0000
,  // measure 15
0110
0000
0001
0000
1000
0010
0001
0000
,  // measure 16
0100
0001
0100
0000
0010
0010
0010
0000
,  // measure 17
1000
0100
0010
0001
,  // measure 18
1000
0010
0001
0000
1000
0010
0001
0000
,  // measure 19
0110
0000
0000
0000
1001
0000
0000
0000
0010
1000
0000
1000
0100
0000
0001
0000
,  // measure 20
0100
0000
1000
0100
0001
0000
1000
0100
,  // measure 21
0001
0100
1000
0010
,  // measure 22
0100
0000
0001
0010
1000
0010
1001
0000
,  // measure 23
0100
0000
0010
1000
0100
0001
0100
0000
,  // measure 24
1000
0001
0001
1000
0100
0100
0001
0000
,  // measure 25
0010
0010
0001
1000
1000
0100
0011
1000
,  // measure 26
0000
0001
0100
0002
0000
1003
0010
2000
,  // measure 27
0000
0000
3010
0000
0100
0000
0001
0000
1000
0100
0000
0100
0020
0000
0000
0000
,  // measure 28
0031
0010
0010
0100
0001
1000
1000
0010
,  // measure 29
0001
0000
0100
0000
0100
0000
0010
0000
1000
0001
0000
0000
1001
0000
0000
0000
,  // measure 30
0100
0010
0001
0020
0000
0130
1000
0001
,  // measure 31
2000
0000
0000
0000
0010
0000
0000
0000
3100
0010
0000
0010
0002
0000
0000
0000
,  // measure 32
1003
0001
0001
0010
1000
0010
0010
0100
,  // measure 33
1000
0000
0001
0000
0001
0000
1000
0000
0010
0100
0000
0000
0110
0000
0000
0000
,  // measure 34
1001
0000
0000
0100
0010
0000
0000
0000
1000
0000
0001
0000
0100
0000
1000
0000
,  // measure 35
0100
0000
0000
0001
1000
0000
0000
0000
0010
0000
0001
0000
0010
0000
0100
0000
,  // measure 36
0010
0000
0000
1000
0100
0000
0000
0000
0001
0000
1000
0000
0010
0000
1000
0000
,  // measure 37
0001
0000
0000
0010
0001
0000
0000
0000
1000
0000
0100
0000
0010
0000
0001
0000
,  // measure 38
1000
0000
1000
0010
0000
0000
0100
0000
0001
0000
0010
0000
1000
0000
0010
0000
,  // measure 39
0001
0000
0001
0100
0000
0000
0001
0000
1000
0000
0100
0000
0010
0000
0001
0000
,  // measure 40
0100
0000
0010
1000
0010
0000
1000
0000
0100
0000
0010
0000
0001
0000
1000
0000
,  // measure 41
0010
0000
0010
0000
0100
0000
0100
0000
0001
0000
1000
0001
0000
1000
0001
0000
,  // measure 42
0110
0000
0001
0010
1000
0100
0001
0010
,  // measure 43
1000
0100
0001
0010
1000
0100
0001
0010
,  // measure 44
1001
0000
1000
0100
0001
0010
1000
0100
,  // measure 45
0001
0010
1000
0100
0001
0010
1000
0100
,  // measure 46
1001
0000
0100
0100
0001
0000
0100
0100
,  // measure 47
1000
0000
0010
0010
0001
0000
0010
0010
,  // measure 48
1001
0000
0100
0100
0001
0000
0010
0010
,  // measure 49
1000
0000
0000
0000
,  // measure 50
0001
0100
0001
0100
0000
0000
0010
1000
0010
1000
0000
0000
0100
0000
0000
0000
,  // measure 51
0010
0001
0010
0100
0000
0000
1000
0001
0000
0000
0000
0000
0000
0000
0000
0000
;
