#TITLE:Distress;
#SUBTITLE:;
#ARTIST:dj TAKA remixed by TaQ;
#TITLETRANSLIT:;
#SUBTITLETRANSLIT:;
#ARTISTTRANSLIT:;
#GENRE:MIXTURE;
#CREDIT:YonabearCWY;
#BANNER:Distress.png;
#BACKGROUND:Distress-bg.png;
#LYRICSPATH:;
#CDTITLE:Beatmania IIDX.png;
#MUSIC:Distress.ogg;
#OFFSET:-7.740000;
#SAMPLESTART:38.467999;
#SAMPLELENGTH:15.000000;
#SELECTABLE:YES;
#BPMS:0.000000=124.999992
,32.000000=62.499996
,48.000000=124.999992
,144.000000=62.499996
,160.000000=124.999992
;
#STOPS:
;
#BGCHANGES:0.000=lines4.mp4=1.000=1=0=1===CrossFade==,
8.000=dance16.mp4=1.000=0=0=1=====,
16.000=lines4.mp4=1.000=0=0=1=====,
24.000=dance16.mp4=1.000=0=0=1=====,
32.000=text1.mp4=1.000=0=0=1=====,
36.000=text7.mp4=1.000=0=0=1=====,
40.000=tunnel16.mp4=1.000=0=0=1=====,
44.000=tunnel17.mp4=1.000=0=0=1=====,
48.000=pills2.mp4=1.000=0=0=1=====,
56.000=piranha1.mp4=1.000=0=0=1=====,
64.000=lines4.mp4=1.000=0=1=1=StretchRewind====,
72.000=dance16.mp4=1.000=0=1=1=StretchRewind====,
80.000=piranha1r.mp4=1.400=0=0=1=====,
88.000=demon3.mp4=1.400=0=0=1=====,
92.000=piranha1r.mp4=1.400=0=0=1=====,
93.000=demon3.mp4=1.400=0=0=1=====,
94.000=piranha1r.mp4=1.400=0=0=1=====,
95.000=demon3.mp4=1.400=0=0=1=====,
96.000=text15.mp4=1.400=0=0=1=====,
104.000=text16.mp4=1.400=0=0=1=====,
112.000=pills2.mp4=1.000=0=1=1=StretchRewind====,
120.000=piranha1.mp4=1.000=0=1=1=StretchRewind====,
128.000=lines4.mp4=1.000=0=1=1=StretchRewind====,
136.000=dance16.mp4=1.000=0=1=1=StretchRewind====,
140.000=dance16.mp4=1.800=0=0=1=====,
144.000=text1.mp4=1.000=0=1=1=StretchRewind====,
148.000=text7.mp4=1.000=0=1=1=StretchRewind====,
152.000=tunnel16.mp4=1.000=0=1=1=StretchRewind====,
156.000=tunnel17.mp4=1.000=0=1=1=StretchRewind====,
160.000=text12.mp4=1.000=0=0=1=====,
168.000=text15.mp4=1.000=0=1=1=StretchRewind====,
176.000=text14.mp4=1.000=0=0=1=====,
184.000=text16.mp4=1.000=0=1=1=StretchRewind====,
188.000=dance16.mp4=1.800=0=1=1=StretchRewind====,
192.000=piranha1.mp4=1.800=0=1=1=StretchRewind====,
193.000=piranha1r.mp4=1.800=0=1=1=StretchRewind====,
193.750=Distress-bg.png=1.000=0=0=1=====,
99999.000=-nosongbg-=1.000=0=0=0=StretchNoLoop====,
99999=-nosongbg-=1.000=0=0=0 // don't automatically add -songbackground-
;
#KEYSOUNDS:;
#ATTACKS:;

//---------------dance-single - ----------------
#NOTES:
     dance-single:
     BEGINNER:
     Beginner:
     4:
     0.141646,0.226059,0.076271,0.000000,0.000000,117.000000,108.000000,9.000000,0.000000,0.000000,0.000000,0.141646,0.226059,0.076271,0.000000,0.000000,117.000000,108.000000,9.000000,0.000000,0.000000,0.000000:
// measure 0
1000
0000
0000
0000
,  // measure 1
1000
0000
0000
0000
,  // measure 2
0001
0000
0000
0000
,  // measure 3
0001
0000
0000
0000
,  // measure 4
1000
1000
1000
0000
,  // measure 5
1000
1000
1000
0000
,  // measure 6
0001
0001
0001
0000
,  // measure 7
0001
0001
0001
0000
,  // measure 8
1000
0000
0000
0000
,  // measure 9
0010
0000
0000
0000
,  // measure 10
0001
0000
0000
0000
,  // measure 11
0100
0000
0000
0000
,  // measure 12
1001
1000
1000
0000
,  // measure 13
1000
0000
1000
0000
,  // measure 14
1001
0001
0001
0000
,  // measure 15
0001
0000
0001
0000
,  // measure 16
0110
0100
0100
0000
,  // measure 17
0100
0000
0100
0000
,  // measure 18
0110
0010
0010
0000
,  // measure 19
0010
0000
0010
0000
,  // measure 20
1001
0000
0000
0000
,  // measure 21
0000
0000
0000
0000
,  // measure 22
0010
0010
0000
0010
,  // measure 23
0010
0000
0100
0100
,  // measure 24
0100
0000
0100
0000
,  // measure 25
0010
0000
0010
0000
,  // measure 26
1000
0000
1000
0000
,  // measure 27
0100
0000
0100
0000
,  // measure 28
0001
0000
0010
0000
,  // measure 29
1000
0000
0100
0000
,  // measure 30
0001
0000
0010
0000
,  // measure 31
0100
0000
0001
0000
,  // measure 32
1000
0000
0100
0000
,  // measure 33
0010
0000
0100
0000
,  // measure 34
0001
0000
0010
0000
,  // measure 35
0100
0000
1000
0000
,  // measure 36
1001
0000
0000
0000
,  // measure 37
0010
0000
0000
0000
,  // measure 38
0100
0100
0010
0010
,  // measure 39
0100
0100
0010
0010
,  // measure 40
1000
0000
1000
1000
,  // measure 41
0100
0000
0010
0010
,  // measure 42
0001
0000
0010
0010
,  // measure 43
1000
0000
0010
0010
,  // measure 44
0001
0000
0100
0100
,  // measure 45
0001
0000
0100
0100
,  // measure 46
1000
0000
0100
0100
,  // measure 47
0010
0000
1000
1000
,  // measure 48
1001
1001
1001
0000
;

//---------------dance-single - ----------------
#NOTES:
     dance-single:
     BASIC:
     Easy:
     8:
     0.330508,0.492585,0.144068,0.127119,0.050847,273.000000,256.000000,17.000000,15.000000,0.000000,0.000000,0.330508,0.492585,0.144068,0.127119,0.050847,273.000000,256.000000,17.000000,15.000000,0.000000,0.000000:
1000
0001
1000
0000
0010
0000
1001
0000
,
0010
0100
0010
0000
0100
0000
1000
0100
,
0010
0001
0010
0000
0100
0000
1001
0000
,
0010
0100
0010
0000
1000
0000
0010
0010
,
0010
0100
0010
0100
0010
0000
1000
0000
,
0001
0010
0100
1000
,
0100
0010
0100
0010
0100
0000
0010
0000
,
0001
1000
0001
0010
,
2200
0000
0000
3300
0001
0010
0100
1000
,
0202
0000
0000
0303
1000
0001
0010
1000
,
0100
0010
0001
0000
0010
0000
0100
0000
1000
0100
0010
0000
0001
0000
0100
0000
,
1000
0100
0001
0000
0001
0100
1000
0000
0110
0000
1001
0000
0010
0010
0010
0000
,
0001
0000
0000
0000
0001
0000
0000
0001
0000
0000
1000
0000
0100
0000
0000
0000
,
0010
0001
1000
0001
,
0010
0000
0000
0000
0100
0000
0000
0100
0000
0000
1000
0000
0001
0000
1000
0000
,
0001
0000
0010
0000
0001
0100
0001
0000
,
0010
0100
1000
0100
,
0010
0001
0010
0001
1000
0000
0110
0000
,
0001
0010
0001
1000
,
0010
0100
0010
0100
0001
0000
1001
0000
,
0220
0000
0000
0000
,
0000
0000
0000
0330
,
2002
0000
0000
3003
,
0010
0010
0100
0100
,
0001
0010
0001
0000
0100
0001
0100
0000
,
0001
0010
0001
0000
1000
1000
1000
0000
,
0010
1000
0010
0000
0100
0001
0100
0000
,
0010
1000
0010
0000
0100
0100
1001
0000
,
0001
0010
0100
0000
1000
1000
1000
0000
,
0100
0010
0100
0001
,
1000
0100
0001
0000
0100
0100
0100
0000
,
1000
0001
0010
0001
,
0100
0001
0010
0000
0001
0001
0001
0000
,
1000
0001
0010
1000
,
0010
0001
1000
0000
0100
0100
0100
0000
,
0010
0001
1000
0100
,
2002
0000
0000
3003
0200
0000
0000
0300
,
0020
2030
3002
0023
,
0130
1000
0100
0000
1000
0001
0100
0000
0010
0000
1000
0000
0100
0000
0010
0000
,
0001
0010
0001
0000
1000
0100
0001
0000
0100
0000
0010
0000
0001
0000
0010
0000
,
0100
0100
0100
0000
1000
0000
0101
0000
,
0010
0010
0010
0000
0001
0000
1010
0000
,
0100
0001
0010
0001
0010
0001
0010
0000
,
0100
1000
0001
1000
0001
1000
0001
0000
,
1000
0000
0001
0000
0010
0010
0010
0000
,
0100
0000
1000
0000
0100
0100
0100
0000
,
0010
0000
0001
0000
1000
1000
0101
0000
,
0010
0000
0100
0000
0010
0010
1001
0000
,
0100
0000
0000
0000
0010
0000
0000
1001
0000
0000
0000
0000
0000
0000
0000
0000
;

//---------------dance-single - ----------------
#NOTES:
     dance-single:
     DIFFICULT:
     Medium:
     12:
     0.487893,0.615731,0.084746,0.110169,0.326271,403.000000,393.000000,10.000000,13.000000,0.000000,0.000000,0.487893,0.615731,0.084746,0.110169,0.326271,403.000000,393.000000,10.000000,13.000000,0.000000,0.000000:
1000
1000
0001
0000
0010
0100
1000
0100
,
0010
0010
0001
0000
0100
0100
0001
0010
,
0100
1000
1000
0000
0100
0010
0001
1000
,
0001
0010
0010
0000
0100
1000
0001
0010
,
0001
0000
0100
0000
1000
0000
0100
0000
0001
0000
0010
0000
0100
1000
0010
0000
,
0100
0000
1000
0000
0100
0000
0010
0000
0100
0000
0010
0000
1000
0000
0001
1000
,
0010
0000
0100
0000
0001
0000
0010
0000
0001
0000
1000
0000
0100
0010
0001
0000
,
0100
1000
0100
0001
0010
0100
1000
0100
,
0012
1000
0100
1003
0210
0001
0010
0301
,
2010
0000
0000
0010
0010
0000
3100
0000
1002
0000
0000
0100
0103
0000
0010
1000
,
0100
0000
0010
0000
0001
0000
0000
0100
0000
0000
0001
0000
1000
0000
0010
0000
0100
0000
0010
0000
1000
0000
0000
0010
0000
0000
0100
0000
0001
0000
0010
0000
,
0100
0000
0010
0000
0100
0000
0000
1000
0000
0000
0100
0000
0010
0000
0001
0000
1000
0000
0001
0000
0010
0000
0100
0010
0000
0000
0001
0000
1000
0000
0100
0000
,
1000
0001
0000
0000
0010
0000
0001
1000
0000
0000
0100
0000
0010
0000
0001
0000
,
1000
0010
1000
0000
0001
0000
0100
0001
0100
0000
0010
0000
1000
0000
0100
0000
,
0010
0001
0000
0000
1000
0000
0001
0100
0000
0000
0010
0000
1000
0000
0100
0000
,
0010
0001
1000
0010
0001
0010
1000
0100
,
0010
0001
0000
0000
0100
0000
0001
1000
0000
0000
0010
0100
0010
0000
1000
0000
,
0100
0010
0000
0000
0001
0000
1000
0100
1000
0000
0010
0000
0001
0000
0010
0000
,
0100
0001
0000
0000
0010
0000
0001
0010
0000
0000
0100
0000
1000
0000
0100
0000
,
0010
0001
0000
0010
0001
0000
1000
0001
0000
1000
0001
0000
0010
0000
0100
0000
,
2002
0000
0000
0000
,
0000
0000
0000
3003
,
0100
0010
1000
0000
0100
0100
0100
0000
,
0010
0001
1000
0000
0001
0001
0001
1000
,
0010
0100
1000
0100
0001
1000
0100
0000
,
0011
0000
1000
0000
0110
0000
0001
1000
,
0010
0001
1000
0100
0010
0100
0001
0010
,
1000
0000
0110
0000
0001
0000
1010
0010
,
0100
0000
0001
0000
0010
0000
0001
0100
0000
0000
0010
0000
1000
0000
0100
0000
,
0010
0000
0001
0000
1000
0000
0001
0010
0001
0000
0010
0000
0100
0000
1000
0000
,
0100
0000
0010
0000
0001
0000
1000
0100
0000
0000
0010
0000
0100
0000
1000
0000
,
0001
1000
0100
0010
0001
0010
1000
0001
,
0100
0000
0010
0000
0100
0000
1000
0001
0000
0000
0010
0000
0100
1000
0100
0000
,
1000
0000
0100
0000
0010
0000
0001
0010
0001
0000
0100
0000
0010
0000
1000
0000
,
0001
0000
0010
0000
0100
0000
1000
0100
0000
0010
0001
0010
0001
0000
0100
0000
,
0010
0000
1000
0000
0100
0000
0000
0010
0000
0001
1000
0000
0100
0010
0100
0000
,
2002
0000
0000
3000
0200
0000
0003
0000
,
0020
0300
2030
0000
3200
0000
0320
0000
,
0031
0000
0010
0000
0100
0000
1000
0000
0000
0000
0001
0000
0010
0000
0000
0000
0001
0000
1000
0000
0100
0000
0010
0000
0000
0001
0100
0000
0010
1000
0010
0000
,
0100
0000
1000
0000
0100
0000
0010
0000
0000
0000
1000
0000
0001
0010
0001
0000
0100
0000
0100
0000
0100
0000
0000
0000
0010
0000
0010
0000
0010
0000
0000
0000
,
1000
0001
0001
0000
0010
0010
0100
0000
,
1000
0100
0100
0010
0001
0010
0010
0100
,
1000
1000
0001
0000
0010
0100
0100
0001
,
0100
1000
1000
0100
0010
0010
0001
1000
,
0001
0000
0010
0000
0010
0000
0010
0100
0000
0000
1000
0000
0100
0000
0010
0000
,
0001
0000
0001
0000
0001
0000
1000
0100
1000
0000
0010
0000
0100
0000
0001
0000
,
0010
0000
0010
0000
0010
0000
0000
0100
0000
1000
0001
0000
0010
0000
0001
0000
,
0100
0000
0100
0000
0100
0000
0001
1000
0001
0000
0010
0000
0100
1000
0100
0000
,
1000
0001
0000
1000
0001
0000
1000
0001
0000
0000
0000
0000
0000
0000
0000
0000
;

//---------------dance-single - ----------------
#NOTES:
     dance-single:
     EXPERT:
     Hard:
     13:
     0.525424,0.697828,0.101695,0.135593,0.436441,434.000000,422.000000,12.000000,16.000000,0.000000,0.000000,0.525424,0.697828,0.101695,0.135593,0.436441,434.000000,422.000000,12.000000,16.000000,0.000000,0.000000:
1000
0000
0001
0000
1000
0000
0010
0100
0000
0000
1000
0000
0100
0000
0010
0000
,
0100
0000
0001
0000
0010
0000
0000
0100
0000
1000
0100
0000
0010
0000
0010
0000
,
0001
0000
0100
0000
0001
0000
0000
1000
0000
0001
0010
0000
0100
0000
0100
0000
,
1000
0000
0001
0000
0010
0000
0001
0100
0001
0000
0010
0000
0100
0000
0100
0000
,
1000
0000
0001
0000
0010
0000
0100
0000
1000
0000
0010
0000
0100
0001
0100
0000
,
0010
0000
1000
0000
0100
0000
0010
0000
0001
0000
1000
0100
1000
0000
0010
0000
,
0100
0000
0001
0000
0010
0000
0001
0100
0001
0000
0010
0000
0100
0000
1000
0000
,
0010
0000
0001
0000
0010
0000
0100
1000
0100
0000
0010
0000
0100
0000
1001
0000
,
0120
0000
0000
0000
0100
0000
1030
0000
0201
0000
0000
0000
0001
0000
0310
1000
,
0200
0000
1000
0000
0001
0000
1300
0010
0002
0000
0010
0000
1000
0000
0013
0100
,
0001
0000
0010
0000
0001
0000
0000
1000
0000
0010
0100
0000
0010
0000
0001
0000
0010
0000
0100
0000
0010
0000
0000
0001
0000
1000
0100
0000
0010
0000
0100
0000
,
1000
0000
0001
0000
1000
0000
0001
0010
0000
0000
0100
0000
1000
0000
0100
0010
0000
0000
0001
0000
1000
0000
0010
0000
0100
0000
0001
0000
0010
0001
0010
0000
,
0001
1000
0000
0000
0100
0000
0010
0001
0000
0000
0010
0000
0100
0000
1000
0000
,
0001
0100
0000
0000
0010
0000
1000
0100
0000
0000
0010
0000
0001
0000
1000
0000
,
0001
0010
0000
0000
0001
0000
1000
0100
0000
0000
0010
0000
0100
0000
1000
0000
,
0001
0010
0100
0010
0001
1000
0100
0001
,
0100
0010
0000
0000
0001
0000
0010
0100
1000
0000
0100
0000
0010
0000
0001
0000
,
1000
0010
0000
0000
0100
0000
0001
0010
0000
0010
0100
0000
1000
0000
0001
0000
,
0010
0100
0000
0000
1000
0000
0001
0100
0010
0000
1000
0000
0100
0000
0010
0000
,
0100
1000
0010
0001
0010
0100
0001
0100
,
0220
0000
0000
0330
,
0001
0100
1000
0010
,
0001
1000
0100
0000
0010
0010
0010
0000
,
0101
0000
0010
0000
1100
0010
0001
0110
,
1001
0000
0010
0000
0010
0000
0010
0000
0100
0001
0100
0000
0011
0000
0000
0000
,
1000
0000
0010
0000
0100
0010
0000
0000
0100
0000
0001
0000
1000
0010
0000
0000
,
1001
0000
0100
0000
0100
0000
0100
0000
0001
0010
0001
0000
1010
0000
0000
0000
,
0001
0000
0100
0000
0010
0100
0000
0000
0001
0000
0010
0000
0100
1000
0100
0000
,
0010
0000
0001
0000
0100
0000
0000
0001
0000
1000
0100
0000
0010
0000
0001
0000
,
0010
0000
0100
0000
0001
0000
0100
0010
0000
0000
0100
0000
1000
0000
0001
0000
,
1000
0000
0010
0000
0100
0000
0000
0001
0000
0010
0100
0000
1000
0000
0010
0000
,
0001
0000
0010
0000
0100
0000
0001
0000
0010
0000
0100
0000
1000
0001
1000
0000
,
0100
0000
0010
0000
0001
0000
0000
1000
0000
0010
0100
0010
0100
0000
0001
0000
,
0010
0100
0001
1000
0010
0001
0010
0100
,
1000
0000
0001
0000
0010
0000
0000
0100
0000
1000
0100
0000
0010
0000
0001
0100
,
0001
0000
0010
0000
0100
0000
0000
1000
0000
0100
0010
0100
0010
0000
0001
0000
,
2002
0000
0000
3003
,
0020
0000
0000
1000
2030
0000
0000
0100
3200
0000
0000
0001
0302
0000
0000
0010
,
0013
0000
1000
0000
0100
0000
0000
0000
0010
0000
0001
0000
1000
0000
0000
0000
0001
0000
0010
0000
0100
0000
0000
1000
0000
0100
0010
0000
0001
0000
0010
0000
,
0100
1000
0001
0000
0100
0001
0010
0000
0001
1000
0100
1000
0010
0100
0001
0000
,
1000
0100
1000
0000
0020
0000
0000
0000
0130
0001
0100
0000
0001
0000
0010
0000
,
0100
1000
0100
0000
0020
0000
0000
0000
0031
1000
0100
0000
0010
0001
0010
0000
,
0100
1000
0100
1000
0002
0000
0000
0000
1003
0100
1000
0000
0001
0000
0010
0100
,
1000
0001
1000
0001
2000
0000
0000
0000
3001
0100
0010
0000
1000
0000
0100
0000
,
0010
0000
0001
0000
1000
0000
0001
0000
0010
0000
0001
0000
0100
0000
0010
1000
,
0100
0010
0001
0010
0100
0001
1000
0010
,
0001
0000
0010
0000
0100
0000
1000
0001
1000
0000
0001
0000
0010
0000
0100
0000
,
1000
0000
0001
0000
0010
0000
0100
1000
0100
0000
0010
0000
0001
1000
0100
0000
,
0010
0001
0000
0001
0010
0000
0010
0100
0000
0000
0000
0000
0000
0000
0000
0000
;

//---------------dance-single - ----------------
#NOTES:
     dance-single:
     CHALLENGE:
     Challenge:
     15:
     0.691283,0.820975,0.059322,0.135593,0.978814,571.000000,564.000000,7.000000,16.000000,0.000000,0.000000,0.691283,0.820975,0.059322,0.135593,0.978814,571.000000,564.000000,7.000000,16.000000,0.000000,0.000000:
1000
0001
0000
0000
0100
0000
0001
0010
0000
0100
0000
1000
0001
0000
1000
0000
,
0100
0010
0000
0000
0001
0000
1000
0100
1000
0000
0001
0000
0010
0000
0100
0000
,
0010
0001
0000
0000
1000
0000
0001
0100
0001
0100
0001
0000
1000
0000
0100
0000
,
0010
0001
0000
0010
0001
0000
1000
0010
0000
1000
0010
0000
0001
0000
0010
0000
,
0100
0001
0000
0000
1000
0000
0100
0010
0000
0001
0000
0010
1000
0000
0010
0000
,
0001
0100
0000
0000
0010
0000
1000
0100
1000
0000
0001
0000
1000
0000
0100
0000
,
0010
0001
0000
0000
1000
0000
0010
0100
0010
0100
0010
0000
1000
0000
0001
0000
,
0010
0100
0000
0010
0100
0000
1000
0001
0000
1000
0001
0010
0100
0000
0010
0000
,
2001
0000
0010
0000
0001
0000
0010
0000
3002
0000
0100
0000
1003
0000
0100
0010
,
1002
0000
1000
0000
0100
0000
1000
0000
0203
0000
0010
0000
1300
0000
0100
0010
,
1000
0000
0001
0000
0010
0000
0000
0001
0000
1000
0100
0000
1000
0000
0001
0100
0001
0000
0010
0000
0100
0000
0000
1000
0000
0010
0100
0000
0001
0000
0010
0001
,
0010
0000
0001
0000
1000
0000
0100
0010
0000
0100
0010
0000
0001
0000
0010
0100
0010
0000
0100
0000
1000
0000
0001
1000
0000
0001
1000
0000
0100
0010
0001
0010
,
0100
0000
1000
0000
0001
0000
1000
0100
0000
0010
0000
0001
0100
0000
0010
0000
,
1000
0000
0001
0000
0010
0100
0010
0100
0000
1000
0000
0100
0010
0000
0001
0000
,
0100
0000
0010
0000
0100
0000
0001
0010
0001
0010
0100
0010
0100
1000
0100
1000
,
0001
1000
0100
0010
0100
0010
0001
1000
0001
1000
0000
0000
0010
0000
0100
0001
,
1000
0000
1000
0000
0001
0010
0000
0001
0000
0100
0010
0000
1000
0000
0001
0010
,
0100
1000
0000
0000
0100
0000
0010
0001
0010
0100
1000
0000
0100
0010
0000
0001
,
1000
0000
0001
0000
0010
0001
0000
1000
0100
0010
0100
0000
1000
0001
0010
0001
,
0010
0100
0010
0100
1000
0100
1000
0001
0010
0001
0010
0100
1000
0100
0010
0001
,
1000
0100
1000
0100
1000
0000
0100
1000
0100
1000
0200
0000
0000
0000
1300
0001
,
0010
0001
0010
0000
0001
0010
0100
1000
0100
0000
0001
0100
1000
0100
0002
0000
,
0000
0000
1003
0010
1000
0010
0100
0000
1000
0100
0010
0001
0010
0000
0100
1000
,
1001
0000
0000
0000
0000
0000
0000
0100
0010
0000
0000
0000
0000
0000
0000
1000
0001
0000
0000
0000
0000
0000
0000
0010
0100
0000
0000
0000
1000
0000
0000
0000
,
0001
0010
0001
0000
0010
0000
0100
0010
0100
0000
0010
0000
0001
0000
1000
0100
,
1000
0000
0001
0000
0010
0100
0010
0000
0100
0000
1000
0001
1000
0001
0010
0000
,
0001
0000
1000
0100
0010
0000
0001
0000
0010
0001
0100
0000
0010
0000
1000
0001
,
0010
0100
1000
0000
0010
0000
1000
0010
0001
0010
1000
0000
0010
0100
0010
0000
,
1000
0000
1000
0000
0002
0000
0000
0013
0100
0010
0002
0000
0000
1003
0001
0010
,
0100
0000
1000
0000
0001
0000
0100
1000
0100
0010
0100
0010
1000
0000
0110
0000
,
0001
0000
1000
0100
0010
0000
0100
0000
0010
0001
2000
0000
0000
0000
3001
0100
,
0010
0100
0020
0000
0000
1030
0100
0010
0001
0010
0001
0000
1001
0000
1100
0000
,
0010
0001
0010
0000
0100
0000
1000
0100
0010
0001
0020
0000
0000
0031
1000
0100
,
1000
0100
0010
0000
0100
0000
1000
0001
1000
0000
0010
0000
0100
0001
0100
0000
,
0001
0010
0000
0010
0100
0000
0100
1000
0000
1000
0001
0000
0010
0100
0000
0100
,
0010
0001
1000
0001
0010
0100
1000
0100
1000
0100
0010
0001
0010
0001
0010
0100
,
2000
0000
0000
0000
0000
0000
0001
0000
0000
0000
0000
0000
0010
0000
0000
0000
0001
0000
0000
0000
0010
0000
0000
0000
3200
0000
0000
0000
0000
0000
0000
0000
0000
0001
0000
0000
0001
0000
0000
0000
0000
0000
0000
0000
0000
1000
0000
0000
,
2300
0000
0000
0010
0000
0000
3200
0000
0000
0001
0000
0000
0320
0000
0000
0100
0000
0000
1030
0000
0010
0000
0100
0000
,
0010
0000
0001
0000
1000
0000
0001
0000
0010
0000
0100
0000
0000
0000
1000
0000
0100
0000
0001
0000
0100
0000
0010
0000
0001
0000
0001
0000
0000
0001
1000
0000
,
0010
0000
0001
0000
0010
0000
0100
0000
0010
0000
1000
0000
0000
0000
0100
0000
0010
0000
0001
0000
0010
0000
0100
0000
1000
0000
0100
0010
0000
0010
0001
0000
,
1000
0100
1000
0000
0001
0000
0010
0100
1000
0100
0010
0000
0000
0001
0100
0000
,
0010
0100
0010
0000
1000
0000
0100
0010
0100
0010
0001
0000
0010
0100
1000
0000
,
0001
0010
0001
0010
1000
0000
0010
0100
0010
0000
0001
0000
1000
0100
0010
0000
,
0001
1000
0100
1000
0100
0000
0010
0001
0010
0000
0100
1000
0001
1000
0100
0000
,
1000
0000
0001
0000
0010
0000
0000
0100
0000
1000
0100
0010
0001
0010
0100
0000
,
1000
0001
0010
0001
0100
0000
0010
1000
0000
0100
0010
0001
0010
1000
0010
0000
,
0001
0100
0001
0000
0010
0000
0100
1000
0000
0100
0010
0001
1000
0001
0010
0000
,
0100
1000
0100
1000
0100
0010
0100
0010
0001
0010
0001
1000
0001
1000
0010
0100
,
0001
0100
0000
0100
0010
0000
0010
1001
0000
0000
0000
0000
0000
0000
0000
0000
;
