#TITLE:Disco Amigo;
#SUBTITLE:;
#ARTIST:NONA REEVES;
#TITLETRANSLIT:;
#SUBTITLETRANSLIT:;
#ARTISTTRANSLIT:;
#GENRE:;
#CREDIT:;
#BANNER:Disco Amigo.png;
#BACKGROUND:Disco Amigo-bg.png;
#LYRICSPATH:;
#CDTITLE:Discography.png;
#MUSIC:Disco Amigo.ogg;
#OFFSET:-0.340000;
#SAMPLESTART:76.909988;
#SAMPLELENGTH:15.000000;
#SELECTABLE:YES;
#DISPLAYBPM:119.000000;
#BPMS:0.000000=119.019997
;
#STOPS:
;
#BGCHANGES:16.000=discoball2.mp4=1.000=1=0=1===CrossFade==,
32.000=ring8.mp4=1.200=0=0=1=====,
40.000=ring1.mp4=1.000=0=0=1=====,
48.000=ring8.mp4=1.200=0=0=1=====,
56.000=ring1.mp4=1.000=0=0=1=====,
64.000=ddr4.mp4=1.400=0=0=1=====,
72.000=dance10.mp4=1.400=0=0=1=====,
80.000=ddr4.mp4=1.400=0=1=1=StretchRewind====,
88.000=dance10.mp4=1.400=0=1=1=StretchRewind====,
96.000=circle7.mp4=0.900=0=0=1=====,
104.000=circle8.mp4=0.900=0=0=1=====,
112.000=circle7.mp4=0.900=0=1=1=StretchRewind====,
120.000=circle8.mp4=0.900=0=1=1=StretchRewind====,
128.000=discoball2.mp4=1.000=0=1=1=StretchRewind====,
136.000=ring8.mp4=1.200=0=1=1=StretchRewind====,
144.000=colors3.mp4=1.400=0=0=1=====,
152.000=disco4.mp4=1.000=0=0=1=====,
156.000=ring8.mp4=1.200=0=0=1=====,
160.000=disco3.mp4=1.000=0=0=1=====,
168.000=disco4.mp4=1.000=0=1=1=StretchRewind====,
172.000=colors3.mp4=1.400=0=1=1=StretchRewind====,
176.000=disco3.mp4=1.000=0=1=1=StretchRewind====,
184.000=disco4.mp4=1.000=0=1=1=StretchRewind====,
192.000=circle8.mp4=0.900=0=1=1=StretchRewind====,
200.000=disco4.mp4=1.000=0=1=1=StretchRewind====,
208.000=disco3.mp4=1.000=0=1=1=StretchRewind====,
216.000=discoball2.mp4=1.000=0=1=1=StretchRewind====,
223.500=Disco Amigo-bg.png=1.000=0=0=1=====,
99999.000=-nosongbg-=1.000=0=0=0=StretchNoLoop====,
99999=-nosongbg-=1.000=0=0=0 // don't automatically add -songbackground-
;
#KEYSOUNDS:;
#ATTACKS:;

//---------------dance-single - ----------------
#NOTES:
     dance-single:
     :
     Beginner:
     2:
     0.120277,0.193994,0.034719,0.017360,0.000000,97.000000,93.000000,4.000000,2.000000,0.000000,0.000000,0.120277,0.193994,0.034719,0.017360,0.000000,97.000000,93.000000,4.000000,2.000000,0.000000,0.000000:
0000
0000
0000
0000
,
0000
0000
0000
0000
,
0000
0000
0000
0000
,
0000
0000
0000
0000
,
1000
0000
0000
0000
,
1000
0000
0000
0000
,
1000
0000
0000
0000
,
1000
0000
0000
0000
,
1001
0000
0001
0000
,
0001
0000
0000
0000
,
0010
0000
0010
0000
,
0010
0000
0000
0000
,
0100
0000
0100
0000
,
0100
0000
0000
0000
,
1000
0000
1000
0000
,
1000
0000
0000
0000
,
0100
0100
0100
0000
,
0100
0000
0000
0000
,
1000
0000
1000
0000
,
0100
0000
0000
0000
,
0010
0000
0010
0000
,
0001
0000
0000
0000
,
0001
0001
0001
0000
,
0001
0000
0000
0000
,
1000
0000
1000
0000
,
1000
0000
0000
0000
,
0100
0000
0100
0000
,
0100
0000
0000
0000
,
0010
0000
0010
0000
,
0010
0000
0000
0000
,
0001
0000
0001
0000
,
0001
0000
0000
0000
,
1001
0000
1000
0000
,
1000
0000
0000
0000
,
1001
0000
0001
0000
,
0001
0000
0000
0000
,
2000
0000
3000
0000
,
0002
0000
0003
0000
,
1000
1000
1000
0000
,
0100
0000
0000
0100
,
1000
0000
0100
0000
,
0001
0000
0100
0000
,
1000
1000
1000
0000
,
1000
0000
0000
0010
,
0100
0000
0100
0000
,
0010
0000
0010
0000
,
0100
0000
0001
0000
,
1000
0000
0000
0000
,
1000
0010
1000
0000
,
1000
0010
1000
0000
,
1000
0000
0001
0000
,
0010
0000
0010
0001
,
0010
0001
0010
0000
,
0001
0010
0001
0000
,
1000
0000
0010
0000
,
0100
0000
0000
0000
0001
0000
0000
1001
;

//---------------dance-single - ----------------
#NOTES:
     dance-single:
     :
     Easy:
     5:
     0.234355,0.266741,0.138877,0.095478,0.000000,189.000000,173.000000,16.000000,11.000000,0.000000,0.000000,0.234355,0.266741,0.138877,0.095478,0.000000,189.000000,173.000000,16.000000,11.000000,0.000000,0.000000:
0000
0000
0000
0000
,
0000
0000
0000
0000
,
0000
0000
0000
0000
,
0000
0000
0000
0000
,
1000
0100
1000
0010
,
1000
0100
1001
0000
,
0010
0001
0010
0100
,
0010
0001
1001
0000
,
1000
1000
0100
0000
,
0100
0100
1000
0000
,
0010
0010
0100
0000
,
0001
0001
0010
0000
,
0001
1000
0100
0000
,
0100
1000
0001
0000
,
1000
0100
0001
0000
,
0001
0100
1000
0000
,
1100
1000
0010
0000
,
0100
0100
0010
0010
,
1001
0001
0100
0000
,
0010
0010
1000
1000
,
1100
1000
0001
0000
,
0100
0100
0001
0001
,
0010
0022
0000
0033
,
0001
0001
1000
1000
,
0010
1000
0100
0001
,
0100
0000
0100
0100
,
1000
0100
0001
0100
,
0010
0010
0001
0000
,
0001
0100
0010
1000
,
0010
0010
1000
0000
,
1000
0001
0010
0100
,
1000
1000
0001
1001
,
2000
3000
1000
1000
,
0200
0300
1000
1001
,
0020
0030
0001
0100
,
0200
0300
0002
0003
,
2200
0000
0000
3300
,
0202
0000
0000
0303
,
0001
1000
0100
0001
,
0100
0000
0100
1001
,
0100
0000
1000
0010
,
0101
0000
0001
0100
,
1010
1000
0001
0100
,
0001
0000
1000
1001
,
0001
1000
0100
0010
,
0001
0010
0100
1000
,
0001
0000
0001
0000
,
1000
1000
0001
0001
,
1000
0010
1000
1100
,
1000
0001
0100
0101
,
0001
0000
0001
0001
,
1000
0010
1000
0100
,
1000
1000
0010
0010
,
0100
0100
0001
0001
,
1000
0001
0100
1000
,
0100
0000
0001
0000
1000
0000
0001
1000
;

//---------------dance-single - ----------------
#NOTES:
     dance-single:
     :
     Medium:
     8:
     0.354632,0.387987,0.208315,0.130197,0.060759,286.000000,262.000000,24.000000,15.000000,0.000000,0.000000,0.354632,0.387987,0.208315,0.130197,0.060759,286.000000,262.000000,24.000000,15.000000,0.000000,0.000000:
0000
0000
0000
0000
,
0000
0000
0000
0000
,
0000
0000
0000
0000
,
0000
0000
0000
0000
,
1000
0100
1000
0010
,
0100
0000
0000
0101
0000
0000
0000
0000
0001
0000
0000
1001
0000
0000
0000
0000
,
0001
0100
0010
1000
,
0001
0100
1000
0000
1000
0100
0001
0000
,
0011
0000
0100
0000
0001
1000
0100
0000
,
1000
0000
0000
0010
0000
0000
1000
0000
0100
0000
0000
0000
1000
0000
0001
0000
,
0010
0000
0101
0000
0001
1000
0100
0000
,
1000
0000
0000
0010
0000
0000
0100
0000
0001
0000
0000
0000
1001
0000
0000
0000
,
0110
0000
1000
0000
0010
1000
0001
0000
,
1000
0000
0000
0100
0000
0000
1000
0000
0010
0000
0000
0000
1000
0000
0010
0000
,
0001
0000
1010
0000
1000
0001
0100
0000
,
0001
0000
0000
1000
0000
0000
0001
0000
0100
0000
0000
0000
0001
0000
1000
0000
,
0020
0000
0100
0000
0130
0000
0010
1000
,
0002
0100
0203
0001
,
0302
0000
1000
0000
1003
0000
0001
1000
,
0200
1000
2000
3300
,
2000
0000
0010
0000
3010
0000
1000
0010
,
0001
0000
0020
0000
1000
0000
1000
1030
,
0000
2002
0000
0000
0000
0000
3003
0000
,
1000
0000
0000
0010
0000
0000
1000
0000
0001
0000
0000
0000
0110
0000
0000
0000
,
2010
0000
0010
0000
3010
1000
0100
1000
,
0000
0001
0000
0100
0000
0001
0010
0000
,
0012
0000
0010
0000
0013
0001
1000
0100
,
0000
1000
0000
0010
0000
0010
0100
0000
,
2001
0000
0100
0000
3100
1000
0010
0100
,
0000
0010
0100
0001
0010
0001
1000
0100
,
0000
2002
0000
0000
0000
0000
3003
0000
,
1000
0000
0000
0001
0000
0000
0010
0000
0001
0000
0000
0000
1001
0000
0000
0000
,
0100
0010
1000
0000
0010
1000
0001
0000
,
1000
0000
0000
1100
0000
0000
0000
0000
1000
0000
0000
1001
0000
0000
0000
0000
,
0001
0100
0010
0000
1000
0001
0010
0000
,
0001
0100
0010
1000
,
0100
0000
0000
0100
0000
0000
1000
0000
0000
1000
0000
0000
0010
0000
1000
0000
,
0001
0000
0000
0001
0000
0000
0100
0000
0000
0100
0000
0000
0001
0000
1000
0000
,
0100
0000
1000
0000
0010
0000
0100
0010
,
1000
0000
1000
0100
0001
0000
0001
0100
,
1000
0000
1100
0000
0100
0000
1000
0010
,
0100
0000
0101
0000
0001
0100
0010
1000
,
0001
0000
0100
0000
0001
0000
1000
0100
,
0010
0000
0001
0010
1000
0000
1000
0010
,
0001
0010
0001
0100
,
0010
1000
0010
1000
0010
0100
0001
0100
,
0001
0000
1000
0000
0100
0000
1000
0100
,
0001
0000
0100
0000
1000
0010
0100
0001
,
0010
0001
0100
0001
,
1000
0010
1000
1001
,
1000
0000
0100
0000
1000
0000
0010
1000
,
0100
0000
1000
0010
0100
0001
0010
0001
,
1000
0100
1000
0010
,
0100
0001
0100
0001
1000
0010
1000
0010
,
0110
0100
0101
0001
,
1001
0000
1000
0000
1001
0000
0001
1001
;

//---------------dance-single - ----------------
#NOTES:
     dance-single:
     :
     Hard:
     11:
     0.451350,0.484984,0.243034,0.208315,0.199635,364.000000,336.000000,28.000000,24.000000,0.000000,0.000000,0.451350,0.484984,0.243034,0.208315,0.199635,364.000000,336.000000,28.000000,24.000000,0.000000,0.000000:
0000
0000
0000
0000
,
0000
0000
0000
0000
,
0000
0000
0000
0000
,
0000
0000
0000
0000
,
1000
0010
0100
0010
1000
0100
0010
0001
,
1000
0000
0000
1001
0000
0000
0001
0000
0010
0000
0000
0011
0000
0000
0001
0000
,
1000
0100
0001
0100
1000
0010
0100
0001
,
0020
0000
0001
0000
0230
0000
1300
0001
,
1001
0000
0000
0001
0200
0000
0000
0000
0320
0000
0000
0000
2030
0000
0000
0000
,
3100
0000
0000
1000
0000
0000
0010
0000
1000
0000
0000
0000
0001
0100
0001
0100
,
0001
0000
0000
1000
0020
0000
0000
0000
2030
0000
0000
0000
3200
0000
0000
0000
,
1300
0000
0000
0100
0000
0000
1000
0000
0010
0000
0000
0000
1010
0000
0000
0000
,
1001
0000
0000
0001
0010
0000
0000
0000
0001
0000
1000
0000
0200
0000
0000
0000
,
1300
0000
0000
0010
0000
0000
0100
0000
0001
0000
0000
0000
1000
0100
1000
0100
,
1000
0000
0000
1000
0010
0000
0100
0000
0001
0000
0000
0000
0001
0000
1000
0000
,
0100
0000
0000
1000
0000
0000
0010
0000
1000
0000
0000
0000
1001
0000
0000
0000
,
0210
0000
0010
0000
0310
1000
0100
0001
,
0200
0000
1000
0000
1300
0100
0001
0000
,
2100
0000
0100
0000
3100
1000
0001
0010
,
0002
0000
0000
1000
0000
0000
1003
0000
0001
0000
0100
0000
0010
0000
0000
0000
,
1020
0000
1000
0000
1030
0010
0100
0001
,
0000
0001
0100
0010
1000
0100
0001
0100
,
0000
2002
0000
0000
0000
0000
3003
0000
,
1000
0001
0000
0010
0000
0001
1000
0000
0010
0000
0000
0000
1001
0000
0000
0000
,
1200
0000
0000
0000
1300
0000
0000
1000
0100
0000
1000
0000
0010
0000
0100
0000
,
0021
1000
0001
1030
,
0012
0000
0000
0000
0103
0000
0000
0100
0001
0000
1000
0000
0010
0000
1000
0000
,
2100
0010
0100
3010
,
0102
0000
0000
0000
1003
0000
0000
1000
0001
0000
1000
0000
0010
0000
0100
0000
,
0020
0000
1000
0000
0130
0010
1000
0100
,
0000
2002
0000
0000
0000
0000
3003
0000
,
0001
1000
0000
0100
0000
1000
0001
0000
0100
0000
0000
0000
1001
0000
0000
0000
,
0010
1000
0100
0000
0100
1000
0010
0000
,
1000
0000
0000
1100
0000
0000
1000
0001
0010
0000
0000
0011
0000
0000
0000
0000
,
0001
0100
0010
0000
0010
1000
0001
0000
,
1000
1010
0001
0101
,
1000
0010
0000
1000
0010
0000
1000
0010
0000
1000
0010
0000
0100
0000
0000
0000
,
0001
0100
0000
0001
0100
0000
0001
0100
0000
0001
0100
0000
0010
0000
0010
0000
,
1000
0000
0000
0100
0000
0000
1000
0000
0010
0000
0000
0100
0000
0000
0001
0000
,
0100
1000
0100
0001
0100
0010
0010
0000
,
1010
0000
0000
1100
0000
0000
1000
0000
0001
0000
0001
0000
0001
0000
0100
0000
,
0110
0000
0000
0101
0000
0000
0001
0000
1000
0000
1000
0000
0000
0000
1000
0000
,
0010
0000
0000
1000
0000
0000
0001
0000
1000
0000
0000
0001
0000
0000
1000
0000
,
0100
0010
0001
0010
1000
0010
0001
0001
,
0100
0001
1000
0010
1000
0100
1000
0010
,
0100
0100
0001
0001
1000
1000
0010
0010
,
1001
0000
0000
0001
0100
0000
0001
0000
1000
0000
0000
1000
0010
0000
1000
0000
,
1000
0000
0100
1000
0010
0001
0010
1000
,
0100
0000
1000
0000
0010
1000
0010
1000
,
0100
0000
0001
0000
0100
1000
0100
1000
,
0001
0000
0000
0010
0001
0000
0100
0000
0001
0000
0000
0001
1000
0000
0100
0000
,
0100
0000
1000
0000
0010
0000
0100
0001
0100
0000
0001
0000
0001
0000
1000
0000
,
0010
1000
0100
1000
0100
0001
0100
0001
,
0100
0100
1000
1000
0010
0010
0100
0100
,
0001
0100
1000
0100
0001
0100
1000
0100
,
0001
0010
1000
0010
0001
0010
1000
0011
;

//---------------dance-single - ----------------
#NOTES:
     dance-single:
     :
     Challenge:
     14:
     0.616266,0.703227,0.147557,0.147557,0.664005,497.000000,480.000000,17.000000,17.000000,0.000000,0.000000,0.616266,0.703227,0.147557,0.147557,0.664005,497.000000,480.000000,17.000000,17.000000,0.000000,0.000000:
// measure 0
0000
0000
0000
0000
,  // measure 1
0000
0000
0000
0000
,  // measure 2
0000
0000
0000
0000
,  // measure 3
0000
0000
0000
0000
,  // measure 4
1000
0010
1000
0010
0000
0000
0100
0000
0001
0000
0010
0001
0000
0001
0100
0001
,  // measure 5
1000
0000
1000
0010
0000
0010
0100
0001
0010
0000
0010
0001
0000
0000
0100
0000
,  // measure 6
0001
1000
0001
1000
0000
0000
1000
0000
0010
0000
1000
0100
0000
0100
1000
0000
,  // measure 7
0010
0000
0000
0000
0100
0000
0000
0000
0001
0000
0000
1000
0100
0000
1000
0001
,  // measure 8
0100
0000
0000
0100
0001
0000
0001
1000
0010
1000
0001
0000
1000
0000
0100
0000
,  // measure 9
2000
0000
0000
0010
0000
0000
3100
0000
1000
0000
0000
1000
0100
0010
0001
0010
,  // measure 10
0100
0000
0000
0100
1000
0000
1000
0010
0100
0010
1000
0000
0001
0000
1000
0000
,  // measure 11
0100
1000
0000
0100
0000
1000
0010
0000
0200
0000
0000
0000
0302
0000
0000
0000
,  // measure 12
0013
0000
0000
0010
0001
0000
0001
0100
0010
0100
0001
0000
0010
0000
0001
0000
,  // measure 13
2000
0000
0000
0001
0000
0000
3010
0000
1000
0000
0000
1000
0100
0010
0100
1000
,  // measure 14
0001
0000
0000
0001
1000
0000
0010
1000
0100
1000
0001
0000
0010
0000
0001
0000
,  // measure 15
0100
0010
0000
0100
0000
0010
1000
0000
1000
0001
0000
1000
0001
0000
1000
0001
,  // measure 16
1000
0000
0000
0000
0010
0000
0000
0010
1000
0001
0100
0000
0010
0000
1000
0000
,  // measure 17
0002
0000
0000
1000
0000
0000
1003
0000
0001
0000
0000
0000
0012
0000
0000
0000
,  // measure 18
0103
0000
0000
0000
0010
0000
0000
1000
0100
0010
0001
0000
0100
0000
0010
0000
,  // measure 19
2000
0000
0000
0001
0000
0000
3010
0000
1000
0000
0000
1000
0001
0000
0000
0001
,  // measure 20
1000
0000
0000
0000
0010
0000
0000
0010
0100
0001
0010
0000
0001
0000
1000
0000
,  // measure 21
0200
1000
0000
1000
0000
0000
1300
0000
0010
0000
1000
0000
0100
0000
1000
0000
,  // measure 22
0001
0000
0000
0000
0010
0000
0000
0001
1000
0100
1000
0000
0010
0000
0100
0000
,  // measure 23
0001
1000
0000
0001
0000
1000
0001
0000
1001
0000
0001
1000
0010
0000
0000
0010
,  // measure 24
1000
0000
0100
0000
1000
0000
0000
1000
0001
0000
0010
0001
0010
0000
0001
0000
,  // measure 25
0200
0000
0000
0010
0300
0010
1000
0000
0010
0000
1000
0001
1000
0000
0000
0000
,  // measure 26
0100
1000
0010
0001
0010
0100
0010
1000
,  // measure 27
0200
0000
0000
1000
0000
0000
1300
0000
0100
0000
1000
0001
0010
0000
0000
0000
,  // measure 28
0001
0100
1000
0100
0010
0100
0001
1000
,  // measure 29
0200
0000
0000
1000
0000
1300
0010
0000
0100
0000
0010
0000
1000
0000
0001
0000
,  // measure 30
0010
0000
0000
0010
0001
0000
0000
0001
1000
0100
1000
0000
0010
0000
1000
0000
,  // measure 31
0001
1000
0000
0100
0000
1000
0001
0000
1001
0000
1000
0001
0100
0000
0000
0100
,  // measure 32
0010
1000
0010
1000
0000
0000
0100
0000
1000
0000
0001
0100
0000
0001
0100
0000
,  // measure 33
0010
0000
1000
0010
0000
1000
0001
0100
0001
0000
0001
0010
0000
0001
1000
0000
,  // measure 34
1000
0100
1000
0100
0000
0000
1000
0000
0010
0000
1000
0100
0000
1000
0001
0010
,  // measure 35
0000
0001
0100
0000
0001
0000
1000
0001
0100
0001
1000
0000
0010
0000
1000
0000
,  // measure 36
0100
1000
0000
0100
1000
0000
0100
1000
0000
0100
1000
0000
1001
0000
0000
0000
,  // measure 37
0010
0001
0000
0010
0001
0000
0010
0001
0000
0010
0001
1000
0010
1000
0001
0100
,  // measure 38
0002
0000
0000
0010
0000
0000
1000
0000
1003
0000
0001
1000
0100
0010
0001
0010
,  // measure 39
0100
1000
0001
1000
0100
0100
0100
1000
,  // measure 40
1010
0000
0000
1001
0000
0001
0100
0010
2000
0000
0001
0000
3001
0000
0000
0000
,  // measure 41
1010
0000
0000
1100
0000
1000
0010
0100
0002
0000
0010
0000
0013
0000
0001
0000
,  // measure 42
2000
0000
0000
0010
0000
0000
0001
0000
3001
0000
1000
0100
0001
0100
1000
0000
,  // measure 43
0100
1000
0010
0100
0001
0001
1000
0010
,  // measure 44
0110
0010
1000
0010
0100
0001
0010
0001
,  // measure 45
1000
0100
1000
0100
1000
0100
1000
0100
0001
0100
0001
0100
0001
0100
1000
0100
,  // measure 46
1000
0000
0000
1000
0010
0000
0100
0000
0001
0000
0000
0001
0010
0001
1000
0100
,  // measure 47
1000
0010
1000
1000
0001
0100
0001
0001
,  // measure 48
0010
0000
0001
0100
0001
0000
1000
0010
0100
0010
1000
0000
0100
0000
0100
0000
,  // measure 49
1000
0000
0010
1000
0010
0100
0010
1000
0000
0100
0000
1000
0002
0000
0000
0000
,  // measure 50
0013
0000
0000
0010
0001
0000
1000
0000
0100
0000
1000
0100
0001
0100
1000
0000
,  // measure 51
0010
0000
0100
0000
0001
0000
0020
0001
0000
0000
0031
0000
1000
0000
1000
0000
,  // measure 52
0001
0100
0010
1000
0010
0100
0010
1000
,  // measure 53
0100
1000
0100
1000
0100
1000
0100
0001
0100
0001
0100
0001
0100
1000
0100
1000
,  // measure 54
0010
1010
1000
1001
0001
0101
0100
0110
,  // measure 55
0010
1010
1000
1001
0001
1001
1000
1001
;
