#VERSION:0.83;
#TITLE:男々道;
#SUBTITLE:;
#ARTIST:Des-ROW・組;
#TITLETRANSLIT:Dandandou;
#SUBTITLETRANSLIT:;
#ARTISTTRANSLIT:Des-ROW・UNITED;
#GENRE:;
#ORIGIN:;
#TAGS:;
#CREDIT:;
#BANNER:Dandandou.png;
#BACKGROUND:Dandandou-bg.png;
#PREVIEWVID:;
#JACKET:Dandandou-jacket.png;
#CDIMAGE:;
#DISCIMAGE:;
#LYRICSPATH:;
#CDTITLE:pop'n music.png;
#MUSIC:Dandandou.ogg;
#OFFSET:-0.130000;
#SAMPLESTART:11.742999;
#SAMPLELENGTH:15.000000;
#SELECTABLE:YES;
#DISPLAYBPM:156.000000:160.000000;
#BPMS:0.000000=160.000000
,200.000000=156.000000
,290.000000=160.000000
;
#STOPS:201.500000=0.770000
,203.500000=0.770000
,213.500000=0.385000
,216.500000=0.385000
,289.500000=0.385000
;
#DELAYS:;
#WARPS:;
#TIMESIGNATURES:0.000000=4=4
;
#TICKCOUNTS:0.000000=4
;
#COMBOS:0.000000=1
;
#SPEEDS:0.000000=1.000000=0.000000=0
;
#SCROLLS:0.000000=1.000000
;
#LABELS:0.000000=Song Start
;
#BGCHANGES:16.000=geometry1.mp4=1.000=1=0=1===CrossFade==,
24.000=bluey1.mp4=1.000=0=0=1=====,
32.000=blackhole1.mp4=1.000=0=0=1=====,
40.000=blizzard4.mp4=1.000=0=0=1=====,
48.000=blackhole1.mp4=1.000=0=1=1=StretchRewind====,
56.000=blizzard4.mp4=1.000=0=1=1=StretchRewind====,
64.000=fire2.mp4=1.600=0=0=1=====,
72.000=fire4.mp4=1.400=0=0=1=====,
80.000=cube7.mp4=1.000=0=0=1=====,
88.000=cube7r.mp4=1.000=0=0=1=====,
96.000=fire6.mp4=1.400=0=0=1=====,
104.000=blackhole1.mp4=0.001=0=0=1=====,
104.750=blizzard4.mp4=0.001=0=0=1=====,
105.500=bluey1.mp4=1.000=0=1=1=StretchRewind====,
108.000=bluey1.mp4=0.001=0=0=1=====,
108.750=cube7.mp4=0.001=0=0=1=====,
109.500=geometry1.mp4=0.001=0=0=1=====,
111.000=geometry1.mp4=1.000=0=0=1=====,
112.000=demon3.mp4=1.000=0=0=1=====,
120.000=circle4.mp4=1.000=0=0=1=====,
128.000=fire1.mp4=1.000=0=0=1=====,
136.000=face3.mp4=1.000=0=0=1=====,
144.000=piranha1.mp4=1.000=0=0=1=====,
152.000=circle4.mp4=1.000=0=1=1=StretchRewind====,
160.000=fire1.mp4=1.000=0=1=1=StretchRewind====,
168.000=face3.mp4=1.000=0=1=1=StretchRewind====,
176.000=piranha1.mp4=1.000=0=1=1=StretchRewind====,
184.000=fire1.mp4=1.000=0=1=1=StretchRewind====,
192.000=pills2.mp4=1.400=0=0=1=====,
200.000=spikes2.mp4=1.000=0=0=1=====,
201.500=spikes2.mp4=0.001=0=0=1=====,
202.000=spikes2.mp4=1.000=0=0=1=====,
203.500=spikes2.mp4=0.001=0=0=1=====,
204.000=pills2.mp4=1.400=0=1=1=StretchRewind====,
212.000=spikes1.mp4=1.000=0=0=1=====,
213.500=spikes1.mp4=0.001=0=0=1=====,
215.000=spikes1.mp4=1.000=0=0=1=====,
216.500=spikes1.mp4=0.001=0=0=1=====,
218.000=pills2.mp4=1.400=0=1=1=StretchRewind====,
226.000=spikes1.mp4=1.000=0=1=1=StretchRewind====,
234.000=spikes3.mp4=1.000=0=0=1=====,
242.000=spikes2.mp4=1.000=0=1=1=StretchRewind====,
250.000=demon3.mp4=1.000=0=1=1=StretchRewind====,
258.000=face3.mp4=1.000=0=1=1=StretchRewind====,
266.000=piranha1.mp4=1.000=0=1=1=StretchRewind====,
274.000=fire6.mp4=1.000=0=1=1=StretchRewind====,
282.000=fire6.mp4=2.000=0=0=1=====,
289.500=fire6.mp4=0.001=0=0=1=====,
290.000=bluey1.mp4=1.000=0=1=1=StretchRewind====,
302.000=bluey1.mp4=0.001=0=0=1=====,
302.750=fire6.mp4=0.001=0=0=1=====,
303.500=Dandandou-bg.png=1.000=0=0=1=====,
99999=-nosongbg-=1.000=0=0=0 // don't automatically add -songbackground-
;
#KEYSOUNDS:;
#ATTACKS:
;

//---------------dance-single - ----------------
#NOTEDATA:;
#CHARTNAME:;
#CHARTHASH:1768566304;
#STEPSTYPE:dance-single;
#BANNER:;
#DESCRIPTION:;
#CHARTSTYLE:;
#DIFFICULTY:Challenge;
#METER:16;
#METERF:16.000000;
#LASTSECONDHINT:117.502876;
#RADARVALUES:0.900836,1.013948,0.451015,0.183747,1.131713,755.000000,701.000000,54.000000,22.000000,0.000000,0.000000,0.000000,0.000000,0.000000,0.900836,1.013948,0.451015,0.183747,1.131713,755.000000,701.000000,54.000000,22.000000,0.000000,0.000000,0.000000,0.000000,0.000000;
#CREDIT:;
#DISPLAYBPM:156.000000:160.000000;
#NOTES:
// measure 0
0000
0000
0000
0000
,  // measure 1
0000
0000
0000
0000
,  // measure 2
0000
0000
0000
0000
,  // measure 3
0000
0000
0000
0000
,  // measure 4
2001
0000
0000
0010
0000
0000
0100
0000
0000
0001
0000
0000
3001
1000
0100
0000
,  // measure 5
1200
0000
0000
1000
0000
0000
0001
0000
0000
0010
0000
0000
1300
0100
0010
0000
,  // measure 6
0001
0010
0001
0010
0001
0000
0100
0001
0100
0001
0100
0000
0010
0000
1000
0000
,  // measure 7
0100
1000
0100
1000
0100
0000
1000
0001
1000
0001
1000
0000
0001
0010
0100
1000
,  // measure 8
0100
0000
0010
0000
0001
0000
0000
1000
0100
0000
1000
0000
0001
0000
0000
0000
,  // measure 9
0100
0010
0100
0010
0100
0000
0001
1000
0100
0000
0010
0000
0011
0000
0000
0000
,  // measure 10
0001
1000
0001
1000
0100
1000
0100
0000
1000
0001
1000
0001
0010
0001
0010
0000
,  // measure 11
0001
0000
1000
0100
0000
1000
0100
0000
0010
0000
0001
1000
0001
0000
0000
0000
,  // measure 12
0100
0010
0100
0010
1000
0010
0000
0100
0000
0001
0000
0001
0010
0000
0100
0000
,  // measure 13
1000
0000
0000
1000
0000
0000
0100
0000
0000
0010
0000
0000
0010
0000
0000
0000
0000
0000
0001
0000
1000
0000
0010
0000
,  // measure 14
0100
0000
0100
0000
0001
0000
0001
0000
1000
0100
0000
1000
0010
0000
0010
0000
,  // measure 15
0100
0001
0000
0100
0010
0000
1000
0010
0000
0100
0001
0000
0001
1000
0100
0010
,  // measure 16
0021
0000
0000
0001
0000
0000
1000
0000
0000
0001
0000
0031
0010
0000
0100
0000
,  // measure 17
1200
0000
0000
1000
0000
0000
0001
0000
0000
1000
0000
1300
0100
0000
0010
0000
,  // measure 18
0001
1000
0000
0001
1000
0000
0001
1000
0000
0001
1000
0100
1000
0100
1000
0010
,  // measure 19
0100
0010
0000
0100
0010
0000
0100
0010
0000
0100
0010
0100
0001
0100
0010
1000
,  // measure 20
0010
0000
1000
0000
0100
0000
0100
0000
1000
0000
0010
0000
0100
0001
0100
0000
,  // measure 21
0010
0000
1000
0100
1000
0000
0001
0000
0001
0000
0100
0010
1000
0000
0000
0000
,  // measure 22
0001
0000
0010
0000
0010
0000
0100
0000
1000
0100
0010
0000
0100
0000
1000
0000
,  // measure 23
0001
0000
1000
0001
0010
0001
0000
0000
1000
0100
0000
1000
0001
0010
0100
1000
,  // measure 24
0001
1000
0100
1000
0100
1000
0000
0010
0000
0100
0000
0001
0100
0000
0001
0000
,  // measure 25
0010
0001
0010
0001
1000
0100
1000
0100
0010
0001
1000
0010
0000
0100
0001
0010
,  // measure 26
0110
0000
0000
0110
0000
0000
0110
0000
0000
1000
0100
0010
0001
0010
0100
0000
,  // measure 27
1100
0000
0000
1100
0000
0000
1001
0000
0000
0000
0000
0000
0100
0000
0000
0000
,  // measure 28
0010
1000
0000
0010
1000
0000
0001
0100
0000
0001
0100
0000
0010
0100
0010
0000
,  // measure 29
1000
0100
0000
1000
0100
0000
0010
0001
0000
0010
0001
0010
0100
1000
0001
1000
,  // measure 30
0001
0100
0010
1000
0000
1000
0100
0010
0001
0010
0000
0100
,  // measure 31
1000
1000
0001
0100
0001
1000
0010
0010
0100
0001
0000
0000
,  // measure 32
1000
1000
0010
0001
0001
0010
1000
1000
0010
0001
0001
0010
,  // measure 33
1010
0000
0000
1001
0000
0000
0101
0000
0000
1000
0010
1000
,  // measure 34
1100
0000
1001
0000
0001
0010
0011
0000
1001
0000
0100
0010
,  // measure 35
0110
0000
0010
0000
1000
0001
0000
1000
0001
0000
0010
0000
1001
0000
0000
0000
,  // measure 36
1100
0000
0001
0100
0000
1000
0100
0000
0010
0100
0000
1000
,  // measure 37
0100
0000
0000
0000
0010
0000
0000
0000
0001
0000
0000
0000
0010
0000
0000
0000
0000
0000
0100
0000
0000
0000
0000
0000
1000
0000
0000
0000
0000
0000
0000
0000
0000
0000
0000
0000
0001
0000
0000
0100
0000
0000
0001
0000
0000
0100
0000
0000
,  // measure 38
0001
0001
1000
0001
0001
1000
0010
0010
1000
0010
0000
1000
,  // measure 39
0100
0100
1000
0001
0001
1000
0100
0000
0010
0001
0010
0100
,  // measure 40
1000
1000
0001
1000
1000
0010
0100
0100
0010
0100
0100
0001
,  // measure 41
0010
0000
0000
0000
0100
0000
0000
0000
1000
0000
0000
0000
0001
0000
0000
0000
0000
0000
1000
0000
0000
0000
0000
0000
0100
0000
0000
0000
0000
0000
0000
0000
0000
1000
0000
0000
0001
0000
0000
1000
0000
0000
0001
0000
0000
1000
0000
0000
,  // measure 42
0001
0000
0000
0001
0000
0000
0100
0000
0000
0010
0000
0000
1000
0000
0000
1000
0000
0000
0010
0000
0000
0000
0010
0000
,  // measure 43
0100
0000
0001
0000
0100
0000
0010
0000
0000
1000
0000
0000
0001
0000
0000
0000
0000
0000
0110
0000
0000
0000
0000
0000
,  // measure 44
1001
0000
1000
0100
0000
0010
0001
0000
0010
0100
0000
0100
,  // measure 45
1000
0000
0000
0000
1000
0000
0000
0000
0010
0000
0000
0000
0100
0000
0000
0000
0000
0000
0001
0000
0000
0000
0000
0000
1001
0000
0000
0000
0000
0000
0000
0000
0000
0001
0000
0000
0100
0000
0000
0001
0000
0000
0100
0000
0000
0001
0000
0000
,  // measure 46
0200
0000
0000
0001
0000
0000
1000
0000
0000
0301
0000
0001
0010
0100
1000
0000
,  // measure 47
0200
0000
0000
1000
0000
0000
0001
0000
0000
1300
0000
1000
0010
0000
0100
0000
,  // measure 48
0001
0010
0000
0001
1000
0000
0001
0010
0000
0001
1000
0000
0100
0000
1000
0000
,  // measure 49
0010
1000
0000
0010
0100
0000
0001
0100
0000
0001
1000
0100
0010
0001
0010
0001
,  // measure 50
0202
0000
0303
0101
2200
0000
3300
1001
,  // measure 51
0110
0000
1000
0010
1000
0000
0010
1000
0010
0000
1000
0010
1000
0000
0010
0100
,  // measure 52
0001
0000
0010
0001
0010
0000
0001
0010
0001
0000
0001
0000
1000
0000
0010
0000
,  // measure 53
0220
0000
0000
0000
0330
0000
0101
0000
0001
0010
0100
1000
2200
0000
0000
0000
,  // measure 54
3300
0000
1001
0000
1000
0100
0010
0001
0011
0000
0100
0001
0100
0000
0001
0000
,  // measure 55
0010
0000
0100
1000
0100
0001
0100
0000
1000
0000
0010
0100
0010
0000
1000
0000
,  // measure 56
0001
0001
0100
0010
1020
0000
1030
0201
,  // measure 57
0000
0000
0310
0000
0010
1000
0100
0010
0012
0000
0000
0000
1003
0000
2001
0000
,  // measure 58
0000
0000
3100
0000
1000
0010
0100
0001
0100
0000
0001
0010
0001
0000
1100
0000
,  // measure 59
0100
0000
1000
0010
1000
0000
0110
0000
0010
0000
0100
0001
0100
0010
1000
0000
,  // measure 60
0001
0001
0100
0010
1010
1000
0100
0012
,  // measure 61
0000
1003
0001
0010
0011
0001
0010
1200
,  // measure 62
0000
0000
1300
0001
0200
0000
0000
0000
0310
0000
1000
0000
1000
0000
0010
0000
,  // measure 63
0100
0000
0001
0100
0010
0000
0010
0000
0100
0000
0001
0000
0001
0000
1000
0000
,  // measure 64
0010
0000
0010
0000
1001
0000
0000
0000
0010
0000
0001
0000
0101
0000
0001
1000
,  // measure 65
0100
0000
1000
0000
1010
0000
0010
0100
0001
0000
0010
0000
0011
0000
0001
0100
,  // measure 66
1000
0000
0100
0000
0102
0000
0000
0000
1003
0000
1000
0000
0010
0000
1000
0010
,  // measure 67
0001
0000
0001
0000
0010
0000
1000
0100
0001
0000
0001
0000
0100
0000
1000
0100
,  // measure 68
0010
0000
0010
0000
1001
0000
0000
0000
0001
0100
0001
0000
0100
0001
0100
0000
,  // measure 69
0001
1000
0001
0000
1000
0001
1000
0000
0010
1000
0100
0000
0010
0001
0100
0000
,  // measure 70
1000
0100
0001
0000
0001
0100
1000
0000
0100
0001
0100
0001
1000
0010
1000
0010
,  // measure 71
0100
0010
0100
0010
1000
0001
1000
0001
0010
0100
0010
0100
1000
0100
1000
0001
,  // measure 72
1000
0001
0010
0100
1000
0000
1001
0000
1000
0001
0000
1000
0001
0000
1000
0001
,  // measure 73
0000
0010
0000
0001
0100
0000
0010
0000
1000
0100
0000
1000
0100
0000
1000
0100
,  // measure 74
0000
1000
0000
0001
0100
0000
0001
0000
0010
0001
0000
0010
0001
0000
1000
0100
,  // measure 75
0000
1000
0100
0010
0001
0010
0100
1000
1001
0000
0000
0110
0000
0000
1001
0000
;

//---------------dance-single - ----------------
#NOTEDATA:;
#CHARTNAME:;
#CHARTHASH:3787208774;
#STEPSTYPE:dance-single;
#BANNER:;
#DESCRIPTION:;
#CHARTSTYLE:;
#DIFFICULTY:Easy;
#METER:6;
#METERF:6.000000;
#LASTSECONDHINT:117.502876;
#RADARVALUES:0.000000,0.000000,0.000000,0.000000,0.000000,0.000000,0.000000,0.000000,0.000000,0.000000,0.000000,0.000000,0.000000,0.000000,0.000000,0.000000,0.000000,0.000000,0.000000,0.000000,0.000000,0.000000,0.000000,0.000000,0.000000,0.000000,0.000000,0.000000;
#CREDIT:;
#DISPLAYBPM:156.000000:160.000000;
#NOTES:
0000
0000
0000
0000
,
0000
0000
0000
0000
,
0000
0000
0000
0000
,
0000
0000
0000
0000
,
2000
0000
0000
3000
,
0002
0000
0000
0003
,
0200
0000
0000
0300
,
0020
0000
0000
0030
,
1000
0001
1000
1100
,
0001
1000
0001
0011
,
0100
0000
0100
0000
,
0010
0010
0010
1001
,
0100
0000
0100
0001
,
1000
0000
1000
0000
,
0010
1000
0100
0010
,
0001
0010
0100
1000
,
2200
0000
0000
3300
,
0022
0000
0000
0033
,
0220
0000
0000
0330
,
2002
0000
0000
3003
,
1000
1000
0010
0010
,
0100
0100
0001
0000
,
0001
0001
0010
0010
,
0100
0100
1000
0000
,
0010
0000
0010
0000
,
1000
0000
1000
0000
,
0002
0000
0003
0000
,
2000
0000
3000
0010
,
1000
0100
0001
0100
,
1000
0010
0001
0010
,
1001
0001
0100
0001
,
1000
0010
1000
1001
,
0010
0000
0010
0000
,
0001
0001
1000
1000
,
0010
0000
0010
0000
,
1000
0000
1000
0100
,
0010
0000
0010
0000
,
0001
0010
0100
1000
,
1001
0010
0100
0010
,
1001
0100
0010
0100
,
0011
0001
1000
0001
,
1100
1000
0001
1000
,
0010
0010
0100
0100
,
0001
0010
0100
1000
,
0100
0100
0010
0010
,
0001
0001
1000
1000
,
0202
0000
0000
0303
,
2020
0000
0000
3030
,
0220
0000
0000
0330
,
2002
0000
0000
3003
,
1001
0000
0000
1001
0110
0000
0000
0110
,
0010
1000
0010
0100
,
0001
0000
0100
0000
0010
0100
0010
0000
,
1001
0000
0000
2002
3003
0000
0110
0000
,
0000
0220
0330
0000
1000
0000
0001
0000
,
0010
1000
0010
0001
,
1000
0001
1000
0000
0021
0000
0031
0100
,
0000
0000
0000
0000
1200
0000
1300
0001
,
0000
0000
0001
0010
,
0100
1000
0100
0010
,
0001
0010
0001
0000
2001
0000
3001
0100
,
0000
0000
0100
0000
0120
0000
1030
0001
,
0000
0200
0301
0010
,
0100
1000
0100
0010
,
0001
1000
0001
0000
0100
0000
0110
0000
,
0010
0110
0100
0110
,
1000
0001
1000
0000
0001
0000
1001
0000
,
1000
1001
0001
1001
,
1000
0001
1000
0000
0001
0000
0001
0000
,
0010
0010
0100
0100
,
1000
1000
0100
0001
,
0100
1000
0100
0010
,
0100
0000
1000
0001
2200
0000
0000
0000
,
0000
3300
0022
0000
,
0000
0033
0220
0000
,
0000
0000
0000
0000
0330
0000
0000
0000
1000
0000
0000
1000
0000
0000
1001
0000
;

//---------------dance-single - ----------------
#NOTEDATA:;
#CHARTNAME:;
#CHARTHASH:2254432069;
#STEPSTYPE:dance-single;
#BANNER:;
#DESCRIPTION:;
#CHARTSTYLE:;
#DIFFICULTY:Medium;
#METER:10;
#METERF:10.000000;
#LASTSECONDHINT:117.502876;
#RADARVALUES:0.000000,0.000000,0.000000,0.000000,0.000000,0.000000,0.000000,0.000000,0.000000,0.000000,0.000000,0.000000,0.000000,0.000000,0.000000,0.000000,0.000000,0.000000,0.000000,0.000000,0.000000,0.000000,0.000000,0.000000,0.000000,0.000000,0.000000,0.000000;
#CREDIT:;
#DISPLAYBPM:156.000000:160.000000;
#NOTES:
0000
0000
0000
0000
,
0000
0000
0000
0000
,
0000
0000
0000
0000
,
0000
0000
0000
0000
,
1000
0000
0000
0001
0000
0000
1000
0000
0000
0001
0000
0000
1001
0000
0000
0000
,
0100
0000
0000
0010
0000
0000
0100
0000
0000
0010
0000
0000
0110
0000
0000
0000
,
1000
0010
0010
1000
0100
1000
0001
0000
,
0001
0100
0100
0001
0010
0001
2000
0000
,
3001
0000
0100
0000
0010
1000
0001
0000
,
0100
0000
0010
0000
1000
1000
1000
0000
,
0001
0100
1000
0000
1000
0100
0001
0000
,
0100
0000
0100
0000
0001
1000
1010
0000
,
1000
0100
0010
0001
0010
0100
0010
0000
,
0001
1000
0100
0010
0100
0000
1000
0000
,
0001
0100
0001
0000
0100
0001
0100
0000
,
0010
0100
0010
0000
1000
1000
1000
0000
,
0022
0000
0000
0033
,
2200
0000
0000
3300
,
0220
0000
0000
0330
,
2002
0000
0000
3003
,
1000
0000
0001
0000
1000
0100
0001
0000
,
0100
0000
1000
0000
0001
0010
1000
0000
,
0010
0001
0100
0010
,
0110
0000
1001
0000
0010
0010
0010
0000
,
1000
0100
0010
0100
1000
0001
0100
0000
,
0001
0010
1000
0010
0001
0100
0010
0000
,
1000
0000
0000
1000
0000
0000
1100
0000
0000
0000
0000
0000
0000
0000
0000
0000
,
0001
0000
0000
0001
0000
0000
0101
0000
0000
0000
0000
0000
0100
0000
0000
0000
,
0010
0000
0000
1000
0000
0000
0010
0000
0000
0100
0000
0000
0001
0000
0010
0000
,
0100
0000
0000
1000
0000
0000
0100
0000
0000
0010
0000
0000
0002
0000
0000
0000
,
1003
0000
0000
0001
0000
0001
0000
0000
0000
1000
0000
0000
,
0010
0000
0000
0100
0000
0100
0000
0000
0000
0010
0000
0000
,
1000
0000
0000
0001
0000
0001
0000
0000
0010
0100
0000
0000
,
1000
0000
0000
0100
0000
0100
0000
0000
0010
0001
0000
0000
,
1000
0001
1000
0010
,
0100
0000
0001
0000
0010
0100
1000
0000
,
0100
0010
0001
1000
,
1010
0000
1001
0000
0010
0100
0020
0000
,
1030
0000
0000
0010
0000
0010
0000
0000
0000
0100
0000
0000
,
0001
0000
0000
0010
0000
0010
0000
0000
0000
0001
0000
0000
,
0010
0000
0000
0100
0000
0100
0000
0000
0000
1000
0000
0000
,
0100
0000
0000
0000
0000
0000
0010
0000
0000
0000
0010
0000
0000
0000
0000
0000
0000
0000
0001
0000
0000
1000
0000
0000
,
0100
1000
0010
0100
,
0001
0000
0000
1000
0000
1000
0000
0000
0001
0010
0000
0000
,
0100
0000
0000
1000
0000
1000
0000
0000
0100
0010
0000
0000
,
0001
0000
1000
0000
0001
0100
0001
0000
,
2002
0000
0000
3003
,
0220
0000
0000
0330
,
2020
0000
0000
3030
,
0202
0000
0000
0303
,
1001
0000
0000
1001
0110
0000
0000
0110
,
0010
1000
0010
1000
0100
0000
0010
0001
,
0010
0001
1000
0000
0001
0001
0001
0000
,
0110
0000
0000
0110
0100
0000
1001
0000
,
0000
1001
0010
0000
0100
0001
0100
0000
,
0010
1000
0010
0000
1000
0100
0010
0000
,
0100
0100
0100
0000
1100
0000
0001
0101
,
0000
0010
0100
0000
1001
0000
1000
1100
,
0000
0010
0001
0000
1000
0001
1000
0000
,
0001
0100
0001
0000
1000
0010
0100
0000
,
0010
0010
0010
0000
1000
0100
0010
0001
,
0000
0010
0100
0000
1000
0001
0010
0100
,
0000
1000
0002
0000
1003
0000
0001
0000
,
0010
0001
1000
0010
,
0100
0100
0100
0000
0001
0100
1000
0000
,
1000
0100
0001
0000
0001
0010
1000
0000
,
1000
0010
0001
0000
0010
0010
0010
0000
,
0001
0100
0101
0000
1000
1000
1000
0000
,
0010
1000
1100
0000
1000
0000
0001
0000
,
0010
0100
1000
0010
,
1000
0000
0001
0000
0100
0001
0100
0001
,
1000
0010
1000
0010
0100
0001
0010
0100
,
1000
0001
1000
1001
0022
0000
0000
0000
,
0000
0033
2200
0000
,
0000
3300
0220
0000
,
0000
0000
0000
0000
0330
0000
0000
0000
1001
0000
0000
1001
0000
0000
1001
0000
;

//---------------dance-single - ----------------
#NOTEDATA:;
#CHARTNAME:;
#CHARTHASH:3100143688;
#STEPSTYPE:dance-single;
#BANNER:;
#DESCRIPTION:;
#CHARTSTYLE:;
#DIFFICULTY:Hard;
#METER:13;
#METERF:13.000000;
#LASTSECONDHINT:117.502876;
#RADARVALUES:0.000000,0.000000,0.000000,0.000000,0.000000,0.000000,0.000000,0.000000,0.000000,0.000000,0.000000,0.000000,0.000000,0.000000,0.000000,0.000000,0.000000,0.000000,0.000000,0.000000,0.000000,0.000000,0.000000,0.000000,0.000000,0.000000,0.000000,0.000000;
#CREDIT:;
#DISPLAYBPM:156.000000:160.000000;
#NOTES:
0000
0000
0000
0000
,
0000
0000
0000
0000
,
0000
0000
0000
0000
,
0000
0000
0000
0000
,
1100
0000
0000
1010
0000
0000
1001
0000
0000
0011
0000
0000
2100
0000
0000
0000
,
3001
0000
0000
0011
0000
0000
1001
0000
0000
0110
0000
0000
0201
0000
0000
0000
,
0310
1000
1000
0100
0010
0010
0002
0000
,
1003
0001
0001
0010
0100
0100
0020
0000
,
0031
0000
0000
0000
1000
0000
0000
0001
0100
0000
0010
0000
1000
0000
0000
0000
,
0100
1000
0100
0010
0001
1000
1000
0000
,
0010
1000
1000
0000
0100
0010
0010
0000
,
0001
0000
1000
0100
0000
0000
0010
0000
0001
0000
0001
0000
0001
0000
0000
0000
,
1000
0001
0000
1000
0001
0000
0010
0000
0100
0000
0100
0000
0100
0000
0000
0000
,
1000
0000
0000
0100
0000
0000
0010
0000
0000
0001
0000
0000
1001
0000
0000
0000
0000
0000
0100
0000
0001
0000
0010
0000
,
0001
0000
0001
0000
1000
0000
1000
0000
0010
0100
0000
0010
0100
0000
0001
0000
,
0100
0010
0000
0100
0010
0000
1000
0001
0000
0000
0010
0000
0100
0000
1000
0000
,
0001
0000
0000
1001
0000
0000
0001
0000
0000
0101
0000
0000
0001
0000
0010
0000
,
1100
0000
0000
1000
0000
0000
1001
0000
0000
1000
0000
0000
1000
0000
0010
0000
,
0100
0010
0000
0100
0010
0000
0100
0010
0000
0100
0010
0000
0100
0000
0001
0000
,
1000
0001
0000
1000
0001
0000
1000
0001
0000
1000
0001
0000
1000
0001
1000
0001
,
1000
0001
0001
1000
0010
0010
1000
0100
,
0010
0010
0001
0100
0100
0001
1001
0000
,
0001
0010
1000
0010
0001
0100
0010
0100
,
0001
1000
0100
0001
0100
1000
1001
0000
,
0100
0010
0000
0000
0100
0001
0000
0010
0000
0001
0000
0001
1000
0000
0010
0000
,
1000
0100
1000
0000
0010
0000
0100
0000
0001
1000
0001
0100
0000
0000
0000
0000
,
1100
0000
0000
1100
0000
0000
1100
0000
0000
0000
1000
0000
0001
0000
0010
0000
,
0011
0000
0000
0011
0000
0000
0011
0000
0000
0000
0000
0000
1000
0000
0000
0000
,
0001
0000
0000
0010
0000
0000
0001
0000
0000
0100
0000
0001
1000
0000
0010
0000
,
1000
0000
0000
0100
0000
0000
1000
0000
0000
0010
0000
0100
0001
0000
0010
0000
,
0001
0000
0001
1000
0000
0001
0100
0000
0001
0010
0000
0001
,
1000
0000
1000
0100
0000
0010
0001
0010
0001
0010
0000
0000
,
0001
0000
1000
0100
0000
1000
0010
0000
0100
0010
0000
0100
,
0001
0000
0000
1001
0000
0000
0110
0000
0000
0010
0000
0010
,
1000
0000
1000
0100
0000
0100
0010
0000
0010
0001
0000
0001
,
1000
0000
0010
0100
0001
0001
0001
0000
,
1000
0000
1000
0001
0000
0001
0010
0000
0010
0100
0000
0100
,
1000
0000
0000
0000
0100
0000
0000
0000
1000
0000
0000
0000
0001
0000
0000
0000
0000
0000
0100
0000
0000
0000
0000
0000
0010
0000
0000
0000
0000
0000
0000
0000
0000
0000
0000
0000
1000
0000
0000
0001
0000
0000
1000
0000
0000
0001
0000
0000
,
1000
0000
0001
0100
0000
0001
1000
0000
0001
0010
0000
0001
,
1000
0000
1000
0100
0000
1000
0010
0000
1000
0100
0000
1000
,
0001
0000
0001
0010
0000
0010
0100
0000
0100
0010
0000
0010
,
0001
0000
0001
1000
0000
1000
0001
0000
0001
0100
0000
0100
,
0010
0000
0000
1000
0000
0000
0010
0000
0000
1000
0000
0000
0100
0000
0000
0010
0000
0000
0001
0000
0000
0000
0001
0000
,
0100
0000
0100
0010
0000
0010
1000
0000
1000
0100
0000
0000
,
0011
0000
0001
1000
0000
0001
0010
0000
0010
0100
0000
0100
,
1000
0000
0000
0000
0100
0000
0000
0000
1000
0000
0000
0000
0001
0000
0000
0000
0000
0000
1000
0000
0000
0000
0000
0000
0100
0000
0000
0000
0000
0000
0000
0000
0000
0000
0000
0000
0010
0000
0000
0001
0000
0000
0010
0000
0000
0001
0000
0000
,
0020
0000
0000
0001
0000
0000
0100
0000
0000
0001
0000
0000
0031
0000
0010
0000
,
2100
0000
0000
0001
0000
0000
0100
0000
0000
0001
0000
0000
3100
0000
1000
0000
,
0001
0000
0000
1000
0000
0000
0010
0000
0000
0100
0000
0001
0100
0000
0010
0000
,
1000
0001
0000
1000
0001
0000
1000
0001
0000
1000
0001
1000
0001
1000
0001
1000
,
0002
0000
0000
1003
2100
0000
0000
3001
,
0001
1000
0100
0001
0100
1000
0100
0010
,
0100
1000
0010
0001
0010
0010
0010
1000
,
1020
0000
0000
0000
0000
0000
0130
0000
0100
0001
0100
0001
0200
0000
0000
0000
,
0000
0000
0310
0000
0010
1000
0010
1000
0010
0000
0001
0000
0010
0000
1000
0000
,
0010
0100
0001
0100
1000
0100
0010
0001
,
0010
0010
0010
0100
0102
0000
1003
1200
,
0000
1300
0001
0000
0210
0000
0301
2001
,
0000
3001
0010
0100
1000
1000
0001
1000
,
0001
0001
1000
0010
0100
0100
0010
0100
,
0010
0010
0010
0000
0101
1000
0100
0012
,
0000
1003
0001
0001
0110
1000
0100
2001
,
0000
3001
0200
0000
0310
1000
0100
0001
,
0100
1000
0010
0100
0010
1000
0001
0010
,
0100
0000
0100
0000
0100
0000
0000
0000
1000
0000
1000
0000
0001
0000
1000
0100
,
1000
0000
0001
0000
0001
0000
1000
0010
1000
0000
0100
0000
0100
0000
1000
0001
,
1000
0000
0010
0000
0110
0000
0000
0000
0001
0000
0001
0000
0100
0000
0001
0010
,
0001
0000
1000
0000
1000
0000
0010
0100
0010
0000
0100
0000
0100
0000
0001
1000
,
0001
0100
0110
0000
0010
1000
0100
0010
,
0001
0010
0100
1000
0100
1000
0001
0010
,
0001
0001
1001
0000
1000
1000
0100
0100
,
0010
0010
0001
0001
0010
0010
0100
1000
,
0100
0000
0001
0000
0100
0000
1001
0000
0001
0000
0000
0010
0000
0000
0001
0000
,
0000
1000
0000
1000
0100
0000
0010
0000
0001
0000
0000
0100
0000
0000
0010
0000
,
0000
0100
0000
0001
1000
0000
0010
0000
1000
0100
0000
1000
0100
0000
0010
0001
,
0000
0010
0001
0000
1000
0000
0010
0000
0110
0000
0000
0110
0000
0000
1001
0000
;

//---------------dance-single - ----------------
#NOTEDATA:;
#CHARTNAME:;
#CHARTHASH:3759353834;
#STEPSTYPE:dance-single;
#BANNER:;
#DESCRIPTION:;
#CHARTSTYLE:;
#DIFFICULTY:Beginner;
#METER:4;
#METERF:4.000000;
#LASTSECONDHINT:117.502876;
#RADARVALUES:0.000000,0.000000,0.000000,0.000000,0.000000,0.000000,0.000000,0.000000,0.000000,0.000000,0.000000,0.000000,0.000000,0.000000,0.000000,0.000000,0.000000,0.000000,0.000000,0.000000,0.000000,0.000000,0.000000,0.000000,0.000000,0.000000,0.000000,0.000000;
#CREDIT:;
#DISPLAYBPM:156.000000:160.000000;
#NOTES:
0000
0000
0000
0000
,
0000
0000
0000
0000
,
0000
0000
0000
0000
,
0000
0000
0000
0000
,
1000
0000
0000
0000
,
1000
0000
0000
0000
,
0001
0000
0000
0000
,
0001
0000
0000
0000
,
1000
1000
1000
0000
,
0001
0000
0001
0000
,
1000
0000
1000
0000
,
0001
0000
0000
0000
,
0001
0001
0001
0000
,
1000
0000
0000
0000
,
1000
0000
1000
0000
,
0001
0000
0001
0000
,
1001
0000
0000
0000
,
1001
0000
0000
0000
,
0110
0000
0000
0000
,
0110
0000
0000
0000
,
0010
0000
0010
0000
,
0100
0100
0100
0000
,
0010
0000
0010
0000
,
0100
0100
0100
0000
,
0100
0000
0000
0000
,
0010
0000
0000
0000
,
1001
0000
0000
0000
,
1001
0000
0000
0000
,
0100
0000
0000
0000
,
0100
0000
0000
0000
,
0010
0000
0000
0000
,
0010
0000
0000
0000
,
1000
0000
0000
0000
,
1000
0000
0000
0000
,
0001
0001
0001
0000
,
0001
0001
0001
0000
,
1000
1000
1000
0000
,
1000
1000
1000
0000
,
0010
0000
0000
0000
,
0010
0000
0000
0000
,
0100
0000
0000
0000
,
0100
0000
0000
0000
,
0001
0000
0000
0000
,
0001
0000
0000
0000
,
1000
0000
0000
0000
,
1000
0000
0000
0000
,
1001
0000
0000
0000
,
1001
0000
0000
0000
,
0110
0000
0000
0000
,
0110
0000
0000
0000
,
0200
0000
0000
0300
0020
0000
0000
0030
,
1000
0000
1000
0000
,
0001
0000
0001
0000
,
2000
0000
0000
3000
0000
0000
0002
0000
,
0000
0003
0000
0000
1000
0000
0000
0000
,
1000
0000
0001
0000
,
0001
0000
0100
0100
,
0100
0000
0100
0100
,
0100
0000
0001
0000
,
0001
0000
1000
0000
,
1000
0000
0010
0010
,
0010
0000
0010
0010
,
0010
0000
1000
0000
,
1000
0000
0001
0000
,
0001
0000
0010
0000
,
0010
0000
0100
0000
,
0100
0000
1000
0000
,
1000
0000
0001
0000
,
0001
0000
1000
0000
,
0000
0000
1000
0000
,
0000
0000
0001
0000
,
0000
0000
0002
0000
,
0000
0000
0000
0003
1001
0000
0000
0000
,
0000
0000
1001
0000
,
0000
0000
0110
0000
,
0000
0000
0000
0000
0000
0000
0000
1001
;

//---------------dance-double - ----------------
#NOTEDATA:;
#CHARTNAME:;
#CHARTHASH:1692326613;
#STEPSTYPE:dance-double;
#BANNER:;
#DESCRIPTION:;
#CHARTSTYLE:;
#DIFFICULTY:Easy;
#METER:6;
#METERF:6.000000;
#LASTSECONDHINT:117.502876;
#RADARVALUES:0.000000,0.000000,0.000000,0.000000,0.000000,0.000000,0.000000,0.000000,0.000000,0.000000,0.000000,0.000000,0.000000,0.000000,0.000000,0.000000,0.000000,0.000000,0.000000,0.000000,0.000000,0.000000,0.000000,0.000000,0.000000,0.000000,0.000000,0.000000;
#CREDIT:;
#DISPLAYBPM:156.000000:160.000000;
#NOTES:
00000000
00000000
00000000
00000000
,
00000000
00000000
00000000
00000000
,
00000000
00000000
00000000
00000000
,
00000000
00000000
00000000
00000000
,
20000000
00000000
00000000
30000000
,
00020000
00000000
00000000
00030000
,
02000000
00000000
00000000
03000000
,
00002000
00000000
00000000
00003000
,
00010000
00001000
00010000
00011000
,
00000010
00000100
00000010
00000110
,
00001000
00000000
00001000
00000000
,
00000001
00000001
00000001
00001001
,
00000100
00000010
00001000
00000000
,
00000100
00010000
00001000
00000000
,
01000000
01000000
00010000
00010000
,
10000000
01000000
00100000
00010000
,
00022000
00000000
00000000
00033000
,
00020020
00000000
00000000
00030030
,
00022000
00000000
00000000
00033000
,
02002000
00000000
00000000
03003000
,
00100000
00010000
01000000
00010000
,
00100000
10000000
00100000
00001000
,
00010000
00001000
00010000
00000010
,
00000100
00000010
00010000
00000100
,
00000001
00000100
00010000
00000010
,
00000100
00000010
00001000
00000001
,
00002002
00000000
00003003
00000000
,
00000220
00000000
00000330
00000000
,
00020000
00000000
00000000
00030000
,
00002000
00000000
00000000
00003000
,
00100000
00100000
00100000
00100000
,
00100000
00000000
00010000
00000000
,
10000000
10000000
10000000
10000000
,
10000000
00010000
00100000
01000000
,
00100000
00001000
00000000
00001000
,
00010000
00000010
00000000
00000100
,
00000001
00001000
00000000
00000100
,
00000010
00000100
00001000
00000100
,
00010000
00001000
00010000
00001000
,
00100000
00000000
00010000
00000000
,
10000000
01000000
10000000
01000000
,
00010000
00000000
01000000
00000000
,
00100000
00001000
00010000
00000100
,
00010000
00001000
00010000
00000010
,
00000100
00000000
00000001
00000000
,
00001000
00000000
00000100
00000000
,
00022000
00000000
00000000
00033000
,
02002000
00000000
00000000
03003000
,
00022000
00000000
00000000
00033000
,
00020020
00000000
00000000
00030030
,
00000210
00000000
00000000
00000310
00001002
00000000
00000000
00001003
,
00000100
00010000
00001000
00010000
,
00001000
00000000
01000000
00000000
00100000
01000000
00100000
00000000
,
20010000
00000000
00000000
30010000
00000000
00000000
01200000
00000000
,
00000000
01300000
00000000
00000000
01000000
00000000
00010000
00000000
,
00100000
00001000
00100000
00001000
,
00010000
00001000
00010000
00000000
00000200
00000000
00001300
00000001
,
00000000
00000000
00000001
00000000
00000020
00000000
00000130
00001000
,
00000000
00000100
00010000
00010000
,
00001000
00001000
00100000
00100000
,
00010000
10000000
00010000
00000000
20000000
00000000
30010000
00100000
,
00000000
00000000
00001000
00000000
00020000
00000000
00030100
00001000
,
00000000
00000100
00000010
00000001
,
00000010
00000100
00000001
00001000
,
00000100
00001000
00000100
00000000
00010000
00000000
00011000
00000000
,
00001000
00101000
00100000
00110000
,
00010000
10000000
00010000
00000000
10000000
00000000
10100000
00000000
,
00100000
01100000
01000000
01001000
,
00001000
00010000
00001000
00000000
00010000
00000000
00010000
00000000
,
00000010
00000010
00000100
00000100
,
00000001
00000001
00001000
00000100
,
00010000
00000100
00001000
00000100
,
00010000
00000000
00001000
00010000
22000000
00000000
00000000
00000000
,
00000000
33000000
00220000
00000000
,
00000000
00330000
00022000
00000000
,
00000000
00000000
00000000
00000000
00033000
00000000
00000000
00000000
00010000
00000000
00000000
00010000
00000000
00000000
00011000
00000000
;

//---------------dance-double - ----------------
#NOTEDATA:;
#CHARTNAME:;
#CHARTHASH:1156539349;
#STEPSTYPE:dance-double;
#BANNER:;
#DESCRIPTION:;
#CHARTSTYLE:;
#DIFFICULTY:Medium;
#METER:10;
#METERF:10.000000;
#LASTSECONDHINT:117.502876;
#RADARVALUES:0.000000,0.000000,0.000000,0.000000,0.000000,0.000000,0.000000,0.000000,0.000000,0.000000,0.000000,0.000000,0.000000,0.000000,0.000000,0.000000,0.000000,0.000000,0.000000,0.000000,0.000000,0.000000,0.000000,0.000000,0.000000,0.000000,0.000000,0.000000;
#CREDIT:;
#DISPLAYBPM:156.000000:160.000000;
#NOTES:
00000000
00000000
00000000
00000000
,
00000000
00000000
00000000
00000000
,
00000000
00000000
00000000
00000000
,
00000000
00000000
00000000
00000000
,
10000000
00000000
00000000
00100000
00000000
00000000
01000000
00000000
00000000
00100000
00000000
00000000
10000000
00000000
00000000
00000000
,
00010000
00000000
00000000
00100000
00000000
00000000
00001000
00000000
00000000
00100000
00000000
00000000
00010000
00000000
00000000
00000000
,
00100000
00001000
00010000
00000000
00000100
00010000
00001000
00000000
,
00010000
00000010
00000100
00000000
00000001
00001000
00000100
00000000
,
00001010
00000000
00000100
00000000
00000001
00000100
00001000
00000000
,
00000100
00000010
00000100
00010010
,
00001000
00000000
00000000
00010000
00001000
00000000
00000000
00001000
,
01000000
01000000
00100000
10010000
,
10000000
01000000
00100000
00010000
00100000
00000000
00001000
00000000
,
00010000
00000100
00000010
00000100
00010000
00000000
00001000
00000000
,
00010000
00010000
00001000
00001000
,
01000000
00000000
01000000
00000000
00100000
00000000
00100000
01000000
,
00010000
00000000
00000000
00010000
00000000
00000000
00010000
00000000
00000000
00010000
00000000
00000000
00010000
00000000
00100000
00000000
,
00001000
00000000
00000000
00001000
00000000
00000000
00001000
00000000
00000000
00001000
00000000
00000000
00011000
00000000
00000000
00000000
,
00010000
00000010
00000100
00000010
00001000
00000001
00001000
00000000
,
00000100
00010000
00001000
00010000
00000100
00010000
00001000
00000000
,
00100000
00010000
10000000
01000000
,
00100000
00010000
10000000
00000000
01000000
01000000
01000000
00000000
,
10000000
00010000
00100000
00001000
,
00110000
00000000
00101000
00000000
00001000
00001000
00001000
00000000
,
00010000
00000100
00010000
00000000
00001000
00010000
00001000
00000000
,
00010000
00000010
00010000
00000000
00000010
00000010
00000010
00000000
,
00001000
00000000
00000000
00001000
00000000
00000000
00001100
00000000
00000000
00000000
00000000
00000000
00000001
00000000
00000000
00000000
,
00000100
00000000
00000000
00000100
00000000
00000000
00010100
00000000
00000000
00000000
00000000
00000000
00000000
00000000
00000000
00000000
,
02020000
00000000
00000000
03030000
,
20200000
00000000
00000000
30300000
,
00100000
00000000
00000000
01000000
00000000
01000000
00000000
00000000
00000000
00010000
00000000
00000000
,
00100000
00000000
00000000
00010000
00000000
00010000
00000000
00000000
00100000
00001000
00000000
00000000
,
00010000
00000000
00000000
00000010
00000000
00000010
00000000
00000000
00000000
00000100
00000000
00000000
,
00000001
00000000
00000000
00000010
00000000
00000010
00000000
00000000
00000100
00001000
00000000
00000000
,
00000100
00000000
00000100
00000000
00000000
00000000
00010000
00000000
00010000
00000000
00000000
00000000
,
00001000
00000000
00000000
00000000
00001000
00000000
00000000
00000000
00000000
00000000
00000000
00000000
01000000
00000000
00000000
00010000
00000000
00000000
00100000
00000000
00000000
00000000
00000000
00000000
,
00010000
00000000
00010000
00000000
00000000
00000000
10000000
00000000
10000000
00000000
00000000
00000000
,
00100000
00000000
00000000
00000000
00100000
00000000
00000000
00000000
00000000
00000000
00000000
00000000
01000000
00000000
00000000
00100000
00000000
00000000
00010000
00000000
00000000
00000000
00000000
00000000
,
00100000
01000000
00001000
00010000
,
00001000
00010000
00000010
00000100
,
00000010
00001000
00000100
00000010
,
00000001
00001000
00000100
00010100
,
00010000
00001000
00010000
00001000
01000000
00100000
01000000
00000000
,
00100000
10000000
00010000
01010000
,
01000000
00001000
00010000
00001000
,
00010000
00000010
00000100
00000010
00000001
00000010
00000100
00000000
,
00000010
00000000
00000000
00000010
00000000
00000000
00000010
00000000
00000000
00000010
00000000
00000000
00000010
00000000
00000000
00000000
,
00010000
00000000
00000000
00010000
00000000
00000000
00010000
00000000
00000000
00010000
00000000
00000000
00010000
00000000
00000000
00000000
,
00001000
00000000
00000000
00001000
00000000
00000000
00001000
00000000
00000000
00001000
00000000
00000000
00001000
00000000
00000000
00000000
,
01000000
00000000
00000000
01000000
00000000
00000000
01000000
00000000
00000000
01000000
00000000
00000000
01000000
00000000
00000000
00000000
,
20020000
00000000
30030000
10010000
00220000
00000000
00330000
00101000
,
00010000
00000100
00000010
00000000
00000010
00000100
00010000
00000000
,
00000010
00001000
00000100
00000000
00001000
00001000
00001000
00000000
,
00000202
00000000
00000303
00001001
00000000
00000000
00022000
00000000
,
00033000
01001000
00000000
00000000
01000000
00010000
00100000
00000000
,
00100000
00010000
01000000
00000000
00001000
00010000
00000100
00000000
,
00010000
00010000
00010000
00000000
00001000
00010000
00000010
00010000
,
00000000
00000100
00002000
00000000
00003001
00000010
00000100
00001000
,
00000000
00000100
00000020
00000000
00000031
00001000
00000100
00000000
,
00000100
00001000
00000001
00000000
00001000
00000100
00010000
00000000
,
00001000
00001000
00001000
00000000
00010000
01000000
00100000
00020000
,
00000000
00130000
00010000
00100000
00001000
01000000
00100000
02000000
,
00000000
03020000
10030000
00010000
,
00100000
00010000
01000000
00001000
,
00010000
00010000
00010000
00000000
00001000
00000010
00000001
00000000
,
00000001
00000010
00001000
00000000
00010000
00001000
00100000
00000000
,
00100000
00001000
00010000
00000000
00001000
00100000
01000000
00000000
,
01000000
00100000
00001000
00000000
00010000
01000000
10000000
00000000
,
10000000
01000000
00010000
00000000
11000000
00000000
10010000
00000000
,
00110000
00101000
00011000
00010100
,
00000100
00001000
00000010
00000000
00000100
00000001
00000100
00000001
,
00001000
00000100
00001000
00000100
00010000
00000000
00001000
00000000
,
00100000
00000000
00010000
10000000
00220000
00000000
00000000
00000000
,
00000000
00330000
00022000
00000000
,
00000000
00033000
00002200
00000000
,
00000000
00000000
00000000
00000000
00003300
00000000
00000000
00000000
00001001
00000000
00000000
00001001
00000000
00000000
00001001
00000000
;

//---------------dance-double - ----------------
#NOTEDATA:;
#CHARTNAME:;
#CHARTHASH:291030712;
#STEPSTYPE:dance-double;
#BANNER:;
#DESCRIPTION:;
#CHARTSTYLE:;
#DIFFICULTY:Hard;
#METER:13;
#METERF:13.000000;
#LASTSECONDHINT:117.502876;
#RADARVALUES:0.000000,0.000000,0.000000,0.000000,0.000000,0.000000,0.000000,0.000000,0.000000,0.000000,0.000000,0.000000,0.000000,0.000000,0.000000,0.000000,0.000000,0.000000,0.000000,0.000000,0.000000,0.000000,0.000000,0.000000,0.000000,0.000000,0.000000,0.000000;
#CREDIT:;
#DISPLAYBPM:156.000000:160.000000;
#NOTES:
00000000
00000000
00000000
00000000
,
00000000
00000000
00000000
00000000
,
00000000
00000000
00000000
00000000
,
00000000
00000000
00000000
00000000
,
10000000
00000000
00000000
00010000
00000000
00000000
00100000
00000000
00000000
00010000
00000000
00000000
01000000
00000000
00001000
00000000
,
00010000
00000000
00000000
00000100
00000000
00000000
00010000
00000000
00000000
00001000
00000000
00000000
00011000
00000000
00000000
00000000
,
00000010
00001000
00000100
00001000
00000001
00000010
00000100
00000000
,
00001000
00000100
00000010
00000100
00001000
00000001
00000200
00000000
,
00000310
00000000
00000000
00000000
00010000
00000000
00000000
00000100
00001000
00000000
00000010
00000000
00001000
00000000
00000000
00000000
,
00000100
00010000
00001000
00010000
00001000
01000000
00100000
00000000
,
10000000
10000000
00010000
00000000
00100000
00100000
01000000
00000000
,
10000000
00000000
00010000
00100000
00000000
00000000
01000000
00000000
00100000
00000000
00001000
00000000
00010000
00000000
00000000
00000000
,
00001000
00000000
00010000
00001000
00000000
00010000
00000000
00000010
00000000
00000100
00000000
00000001
00000100
00000000
00000010
00000000
,
00001000
00000000
00000000
00001000
00000000
00000000
00000100
00000000
00000000
00010000
00000000
00000000
00001000
00000000
00000000
00000000
00000000
00000000
00010000
00000000
00001000
00000000
00010000
00000000
,
01000000
00000000
01000000
00000000
10000000
00000000
10000000
00000000
00010000
00100000
00000000
00010000
00100000
00000000
00001000
00000000
,
00010000
00001000
00000000
00010000
00001000
00000000
00010000
00001000
00000000
00000000
00010000
00000000
00000100
00000000
00000010
00000000
,
00000001
00000000
00000000
00000001
00000000
00000000
00000001
00000000
00000000
00000001
00000000
00000001
00001000
00000000
00000100
00000000
,
00010000
00000000
00000000
00010000
00000000
00000000
00010000
00000000
00000000
00010000
00000000
00010000
00001000
00010000
00001000
00000000
,
00001000
01000000
00000000
00001000
01000000
00000000
00001000
01000000
00000000
00001000
01000000
00000000
00100000
00000000
10000000
00000000
,
00010000
00100000
00000000
00010000
00100000
00000000
00010000
00100000
00000000
00010000
00100000
00000000
00001000
00000000
00100000
00000000
,
00010000
00100000
00001000
00010000
00001000
00010000
00000010
00000100
,
00000010
00010000
00001000
00010000
00000100
00000100
00000100
00000000
,
00001000
00000100
00000001
00000100
00001000
00000100
00010000
00000100
,
00001000
00000000
00000100
00000000
00010000
00001000
00000000
00000000
00001000
00000000
00100000
00000000
00001000
00010000
00000000
00000000
,
00001000
00000000
01000000
00000000
00100000
00000000
00000000
10000000
00000000
00010000
00000000
00010000
00100000
00000000
01000000
00000000
,
10000000
01000000
10000000
00000000
00010000
00000000
00100000
00000000
00001000
00010000
00001000
00010000
00000000
00000000
00000000
00000000
,
00010100
00000000
00000000
00010100
00000000
00000000
00010100
00000000
00000000
00000000
00001000
00000000
00010000
00001000
00010000
00000000
,
01001000
00000000
00000000
01001000
00000000
00000000
01001000
00000000
00000000
00000000
00000000
00000000
00001000
00000000
00000000
00000000
,
00010000
00000000
00000000
00000100
00000000
00000000
00001000
00000000
00000000
00000001
00000000
00000001
00000010
00000100
00001000
00000000
,
00000100
00000000
00000000
00000010
00000000
00000000
00000100
00000000
00000000
00010000
00000000
00000100
00001000
00000000
00000100
00000000
,
00010000
00000000
00010000
00001000
00000000
00001000
01000000
00000000
01000000
00100000
00000000
00100000
,
10000000
00000000
10000000
01000000
00000000
01000000
00100000
00010000
00100000
01000000
00000000
00000000
,
00100000
00010000
00100000
00001000
00000000
00001000
00010000
00000000
00010000
00000100
00001000
00000010
,
00001000
00000001
00000010
00000100
00001000
00000100
00000010
00000000
,
00000001
00000000
00000001
00000000
00001000
00000100
00001000
00000000
00000010
00000000
00010000
00001000
,
00010000
00000000
00001000
00000000
00100000
00010000
00000000
00100000
00010000
00000000
10000000
00000000
00010000
00000000
00000000
00000000
,
01000000
00000000
00010000
00100000
00000000
00100000
00001000
00000000
00001000
00010000
00000000
00010000
,
00001000
00000000
00000000
00000000
00010000
00000000
00000000
00000000
00001000
00000000
00000000
00000000
00100000
00000000
00000000
00000000
00000000
00000000
00001000
00000000
00000000
00000000
00000000
00000000
00010000
00000000
00000000
00000000
00000000
00000000
00000000
00000000
00000000
00000000
00000000
00000000
00000100
00000000
00000000
00010000
00000000
00000000
00000100
00000000
00000000
00010000
00000000
00000000
,
00000100
00000000
00000100
00001000
00000000
00001000
00000010
00000000
00000010
00000001
00000000
00000001
,
00000010
00000000
00000010
00001000
00000000
00001000
00000100
00000000
00000100
00010000
00000000
00010000
,
00001000
00000000
00001000
01000000
00000000
01000000
00100000
00000000
00100000
10000000
00000000
10000000
,
00100000
00000000
00000000
00000000
00000000
00000000
00000000
00000000
00100000
00000000
00000000
00000000
00010000
00000000
00000000
00000000
00000000
00000000
00000000
00000000
00010000
00000000
00000000
00000000
00100000
00000000
00000000
00000000
00000000
00000000
00000000
00000000
00000000
00100000
00000000
00000000
10000000
00000000
00000000
00100000
00000000
00000000
10000000
00000000
00000000
00000000
00000000
00000000
,
00010000
01000000
00100000
01000000
00010000
00100000
00001000
00100000
,
00010000
00100000
00001000
00100000
00000000
00001000
00010000
00000000
00010000
00000100
00000000
00000000
,
00001100
00000000
00001000
00000010
00000000
00000010
00000001
00000000
00000001
00000010
00000000
00000010
,
00001000
00000000
00000000
00000000
00000100
00000000
00000000
00000000
00001000
00000000
00000000
00000000
00000100
00000000
00000000
00000000
00000000
00000000
00010000
00000000
00000000
00000000
00000000
00000000
00000010
00000000
00000000
00000000
00000000
00000000
00000100
00000000
00000000
00000000
00000000
00000000
00000001
00000000
00000000
00001000
00000000
00000000
00000001
00000000
00000000
00001000
00000000
00000000
,
00000001
00000000
00000000
00001000
00000000
00000000
00000100
00000000
00000000
00001000
00000000
00000100
00000010
00000000
00000100
00000000
,
00001000
00000000
00000000
00000100
00000000
00000000
00001000
00000000
00000000
00000100
00000000
00010000
00001000
00000000
00010000
00000000
,
00001000
01000000
00000000
00001000
01000000
00000000
00001000
01000000
00000000
00001000
01000000
00000000
00100000
00000000
10000000
00000000
,
00010000
10000000
00000000
00010000
10000000
00000000
00010000
10000000
00000000
00010000
10000000
00000000
00100000
01000000
00100000
01000000
,
00200000
00000000
00000000
10300000
02010000
00000000
00000000
03001000
,
00010000
00000100
00000010
00000100
00010000
00001000
00010000
00000100
,
00010000
00000010
00010000
00000100
00001000
00001000
00001000
00000100
,
00001002
00000000
00000000
00000000
00000000
00000000
00000013
00000000
00000010
00000100
00001000
00000100
00020000
00000000
00000000
00000000
,
00000000
00000000
00031000
00000000
00001000
01000000
00100000
01000000
00010000
00000000
00100000
00000000
00001000
00000000
00100000
00000000
,
00010000
01000000
00001000
01000000
00010000
00100000
00010000
10000000
,
01000000
01000000
01000000
10000000
00120000
00000000
10030000
02010000
,
00000000
03100000
01000000
01000000
01020000
00000000
00130000
00102000
,
00000000
00013000
00000200
00000000
00000310
00000001
00001000
00001000
,
00000001
00000100
00000010
00000010
00001000
00000100
00010000
00010000
,
00000100
00000100
00000100
00001000
01000000
00100000
00010000
00210000
,
00000000
00310000
00100000
00100000
00001000
00010000
00001000
02001000
,
00000000
03100000
20000000
00000000
30010000
10000000
01000000
00100000
,
01000000
10000000
00010000
00100000
00010000
10000000
00010000
00100000
,
00001000
00000000
00001000
00000000
00001000
00000000
00000000
00000000
00010000
00000000
00010000
00000000
00000100
00000000
00001000
00000010
,
00001000
00000000
00000001
00000000
00000001
00000000
00000100
00000010
00000100
00000000
00000010
00000000
00000010
00000000
00010000
00001000
,
00010000
00000000
00000100
00000000
00000100
00000000
00000000
00000000
00010000
00000000
00001000
00000000
01000000
00000000
00010000
00100000
,
00010000
00000000
10000000
00000000
10000000
00000000
01000000
00100000
01000000
00000000
10000000
00000000
10000000
00000000
00010000
00100000
,
00010000
01000000
01000000
00000000
00001000
00010000
00001000
00100000
,
00001000
00010000
00000100
00010000
00000010
00000100
00000010
00001000
,
00000100
00000100
00000100
00000000
00000010
00000001
00001000
00000100
,
00010000
00000100
00001000
00000010
00010000
00001000
00010000
00001000
,
01000000
00000000
00100000
00000000
10000000
00000000
10010000
00000000
00001000
00000000
00000000
00010000
00000000
00000000
00001000
00000000
,
00000000
00010000
00000000
00000100
00001000
00000000
00000010
00000000
00000100
00000000
00000000
00000001
00000000
00000000
00001000
00000000
,
00000000
00000100
00000000
00010000
00001000
00010000
00001000
00000000
00100000
00000000
00000000
00010000
00000000
00000000
01000000
00000000
,
00000000
00100000
00000000
10000000
00010000
10000000
00010000
00000000
01100000
00000000
00000000
01100000
00000000
00000000
01100000
00000000
;

//---------------dance-double - ----------------
#NOTEDATA:;
#CHARTNAME:;
#CHARTHASH:2049532086;
#STEPSTYPE:dance-double;
#BANNER:;
#DESCRIPTION:;
#CHARTSTYLE:;
#DIFFICULTY:Challenge;
#METER:16;
#METERF:16.000000;
#LASTSECONDHINT:117.502876;
#RADARVALUES:0.000000,0.000000,0.000000,0.000000,0.000000,0.000000,0.000000,0.000000,0.000000,0.000000,0.000000,0.000000,0.000000,0.000000,0.000000,0.000000,0.000000,0.000000,0.000000,0.000000,0.000000,0.000000,0.000000,0.000000,0.000000,0.000000,0.000000,0.000000;
#CREDIT:;
#DISPLAYBPM:156.000000:160.000000;
#NOTES:
00000000
00000000
00000000
00000000
,
00000000
00000000
00000000
00000000
,
00000000
00000000
00000000
00000000
,
00000000
00000000
00000000
00000000
,
00110000
00000000
00000000
10010000
00000000
00000000
11000000
00000000
00000000
01100000
00000000
00100000
00001000
00010000
00001000
00000000
,
00001010
00000000
00000000
00000011
00000000
00000000
00001001
00000000
00000000
00000110
00000000
00000010
00001000
00000000
00000100
00000000
,
00010000
00001000
00010000
00001000
00010000
00000000
00001000
00100000
00001000
00100000
00001000
00000000
01000000
00000000
00010000
00000000
,
01000000
00100000
01000000
00100000
01000000
00000000
00010000
10000000
00010000
10000000
00010000
00000000
10000000
01000000
00100000
00010000
,
00100000
00000000
00001000
00000000
00010000
00000000
00000000
00000100
00010000
00000000
00000010
00000000
00000100
00000000
00000000
00000000
,
00000001
00001000
00000001
00001000
00000100
00001000
00000100
00000000
00000010
00000000
00000001
00000000
00001000
00000000
00000000
00000000
,
00000100
00010000
00000100
00010000
00000100
00010000
00001000
00000000
00010000
00001000
00010000
00001000
00010000
00001000
00100000
00000000
,
00010000
00000000
10000000
00010000
10000000
00000000
00010000
01000000
00010000
00000000
10000000
00000000
00100000
00000000
00000000
00000000
,
01000000
00010000
01000000
00010000
01000000
00001000
00000000
00100000
00000000
00001000
00000000
00010000
00001000
00000000
00010000
00000000
,
00000100
00000000
00000000
00001000
00000000
00000000
00000010
00000000
00000000
00001000
00000000
00000000
00000100
00000000
00000000
00000000
00000000
00000000
00001000
00000000
00000100
00000000
00000010
00000000
,
00000001
00000000
00000001
00000000
00001000
00000000
00001000
00000000
00000010
00000100
00000000
00000010
00000100
00000000
00000010
00000000
,
00001000
00000100
00000000
00001000
00000100
00000000
00010000
00000100
00000000
00010000
00000100
00000000
00010000
00001000
01000000
00100000
,
02000000
00000000
00000000
00010000
00000000
00000000
00100000
00000000
00000000
00010000
00000000
03010000
10000000
00000000
00100000
00000000
,
00020000
00000000
00000000
00001000
00000000
00000000
00100000
00000000
00000000
00001000
00000000
00031000
00010000
00000000
00000100
00000000
,
00000010
00000001
00000000
00000010
00000001
00000000
00000010
00000001
00000000
00000001
00001000
00000100
00001000
00000100
00010000
00000100
,
00010000
00001000
00000000
00010000
00001000
00000000
00010000
00001000
00000000
00001000
00100000
00001000
00100000
00010000
00100000
00010000
,
10000000
00000000
00010000
00000000
00100000
00000000
10000000
00000000
00100000
00000000
00010000
00000000
10000000
01000000
10000000
00000000
,
00010000
00000000
00100000
00001000
00100000
00000000
00001000
00010000
00001000
00000000
00010000
00000000
00000100
00000000
00000000
00000000
,
00001000
00000001
00000010
00001000
00000010
00000001
00000100
00000010
,
00001000
00000000
00000001
00000000
00000100
00000001
00000000
00000000
00001000
00000100
00000000
00010000
00001000
00010000
00001000
00010000
,
01000000
10000000
01000000
10000000
01000000
10000000
00000000
00100000
00000000
01000000
00000000
00010000
00100000
00000000
00001000
00000000
,
00100000
00010000
00100000
00010000
10000000
01000000
00100000
00010000
00100000
00001000
00100000
00010000
00000000
00100000
00001000
00010000
,
00010100
00000000
00000000
00010100
00000000
00000000
00010100
00000000
00000000
00000000
00001000
00000000
00000010
00000100
00000010
00000000
,
00001001
00000000
00000000
00001001
00000000
00000000
00001001
00000000
00000000
00000000
00000000
00000000
00000100
00000000
00000000
00000000
,
00000010
00001000
00000000
00000010
00001000
00000000
00000100
00001000
00000000
00000100
00001000
00000000
00000100
00000000
00010000
00000000
,
00001000
00010000
00000000
00001000
00010000
00000000
00001000
00010000
00000000
00001000
01000000
00001000
01000000
00100000
00010000
00100000
,
01000000
10000000
01000000
00100000
00000000
00100000
00010000
00100000
00001000
00100000
00000000
00001000
,
01000000
00100000
01000000
00010000
00000000
00100000
00010000
00001000
00010000
00100000
00000000
00000000
,
00010000
10000000
01000000
00100000
00010000
00100000
00001000
00010000
00001000
00010000
00000010
00000100
,
00000010
00000000
00000000
00001000
00000000
00000000
00000100
00000000
00000000
00000001
00000000
00000000
00000100
00000000
00000000
00001000
00000000
00000000
00000001
00000000
00001000
00000000
00000001
00000000
,
00000101
00000000
00001100
00000000
00001000
00000100
00010100
00000000
00011000
00000000
00001000
00100000
,
00110000
00000000
00100000
00000000
00001000
00010000
00000000
00001000
00010000
00000000
00001000
00000000
01000000
00000000
00000000
00000000
,
01100000
00000000
00100000
10000000
01000000
00100000
00010000
00000000
00010000
00100000
01000000
00100000
,
00010000
00000000
00000000
00000000
00010000
00000000
00000000
00000000
00100000
00000000
00000000
00000000
00001000
00000000
00000000
00000000
00000000
00000000
00010000
00000000
00000000
00000000
00000000
00000000
00001000
00000000
00000000
00000000
00000000
00000000
00000000
00000000
00000000
00000000
00000000
00000000
00010000
00000000
00000000
00000100
00000000
00000000
00010000
00000000
00000000
00000100
00000000
00000000
,
00010000
00000100
00000100
00001000
00000010
00000010
00000100
00000001
00001000
00000100
00000000
00000100
,
00010000
00010000
00001000
00010000
00010000
00001000
00100000
00000000
00000000
10010000
00000000
10000000
,
01000000
01000000
10000000
00100000
00100000
01000000
00010000
00010000
00100000
00001000
00010000
00001000
,
00010000
00000000
00000000
00000000
00000100
00000000
00000000
00000000
00000100
00000000
00000000
00000000
00010000
00000000
00000000
00000000
00000010
00000000
00000000
00000000
00000010
00000000
00000000
00000000
00001000
00000000
00000000
00000000
00000000
00000000
00000000
00000000
00000000
00000001
00000000
00000000
00000100
00000000
00000000
00000001
00000000
00000000
00000100
00000000
00000000
00000001
00000000
00000000
,
00000100
00000010
00001000
00000100
00010000
00000100
00001000
00000100
,
00010000
00001000
00010000
01000000
00000000
01000000
00100000
00000000
00100000
00010000
00000000
00010000
,
10000000
00000000
01000000
00100000
00000000
00010000
00100000
00000000
01000000
00100000
00000000
00100000
,
00001000
00000000
00000000
00000000
00010000
00000000
00000000
00000000
00001000
00000000
00000000
00000000
00010000
00000000
00000000
00000000
00000000
00000000
00000000
00000000
00000000
00000100
00000000
00000000
00010000
00000000
00000000
00000000
00000000
00000000
00000010
00000000
00000000
00000000
00000000
00000000
00000100
00000000
00000000
00000010
00000000
00000000
00000100
00000000
00000000
00000010
00000000
00000000
,
00000100
00000000
00000000
00000101
00000000
00000000
00001001
00000000
00000000
00001100
00000000
00000100
00000010
00000100
00010000
00000000
,
00011000
00000000
00000000
00110000
00000000
00000000
10010000
00000000
00000000
01100000
00000000
00010000
10000000
01000000
00100000
01000000
,
10000000
00010000
00000000
10000000
00010000
00000000
10000000
00010000
00000000
10000000
00010000
00100000
00010000
00100000
00010000
00100000
,
00001000
00010000
00000000
00001000
00010000
00000000
00001000
00010000
00000000
00001000
00010000
00001000
00010000
00000100
00001000
00000010
,
00000220
00000000
00000330
00000110
00002002
00000000
00003003
00001001
,
00010000
00000000
00001000
00010000
00001000
00000000
00001000
00100000
00001000
00000000
00100000
00010000
00100000
00000000
00001000
01000000
,
00001000
00000000
01000000
00100000
01000000
00000000
00100000
10000000
00100000
00000000
00100000
00000000
10000000
00000000
01000000
00000000
,
00220000
00000000
00000000
00000000
00330000
00000000
10010000
00000000
00010000
00100000
01000000
00100000
00202000
00000000
00000000
00000000
,
00303000
00000000
00011000
00000000
00010000
00000100
00000010
00000100
00001000
00000000
00000100
00001000
00000100
00000000
00010000
00001000
,
00010000
00000000
00000010
00010000
00000010
00000000
00010000
00001000
00010000
00000000
00000100
00001000
00000100
00000000
00010000
00000000
,
00001000
00001000
00010000
00000010
00002010
00000000
00003001
00000201
,
00000000
00000000
00000310
00000000
00001000
00000100
00010000
00001000
00012000
00000000
00000000
00000000
00103000
00000000
00120000
00000000
,
00000000
00000000
10030000
00000000
00010000
00100000
01000000
10000000
01000000
00000000
10000000
01000000
00010000
01000000
10000000
00000000
,
00100000
00000000
00010000
00100000
10000000
00100000
00010000
00000000
10000000
00000000
01000000
00100000
00010000
00100000
01000000
00000000
,
00100000
00100000
00001000
00010000
00011000
00010000
00000010
00000210
,
00000000
00000301
00000010
00000010
00001001
00001000
00000100
00020100
,
00000000
00031000
00020000
00000000
00030100
00010000
00001000
00000010
,
00001000
00010000
00000010
00000100
00000010
00010000
00001000
00010000
,
00000100
00000000
00000010
00000000
00000011
00000000
00000000
00000000
00000100
00000000
00010000
00000000
00001000
00000000
00100000
00010000
,
00100000
00000000
00010000
00000000
10000000
00000000
00100000
01000000
00100000
00000000
10000000
00000000
00010000
00000000
00100000
00001000
,
00100000
00000000
00010000
00000000
00000010
00000000
00000000
00000000
00000001
00000000
00001000
00000000
00000100
00000000
00000001
00000100
,
00000001
00000000
00000100
00000000
00001000
00000000
00000100
00010000
00000100
00000000
00010000
00000000
00001000
00000000
01000000
00100000
,
01000000
00000000
00010000
00000000
01000000
00000000
00000000
00000000
00100000
10000000
00100000
00000000
10000000
01000000
10000000
00000000
,
00010000
00100000
00010000
00000000
00100000
00001000
00100000
00000000
00001000
00010000
00001000
00000000
00010000
00000010
00010000
00000000
,
00000010
00000100
00000010
00000000
00001000
00000001
00001000
00000000
00000001
00000010
00000100
00000010
00000100
00001000
00000100
00001000
,
00000100
00010000
00000100
00010000
00001000
00010000
00001000
00100000
00001000
00100000
00010000
10000000
00010000
10000000
01000000
00100000
,
00010000
00100000
01000000
10000000
00010000
00000000
00011000
00000000
00020000
00000000
00000000
00000010
00000000
00000000
00001000
00000000
,
00000000
00000010
00000000
00030010
00010000
00000000
00001000
00000000
00200000
00000000
00000000
00010000
00000000
00000000
01000000
00000000
,
00000000
00010000
00000000
00310000
10000000
01000000
00100000
00000000
00001000
00010000
00000000
00001000
00010000
00000000
00001000
00010000
,
00000000
00001000
00010000
00000100
00001000
00000010
00000100
00000001
00001001
00000000
00000000
00000110
00000000
00000000
00001001
00000000
;
