#TITLE:DRUNK MONKY;
#SUBTITLE:;
#ARTIST:DJ ODDBALL;
#TITLETRANSLIT:;
#SUBTITLETRANSLIT:;
#ARTISTTRANSLIT:;
#GENRE:;
#CREDIT:;
#BANNER:DRUNK MONKY.png;
#BACKGROUND:DRUNK MONKY-bg.png;
#LYRICSPATH:;
#CDTITLE:Beatmania.png;
#MUSIC:DRUNK MONKY.ogg;
#OFFSET:-0.070000;
#SAMPLESTART:46.344929;
#SAMPLELENGTH:15.000000;
#SELECTABLE:YES;
#BPMS:0.000000=145.000000
;
#STOPS:
;
#BGCHANGES:16.000=timer1.mp4=1.000=1=0=1===CrossFade==,
24.000=wheel2.mp4=1.000=0=0=1=====,
32.000=timer1.mp4=1.000=0=0=1=====,
40.000=wheel2.mp4=1.000=0=0=1=====,
44.000=tunnel4.mp4=1.000=0=0=1=====,
48.000=wheel7.mp4=1.000=0=0=1=====,
56.000=text15.mp4=1.000=0=0=1=====,
64.000=wheel1.mp4=1.000=0=0=1=====,
72.000=text16.mp4=1.000=0=0=1=====,
80.000=timer1.mp4=1.000=0=0=1=====,
88.000=wheel2.mp4=1.000=0=0=1=====,
96.000=fabric1.mp4=0.800=0=0=1=====,
104.000=sphere1.mp4=1.000=0=0=1=====,
112.000=wave2.mp4=1.000=0=0=1=====,
120.000=vortex1.mp4=1.400=0=0=1=====,
128.000=vortex1r.mp4=1.400=0=0=1=====,
136.000=tunnel11.mp4=0.800=0=0=1=====,
144.500=tunnel11r.mp4=2.000=0=0=1=====,
152.000=timer1.mp4=1.000=0=0=1=====,
156.000=wheel1.mp4=1.000=0=1=1=StretchRewind====,
156.667=wheel1.mp4=1.000=0=1=1=StretchRewind====,
157.333=wheel1.mp4=1.000=0=1=1=StretchRewind====,
158.000=wheel1.mp4=1.000=0=1=1=StretchRewind====,
158.667=wheel1.mp4=1.000=0=1=1=StretchRewind====,
159.333=wheel1.mp4=1.000=0=1=1=StretchRewind====,
160.000=wave2.mp4=1.000=0=1=1=StretchRewind====,
163.000=wheel2.mp4=1.000=0=0=1=====,
164.000=wave2.mp4=1.000=0=0=1=====,
167.000=wheel2.mp4=1.000=0=0=1=====,
168.000=wave2.mp4=1.000=0=0=1=====,
171.000=wheel2.mp4=1.000=0=0=1=====,
172.000=wave2.mp4=1.000=0=0=1=====,
174.500=wheel1.mp4=1.000=0=0=1=====,
175.500=wheel2.mp4=1.000=0=0=1=====,
176.000=wheel4.mp4=1.000=0=0=1=====,
179.000=wheel7.mp4=1.000=0=0=1=====,
180.000=wheel4.mp4=1.000=0=0=1=====,
183.000=wheel7.mp4=1.000=0=0=1=====,
184.000=wheel1.mp4=1.000=0=1=1=StretchRewind====,
184.500=wheel1.mp4=1.000=0=1=1=StretchRewind====,
185.000=wheel1.mp4=1.000=0=1=1=StretchRewind====,
185.500=wheel1.mp4=1.000=0=1=1=StretchRewind====,
186.000=DRUNK MONKY-bg.png=1.000=0=0=1=====,
99999=-nosongbg-=1.000=0=0=0 // don't automatically add -songbackground-
;
#KEYSOUNDS:;
#ATTACKS:;

//---------------dance-single - ----------------
#NOTES:
     dance-single:
     :
     Beginner:
     5:
     0.000000,0.000000,0.000000,0.000000,0.000000,0.000000,0.000000,0.000000,0.000000,0.000000,0.000000,0.000000,0.000000,0.000000,0.000000,0.000000,0.000000,0.000000,0.000000,0.000000,0.000000,0.000000:
0000
0000
0000
0000
,
0000
0000
0000
0000
,
0000
0000
0000
0000
,
0000
0000
0000
0000
,
1000
0000
1000
0000
,
0001
0000
0001
0000
,
1000
0000
1000
0000
,
0001
0000
0001
0000
,
0100
0000
0100
0000
,
0010
0000
0010
0000
,
0100
0000
0100
0000
,
0110
0110
0110
0110
,
0100
0000
0100
0000
,
0100
0000
0000
0000
,
0010
0000
0010
0000
,
0010
0000
0000
0000
,
1000
0000
1000
0000
,
1000
0000
0000
0000
,
0001
0000
0001
0000
,
0001
0000
0000
0000
,
1000
0000
1000
0000
,
1000
0000
0000
0000
,
0001
0000
0001
0000
,
1001
1001
1001
1001
,
1000
0000
1000
0000
,
0010
0000
0010
0000
,
0100
0000
0100
0000
,
0001
0000
0000
0000
,
2000
3000
2000
3000
,
2000
3000
1000
0000
,
0002
0003
0002
0003
,
0002
0003
0001
0000
,
0200
0000
0300
0000
,
0200
0000
0300
0000
,
0020
0000
0030
0000
,
0020
0000
0030
0000
,
0000
1000
0000
0000
0000
1000
0000
0000
,
0000
0001
0000
0000
0000
0001
0000
0000
,
1000
0000
0010
0000
,
2002
0000
3003
0000
,
0001
0001
0001
0001
,
1000
0001
0001
0001
,
1000
0010
0010
0010
,
1000
0010
0010
0010
,
1000
1000
1000
1000
,
0001
1000
1000
1000
,
0110
0110
2002
0000
,
0000
0000
0000
3003
;

//---------------dance-single - ----------------
#NOTES:
     dance-single:
     :
     Easy:
     8:
     0.000000,0.000000,0.000000,0.000000,0.000000,0.000000,0.000000,0.000000,0.000000,0.000000,0.000000,0.000000,0.000000,0.000000,0.000000,0.000000,0.000000,0.000000,0.000000,0.000000,0.000000,0.000000:
0000
0000
0000
0000
,
0000
0000
0000
0000
,
0000
0000
0000
0000
,
0000
0000
0000
0000
,
1000
0000
0000
1000
0000
0000
0000
0000
1000
0000
0000
1000
0000
0000
0000
0000
,
0001
0000
0000
0001
0000
0000
0000
0000
0001
0000
0000
0001
0000
0000
0000
0000
,
0100
0000
0000
0100
0000
0000
0000
0000
0100
0000
0000
0100
0000
0000
0000
0000
,
0010
0000
0000
0010
0000
0000
0000
0000
0010
0000
0000
0010
0000
0000
0000
0000
,
0100
0000
0000
0100
0000
0000
0000
0000
0100
0000
0000
0100
0000
0000
0000
0000
,
0001
0000
0000
0001
0000
0000
0000
0000
0001
0000
0000
0001
0000
0000
0000
0000
,
1000
0000
0000
1000
0000
0000
0000
0000
1000
0000
0000
1000
0000
0000
0000
0000
,
0010
0100
0010
0100
0010
0100
0010
0100
,
0010
1000
0010
1000
,
0001
0000
0000
0001
0001
0000
0000
0100
,
0100
0001
0100
0001
,
1000
0000
0000
1000
1000
0000
0000
0010
,
0010
0100
0010
0100
,
0001
0000
0000
0001
0001
0000
0000
1000
,
1000
0100
1000
0100
,
0001
0000
0000
0100
0100
0000
0010
0000
,
0001
0010
1000
0010
,
0001
0000
0000
1000
1000
0000
0001
0000
,
1000
0010
0100
0001
,
2000
0000
0000
0000
,
3100
1100
1000
1010
,
0010
0100
0010
0000
0100
0001
0100
0000
,
0001
0011
0001
1001
,
0110
0000
0000
0000
,
2000
3001
2000
3100
,
0002
0013
0002
1003
,
0200
0310
0020
0130
,
0020
1030
0200
0301
,
0002
0000
0000
1000
1003
0000
0010
0000
,
2000
0000
0000
0100
3100
0000
1000
0000
,
0020
0130
0200
0301
,
0002
0000
1003
0000
2000
0000
0010
3010
,
0000
1000
0000
0100
0000
1000
0000
0010
,
0000
0100
0000
0001
0000
0010
0000
0001
,
1000
0100
0010
0001
,
2002
0000
0000
3003
,
1000
0000
1000
0000
1000
0000
0001
0001
,
1000
0000
1000
0000
1000
0000
0001
0001
,
0100
0000
0100
0000
0100
0000
0010
0010
,
0100
0000
0001
0000
1000
0001
0000
0001
,
1000
0000
0100
0000
1000
0000
0010
0010
,
0100
0000
0001
0000
0010
0000
0001
0001
,
1000
0001
1000
0001
2002
0000
0000
0000
,
0000
0000
0000
3003
;

//---------------dance-single - ----------------
#NOTES:
     dance-single:
     :
     Medium:
     12:
     0.000000,0.000000,0.000000,0.000000,0.000000,0.000000,0.000000,0.000000,0.000000,0.000000,0.000000,0.000000,0.000000,0.000000,0.000000,0.000000,0.000000,0.000000,0.000000,0.000000,0.000000,0.000000:
0000
0000
0000
0000
,
0000
0000
0000
0000
,
0000
0000
0000
0000
,
0000
0000
0000
0000
,
0010
0000
0000
0010
0000
0000
0000
0000
0100
0000
0000
0100
0000
0000
0000
0000
,
0010
0000
0000
0010
0000
0000
0000
0000
0100
0000
0000
0100
0000
0001
0100
0000
,
0001
0000
0000
0001
0000
0000
0000
0000
1000
0000
0000
1000
0000
0000
0000
0000
,
0001
0000
0000
0001
0000
0000
0000
0000
1000
0000
0000
1000
0000
0001
1000
0000
,
0100
0000
0000
0100
0000
0000
0000
0000
1000
0000
0000
1000
0000
0000
0000
0000
,
0010
0000
0000
0010
0000
0000
0000
0000
0100
0000
0000
0100
0000
0000
0001
0000
,
1000
0000
0000
1000
0000
0000
0000
0000
0001
0000
0000
0001
0000
0000
0000
0000
,
0100
0100
0100
0100
0100
0100
0100
0100
,
0100
0000
0000
0000
0010
0000
1000
0000
0100
0000
0000
1000
0001
0000
0000
0000
,
0010
0000
0001
1000
0010
0000
0101
0000
,
0001
0000
0000
0000
1000
0000
0100
0000
0010
0000
0000
0010
0001
0000
0000
0000
,
1000
0000
0001
0100
1000
0000
0101
0000
,
0001
1000
0100
0010
0100
1000
0001
0000
,
0001
0010
1000
0010
0001
0100
0010
0000
,
0100
0001
0100
1000
0100
0010
1000
0000
,
0100
1000
0100
0000
1000
0001
1001
0000
,
0010
0010
0010
0000
0001
0001
0001
0000
,
1000
1000
1000
0000
0010
0010
0010
0000
,
0100
0100
0100
0000
0010
0010
0010
0000
,
1000
1000
0001
0001
1000
1000
0001
0001
,
1000
0000
0010
0000
1000
0000
0010
0000
0100
0000
0000
0100
0001
0000
0000
0000
,
0010
0000
0001
0000
0010
0000
0001
0000
1000
0000
0000
0001
1000
0000
0000
0000
,
1000
0000
0100
0000
0010
0000
0001
0000
1000
0000
0000
0001
1000
0000
0000
0000
,
0110
0000
0000
0000
,
1000
0000
0000
0001
0200
0000
0000
0000
0301
0000
0000
1000
0020
0000
0000
0000
,
0130
0000
0000
0010
0200
0000
0000
0000
0301
0000
0000
1000
0002
0000
0000
0000
,
0013
0000
0000
0001
0200
0000
0000
0000
0310
0000
0000
1000
0020
0000
0000
0000
,
0130
0000
0010
1000
0100
0000
0010
0001
,
1000
0000
0000
0001
0200
0000
0010
0000
0310
0000
0000
1000
0020
0000
0100
0000
,
0130
0000
0000
0010
2000
0000
0000
0000
3001
0000
0000
0001
0200
0000
0000
0000
,
0310
0000
0000
1000
0002
0000
0100
0000
0103
0000
0000
0001
2000
0000
0010
0000
,
3010
0000
0000
1000
0200
0000
0000
0000
0310
0000
0000
0001
0010
0000
0001
0000
,
0000
1000
0100
0010
0100
1000
0001
0010
,
0100
0010
0001
1000
0010
1000
0001
0100
,
0010
1010
0100
0101
,
0001
0000
0001
0000
0001
0000
1000
0000
1000
0000
1000
0000
,
0010
0000
0000
0100
0000
0001
0100
0000
0020
0000
0000
0000
1000
0000
1030
0000
,
0001
0000
0000
1000
0000
0010
2000
0000
0100
0000
3100
0000
1000
0000
1000
0000
,
0001
0000
0000
0010
0000
0001
0100
0000
0002
0000
0000
0000
1000
0000
1003
0000
,
0010
0000
0000
0100
0000
0001
2000
0000
0010
0000
3010
0000
0000
0000
1001
0000
,
0010
0000
0000
0000
1000
0000
0010
0000
0001
0000
0000
0000
0010
0000
1000
0001
,
1000
0000
0000
0000
0001
0000
0100
0000
1000
0000
0000
0000
0100
0000
0001
1000
,
0001
0001
0001
0001
2002
0000
0000
0000
,
0000
0000
0000
3003
;

//---------------dance-single - ----------------
#NOTES:
     dance-single:
     :
     Hard:
     15:
     0.785454,0.827823,0.495332,0.198133,0.891597,444.000000,404.000000,40.000000,16.000000,0.000000,0.000000,0.785454,0.827823,0.495332,0.198133,0.891597,444.000000,404.000000,40.000000,16.000000,0.000000,0.000000:
// measure 0
0000
0000
0000
0000
,  // measure 1
0000
0000
0000
0000
,  // measure 2
0000
0000
0000
0000
,  // measure 3
0000
0000
0000
0000
,  // measure 4
1000
0000
0001
0100
0000
0010
0000
0000
1000
0000
0001
0100
0000
0010
0000
0000
,  // measure 5
1000
0000
0100
0010
0000
0100
0000
0000
1000
0000
0100
0010
0000
0100
1000
0000
,  // measure 6
0001
0000
1000
0010
0000
0100
0000
0000
0001
0000
1000
0010
0000
0100
0000
0000
,  // measure 7
0001
0000
0100
0010
0000
0100
0000
0000
0001
0000
0100
0010
0000
0100
0000
0001
,  // measure 8
1000
0000
0001
0010
0000
0001
0000
0000
1000
0000
0001
0010
0000
0001
0000
0000
,  // measure 9
1000
0000
0010
1000
0000
0100
0000
0000
1000
0000
0010
1000
0000
0100
0010
0000
,  // measure 10
0001
0000
1000
0001
0000
0010
0000
0000
0001
0000
1000
0001
0000
0010
0000
0000
,  // measure 11
1001
1001
1001
1001
1001
1001
1001
1001
,  // measure 12
0001
0000
0100
0000
0010
0000
1000
0000
0100
0000
0000
0100
1000
0000
0100
0000
,  // measure 13
1000
0000
0010
0000
0100
0000
0001
0000
0010
0000
0000
0010
0001
1000
0001
0000
,  // measure 14
0110
0000
0010
0000
1000
0000
0100
0000
0010
0000
0000
0010
0001
0000
1000
0000
,  // measure 15
0100
0000
0001
0000
0100
0000
1000
0000
0010
0000
0000
0010
0100
0001
0100
0000
,  // measure 16
0010
0000
1000
0000
0100
0000
0010
0000
0001
0010
0000
0001
0100
0000
0010
0000
,  // measure 17
1000
0000
0100
0000
0010
0000
0100
0000
1000
0100
0000
1000
0001
0010
0001
0000
,  // measure 18
1001
0000
0001
0000
0100
0000
0010
0000
1000
0100
0000
1000
0100
0001
0100
0000
,  // measure 19
1010
0000
1000
0000
0001
0000
0100
0000
0001
0010
0000
0001
0010
1000
0010
0000
,  // measure 20
0001
0010
0001
0010
0001
0000
0000
0000
1000
0001
1000
0001
1000
0000
0000
0000
,  // measure 21
0100
1000
0100
1000
0100
0000
0000
0000
1000
0010
1000
0010
1000
0000
0000
0000
,  // measure 22
0001
1000
0001
1000
0001
0000
0000
0000
1000
0001
1000
0001
1000
0000
0000
0000
,  // measure 23
0010
0100
0010
0100
0010
0001
0010
0001
0010
1000
0010
1000
0100
0010
0001
0100
,  // measure 24
0010
0000
1000
0000
0100
0000
1000
0000
0001
0100
0000
0010
1000
0100
0010
0000
,  // measure 25
0100
0000
1000
0000
0001
0000
0100
0000
0001
0010
0000
0001
1000
0100
0010
0000
,  // measure 26
0100
0000
1000
0000
0001
0000
0010
0000
0001
0100
0000
0010
1000
0100
0001
0000
,  // measure 27
0100
0000
1000
0001
1000
0001
1000
0000
1010
0000
0000
0000
0000
0000
0000
0000
,  // measure 28
1200
0000
0000
0000
1300
0001
0100
0000
0120
0000
0000
0000
0031
0010
0100
0000
,  // measure 29
0201
0000
0000
0000
0301
0100
1000
0000
0120
0000
0000
0000
1030
0010
0100
0000
,  // measure 30
0102
0000
0000
0000
1003
0001
0010
0000
0021
0000
0000
0000
0031
0010
0100
0000
,  // measure 31
2100
0000
0001
0000
3001
1000
0100
0000
0010
0001
0000
0001
0010
0100
1000
0000
,  // measure 32
1200
0000
0000
1300
0001
1000
0100
0000
0120
0000
0000
0031
1000
0010
0001
0000
,  // measure 33
0210
0000
0000
0301
0100
0010
1000
0000
1000
0100
0000
0100
1000
0010
0001
0000
,  // measure 34
0210
0000
0000
0301
0100
0010
0100
0000
0102
0000
0000
1003
0001
0010
0100
0000
,  // measure 35
2100
0000
0010
0000
3010
1000
0001
0000
0100
0001
0000
0001
0010
0100
1000
0002
,  // measure 36
0000
1003
0100
0001
0100
1000
0010
0001
,  // measure 37
0010
1000
0100
0001
1000
0010
0001
0010
,  // measure 38
1000
0010
0001
0100
0010
1000
0100
0001
0100
0010
0001
1000
,  // measure 39
1001
0000
0011
0000
0110
0000
1100
0000
1010
0000
0110
0000
,  // measure 40
1001
0000
0001
0010
0000
0001
0000
0100
0001
0000
1000
0001
1000
0000
0001
1000
,  // measure 41
0001
0000
1000
0010
0000
0100
0000
0010
1000
0000
0100
0000
1100
0000
1000
0100
,  // measure 42
0010
0000
0001
0010
0000
0001
0000
0100
0001
0000
1000
0001
1000
0000
0001
0100
,  // measure 43
0010
0000
0100
0010
0000
0100
0000
0010
1000
0000
1100
0000
0001
0000
0101
0000
,  // measure 44
1000
0000
0010
1000
0000
1000
0100
0010
0001
0000
0010
0001
0010
0000
0001
1000
,  // measure 45
0100
0000
0100
1000
0000
1000
0100
0010
0001
0010
0100
0000
1000
0000
0001
1000
,  // measure 46
1001
1001
1001
1001
2002
0000
0000
0000
,  // measure 47
0000
0000
0000
3003
;

//---------------dance-double - ----------------
#NOTES:
     dance-double:
     :
     Easy:
     8:
     0.000000,0.000000,0.000000,0.000000,0.000000,0.000000,0.000000,0.000000,0.000000,0.000000,0.000000,0.000000,0.000000,0.000000,0.000000,0.000000,0.000000,0.000000,0.000000,0.000000,0.000000,0.000000:
00000000
00000000
00000000
00000000
,
00000000
00000000
00000000
00000000
,
00000000
00000000
00000000
00000000
,
00000000
00000000
00000000
00000000
,
10000000
10000000
00010000
00010000
,
01000000
01000000
00001000
00010000
,
00000100
00000100
00001000
00001000
,
00000010
00000010
00000100
00000001
,
00001000
00001000
00000100
00000100
,
00010000
00010000
00001000
01000000
,
00100000
00100000
10000000
10000000
,
10010000
10010000
10010000
10010000
,
10010000
00000000
00000000
00000000
00100000
00000000
00000000
01000000
,
00010000
00100000
00001000
00010000
,
00000010
00000000
00000000
00000000
00000100
00000000
00000000
00000001
,
00001000
00000100
00010000
00001000
,
00011000
00000000
00000000
00001000
01000000
00000000
00000000
01000000
,
00100000
00000000
10000000
00100000
10000000
00000000
00010000
00000000
,
01010000
00000000
00000000
01000000
00100000
00000000
00000000
00100000
,
01000000
00000000
00000000
01000000
00010000
00000000
00100000
00001000
,
00010000
00000000
00000000
00001000
00010000
00000000
00000000
00010000
,
00000010
00000000
00000000
00000010
00000100
00000000
00000010
00000000
,
00001000
00000001
00001000
00000000
00000001
00001000
00000001
00000000
,
00002200
00000000
00000000
00003300
,
00000100
00000000
00010000
00000000
00001000
00000000
00100000
00010000
,
10000000
00000000
01000000
00000000
00100000
00000000
01000000
10000000
,
00010000
00000000
01000000
00000000
00100000
00000000
01000000
00001000
,
00010000
00001000
00011000
00000000
,
00020000
00030100
00000200
00001300
,
00002000
00000000
00003010
00000000
00000010
00000000
00001000
00000001
,
00002000
00003100
00000200
00010300
,
00020000
00000000
00031000
00000000
00010000
00000000
01000000
00100000
,
01000000
00000000
10000000
00000000
00000000
00010000
10000000
00000000
,
00010000
00000000
00100000
00000000
00000000
00001000
00010000
00000000
,
00000100
00000000
00001000
00000000
00000000
00001000
00000010
00000000
,
00000100
00000000
00000001
00000000
00001000
00000000
00000100
00001000
,
00000000
00000100
00000000
00010000
00000000
00001000
00000000
00010000
,
00000000
00000100
00000000
00010000
00000000
00001000
00000000
00100000
,
00001000
00010000
00001000
01000000
,
02200000
00000000
00000000
03300000
,
00100000
00000000
00100000
00000000
10000000
00000000
10000000
00010000
,
10000000
00000000
00010000
00000000
00010000
00000000
00100000
00001000
,
00100000
00000000
00001000
00000000
00001000
00000000
00010000
00000010
,
00010000
00000000
00000100
00000000
00000100
00000000
00001000
00000100
,
00001000
00000000
00000001
00000000
00000110
00000000
00000010
00001000
,
00000010
00000000
00001000
00000000
00001100
00000000
00000100
00010000
,
00011000
00011000
00022000
00000000
,
00000000
00000000
00000000
00033000
;

//---------------dance-double - ----------------
#NOTES:
     dance-double:
     :
     Medium:
     12:
     0.000000,0.000000,0.000000,0.000000,0.000000,0.000000,0.000000,0.000000,0.000000,0.000000,0.000000,0.000000,0.000000,0.000000,0.000000,0.000000,0.000000,0.000000,0.000000,0.000000,0.000000,0.000000:
00000000
00000000
00000000
00000000
,
00000000
00000000
00000000
00000000
,
00000000
00000000
00000000
00000000
,
00000000
00000000
00000000
00000000
,
00100000
00000000
00000000
00100000
00000000
00000000
10000000
00000000
01000000
00000000
00000000
00000000
00010000
00000000
00000000
00000000
,
00001000
00000000
00000000
00100000
00000000
00000000
00001000
00000000
00010000
00000000
00000000
00001000
00000000
00010000
00000100
00000000
,
00001000
00000000
00000000
00001000
00000000
00000000
00000001
00000000
00000100
00000000
00000000
00000000
00000010
00000000
00000000
00000000
,
00001000
00000000
00000000
00000010
00000000
00000000
00010000
00000000
00001000
00000000
00000000
00000000
00100000
00000000
00000000
00000000
,
10010000
00000000
00000000
01000000
00000000
00000000
00100000
00000000
00010000
00000000
00000000
00000000
01000000
00000000
00000000
00000000
,
00001000
00000000
00000000
00010000
00000000
00000000
00001000
00000000
00100000
00000000
00000000
00001000
00000000
00010000
00000100
00000000
,
00001000
00000000
00000000
00000010
00000000
00000000
00000100
00000000
00000001
00000000
00000000
00000000
00001000
00000000
00000000
00000000
,
00000010
00000010
00000010
00000010
00000010
00000010
00000010
00000010
,
00000010
00000000
00000000
00000000
00001000
00000000
00000000
00000000
00000100
00000000
00000000
00010000
00000100
00000000
00000000
00000100
,
00010000
00000000
00001000
00000000
00100000
00000000
00010000
10000000
,
01000000
00000000
00000000
00000000
10000000
00000000
00000000
00000000
00100000
00000000
00000000
01000000
00010000
00000000
00000000
00010000
,
00100000
00001000
00010000
00000010
,
00000001
00000000
00000000
00000000
00000010
00000000
00000000
00000000
00001000
00000000
00000000
00000100
00001000
00000000
00000000
00001000
,
00000010
00000000
00001000
00000000
00000100
00000000
00010000
00001000
,
01000000
00000000
00100000
00000000
10000000
00000000
00010000
10000000
,
11000000
00000000
10000000
00100000
00010000
00100000
01100000
00000000
,
00101000
00000000
00000000
00000000
00100000
00000000
00000000
00000000
10000000
00000000
00000000
10000000
00010000
00000000
01000000
00000000
,
00001000
00000000
00000000
00000000
00010000
00000000
00000000
00000000
00001000
00000000
00000000
00010000
00000010
00000000
00000000
00000000
,
00000110
00000000
00000000
00000000
00000100
00000000
00000001
00000000
00001000
00000000
00000000
00001000
00000100
00000000
00000000
00000000
,
00010000
00010000
00001000
00001000
00100000
00010000
10000000
00010000
,
01000000
00000000
00100000
10000000
00100000
00010000
00100000
00000000
,
10000000
00000000
01000000
00010000
00001000
00010000
00001000
00100000
,
00010000
00000000
00100000
00001000
00010000
00001000
00100000
00010000
,
00000010
00000000
00000001
00001000
00000001
00000000
00000000
00000000
,
00000120
00000000
00000130
00000100
00001200
00000000
00000301
00000001
,
00001002
00000000
00001003
00001000
00001020
00000000
00010030
00010000
,
00021000
00000000
00031000
00001000
00012000
00000000
00013000
00010000
,
02001000
03100000
10200000
01300000
,
20010000
00000000
00000000
00100000
30200000
00000000
01000000
00000000
,
20300000
00000000
00000000
00010000
30020000
00000000
00130000
00000000
,
00011000
00000100
00011000
01000000
,
00011000
00000000
00000010
00000000
00011000
00000000
00100000
00100000
,
00000000
00001000
00000000
00100000
00000000
00010000
00000000
10000000
,
00000000
01000000
00000000
10000000
00000000
00100000
00000000
01000000
,
00010000
00000000
00010000
00100000
00000000
00100000
00001000
00000000
00001000
00010000
00000000
00010000
,
00000010
00000000
00000010
00000000
00000100
00000000
00000100
00000000
00000001
00000000
00000001
00000000
,
00001001
00000000
00001000
00000100
00010000
00000000
00000010
00000010
,
00001010
00000000
00000100
00010000
00001000
00000000
00100000
00100000
,
00110000
00000000
00010000
10000000
01000000
00000000
10000000
10000000
,
10010000
00000000
00010000
00100000
00010000
00100000
00001000
00010000
,
00001000
00000000
00010000
00001000
00000000
00001000
00000000
00001000
00010000
00000000
00000000
00000000
00000010
00000000
00000010
00000000
,
00000010
00000000
00000100
00000001
00000000
00000001
00000000
00000001
00001000
00000000
00000000
00000000
00000100
00000000
00010000
00000000
,
01000000
01000000
01000000
01000000
20020000
00000000
00000000
00000000
,
00000000
00000000
00000000
30030000
;

//---------------dance-double - ----------------
#NOTES:
     dance-double:
     :
     Hard:
     16:
     0.000000,0.000000,0.000000,0.000000,0.000000,0.000000,0.000000,0.000000,0.000000,0.000000,0.000000,0.000000,0.000000,0.000000,0.000000,0.000000,0.000000,0.000000,0.000000,0.000000,0.000000,0.000000:
00000000
00000000
00000000
00000000
,
00000000
00000000
00000000
00000000
,
00000000
00000000
00000000
00000000
,
00000000
00000000
00000000
00000000
,
00100000
00000000
00000000
10000000
00010000
00000000
00000000
00010000
00100000
00000000
00000000
00100000
00001000
00100000
00010000
00000000
,
00100000
00000000
00000000
00001000
00100000
00000000
00000000
00100000
00010000
00000000
00000000
00010000
01000000
00000000
00001000
00000000
,
00010000
00000000
00000000
00000010
00010000
00000000
00000000
00010000
00001000
00000000
00000000
00001000
00010000
00000010
00010000
00000000
,
00000100
00000000
00000000
00000100
00000001
00000000
00000000
00000001
00001000
00000000
00000000
00001000
00000010
00000000
00001000
00000000
,
00000100
00000000
00000000
00000100
00010000
00000000
00000000
00010000
00001000
00000000
00000000
00001000
01000000
00100000
10000000
00000000
,
00010000
00000000
00000000
00010000
10000000
00000000
00000000
10000000
00100000
00000000
00000000
00100000
01000000
00000000
00001000
00000000
,
00010000
00000000
00000000
00010000
00000100
00000000
00000000
00000100
00001000
00000000
00000000
00001000
00000001
00000100
00000010
00000000
,
00001001
00001001
00001001
00001001
00001001
00001001
00001001
00001001
,
00001000
00000000
00000010
00000000
00010000
00000000
00000100
00000000
00010000
00001000
00000000
00001000
00010000
00001000
00010000
00000000
,
00001000
00000000
01000000
00000000
00100000
00000000
10000000
00000000
01000000
10000000
00000000
01000000
00100000
00000000
01000000
10000000
,
00010000
00000000
01000000
00000000
00100000
00000000
10000000
00000000
01000000
00100000
00000000
01000000
10000000
01000000
10000000
00000000
,
00010000
00000000
00100000
00001000
00100000
00000000
00001000
00000000
00010000
00000010
00000000
00000100
00000010
00000100
00000000
00000001
,
00001000
00000000
00000100
00000000
00000010
00000000
00010000
00000000
00000010
00000001
00000000
00000010
00000100
00000000
00001000
00000100
,
00010000
00000000
00000100
00000000
00001000
00000000
00000100
00000000
00010000
00001000
00000000
00010000
00001000
00010000
00000000
00001000
,
01000000
00000000
00100000
00000000
10000000
00000000
00010000
00000000
01000000
00010000
00000000
00100000
00001000
00100000
00000000
00001000
,
00010000
00000000
00000100
00001000
00000100
00000000
00010000
00000000
00000010
00000100
00000010
00000000
00001000
00000001
00000000
00000001
,
00001000
00000100
00001000
00000100
00001000
00000000
00000000
00000000
00000100
00010000
00000100
00010000
00000100
00000000
00000000
00000000
,
00010000
00001000
00010000
00001000
00010000
00000000
00000000
00000000
00001000
01000000
00001000
01000000
00001000
00000000
00000000
00000000
,
01000000
00100000
01000000
00100000
01000000
00000000
00000000
00000000
00100000
10000000
00100000
10000000
00100000
00000000
00000000
00000000
,
10000000
00100000
10000000
00100000
01000000
00010000
01000000
00010000
00100000
00001000
00010000
00000100
00001000
00010000
00001000
00000010
,
00000100
00000000
00000010
00000000
00001000
00000000
00000010
00000000
00000100
00000001
00000000
00000001
00001000
00000100
00001000
00000000
,
00000100
00000000
00010000
00000000
00001000
00000000
00100000
00000000
01000000
10000000
00000000
10000000
01000000
00000000
10010000
00000000
,
00100000
00000000
01000000
00000000
00001000
00000000
00010000
00000000
00001000
00010000
00000000
00010000
00000010
00000100
00000010
00000000
,
00000100
00000000
00000001
00001000
00000001
00001000
00000001
00000000
00000110
00000000
00000000
00000000
00000000
00000000
00000000
00000000
,
00002100
00000000
00000000
00000000
00003100
00010000
00001000
00000000
00012000
00000000
00000000
00000000
00013000
00001000
01000000
00000000
,
01200000
00000000
00000000
00000000
10300000
00100000
00010000
00000000
02100000
00000000
00000000
00000000
03001000
01000000
00100000
00000000
,
00120000
00000000
00000000
00000000
00130000
10000000
01000000
00000000
20010000
00000000
00000000
00000000
30010000
10000000
01000000
00000000
,
00210000
00000000
00010000
00000000
00301000
00100000
00010000
00000000
00010000
10000000
00000000
10000000
01000000
00100000
00010000
00000000
,
01020000
00000000
00000000
00130000
00010000
00100000
00001000
00000000
00021000
00000000
00000000
00030100
00010000
00000010
00010000
00000000
,
00001200
00000000
00001000
00000300
00000100
00000010
00000001
00000000
00000001
00001000
00000000
00001000
00000100
00000010
00000100
00000000
,
00020100
00000000
00000000
00031000
00010000
00000100
00010000
00000000
00001200
00000000
00000000
00010300
00000100
00001000
00000010
00000000
,
00000120
00000000
00000100
00000000
00000031
00000010
00001000
00000000
00001000
00000100
00000000
00010000
00001000
00010000
00001000
00200000
,
00000000
00310000
00100000
10000000
00100000
00001000
00010000
00001000
,
00010000
00000010
00000100
00001000
00000100
00000001
00001000
00000100
,
00010000
00001000
00010000
01000000
00010000
00001000
01000000
00100000
01000000
00010000
10000000
01000000
,
11000000
00000000
11000000
00000000
01010000
00000000
01010000
00000000
00110000
00000000
00110000
00000000
,
00101000
00000000
00001000
00010000
00000000
00001000
00010000
00000000
00000100
00000000
00010000
00000010
00010000
00000000
00000010
00000100
,
00000010
00000000
00000100
00000001
00000000
00000010
00000000
00000001
00001000
00000000
00001000
00000100
00000010
00000100
00001000
00000100
,
00010000
00000000
00001000
00010000
00000000
00001000
00100000
00000000
00010000
00000000
10000000
01000000
00100000
00000000
01000000
10000000
,
00010000
00000000
00010000
10000000
00000000
00100000
00000000
10000000
00100000
00000000
01100000
00000000
00010000
00000000
00101000
00000000
,
00010000
00000000
00001000
00010000
00000000
00000100
00010000
00000100
00010000
00000000
00000010
00000100
00000010
00000000
00001000
00000001
,
00001000
00000000
00000100
00001000
00000000
00000100
00010000
00001000
00010000
00000000
00001000
00010000
01000000
00010000
00001000
00010000
,
00010100
00010100
00010100
00010100
00020200
00000000
00000000
00000000
,
00000000
00000000
00000000
00030300
;
