#VERSION:0.83;
#TITLE:貪欲DAYZ;
#SUBTITLE:;
#ARTIST:JACKASS TEAM;
#TITLETRANSLIT:DON YOKU DAYZ;
#SUBTITLETRANSLIT:;
#ARTISTTRANSLIT:;
#GENRE:;
#ORIGIN:;
#TAGS:;
#CREDIT:;
#BANNER:DON YOKU DAYZ.png;
#BACKGROUND:DON YOKU DAYZ-bg.png;
#PREVIEWVID:;
#JACKET:DON YOKU DAYZ-jacket.png;
#CDIMAGE:;
#DISCIMAGE:;
#LYRICSPATH:;
#CDTITLE:JACKASS.png;
#MUSIC:DON YOKU DAYZ.ogg;
#OFFSET:-0.250000;
#SAMPLESTART:61.750000;
#SAMPLELENGTH:15.000000;
#SELECTABLE:YES;
#BPMS:0.000000=156.000000;
#STOPS:236.000000=1.150000;
#DELAYS:;
#WARPS:;
#TIMESIGNATURES:0.000000=4=4;
#TICKCOUNTS:0.000000=4;
#COMBOS:0.000000=1;
#SPEEDS:0.000000=1.000000=0.000000=0;
#SCROLLS:0.000000=1.000000;
#FAKES:;
#LABELS:0.000000=Song Start;
#BGCHANGES:0.000=DON YOKU DAYZ.mp4=1.000=1=0=0=StretchNoLoop==CrossFade==,
301.000=DON YOKU DAYZ-bg.png=1.000=1=0=1===CrossFade==,
99999=-nosongbg-=1.000=0=0=0 // don't automatically add -songbackground-
;
#KEYSOUNDS:;
#ATTACKS:
;

//---------------dance-single - ----------------
#NOTEDATA:;
#CHARTNAME:;
#STEPSTYPE:dance-single;
#BANNER:;
#DESCRIPTION:;
#CHARTSTYLE:;
#DIFFICULTY:Hard;
#METER:14;
#METERF:0.000000;
#RADARVALUES:0.744284,0.731532,0.534358,0.200384,0.359021,624.000000,560.000000,64.000000,24.000000,0.000000,0.000000,0.000000,0.000000,0.000000,0.744284,0.731532,0.534358,0.200384,0.359021,624.000000,560.000000,64.000000,24.000000,0.000000,0.000000,0.000000,0.000000,0.000000;
#CREDIT:;
#NOTES:
0000
0000
0000
0000
,
0000
0000
0000
0000
,
0000
0000
0000
0000
,
0000
0000
0000
0000
,
1001
0000
1000
0000
0100
0000
0000
0000
1100
0000
0000
1100
0000
0000
1100
0000
,
0000
1000
0001
0000
0011
0011
0011
0000
,
1000
0100
0100
1000
0010
0010
0100
0001
,
0000
0000
0001
0000
0010
0000
0100
0000
1100
0000
1000
0001
1000
0000
0000
0000
,
0011
0000
0001
0000
1000
0000
0000
0000
0110
0000
0000
0110
0000
0000
0110
0000
,
0000
0010
1000
0000
1001
1001
1001
0000
,
1000
0100
0100
0010
0001
0001
1000
0100
,
0000
0000
0100
0000
1000
0000
0010
0000
0110
0000
0100
0000
0001
1000
0001
0000
,
1000
0100
0000
1000
0100
0000
1000
0100
0000
0000
1000
0000
0001
0000
0010
0000
,
0001
0100
0001
0000
1000
0000
0010
0000
1000
0000
0100
1000
0100
0000
1000
0000
,
0001
1000
0000
0001
1000
0000
0001
1000
0000
0000
1000
0000
0100
0000
0001
0000
,
0100
1000
0100
1000
0100
0000
1000
0000
0001
0010
0001
0010
0001
0020
0000
0000
,
0031
0010
0000
0001
0010
0000
0001
0000
1000
0000
0100
1000
0000
0100
0000
0000
,
1000
0010
1000
0010
1000
0000
0100
0000
1000
0000
0001
1000
0000
0100
0000
1000
,
0001
0000
0001
1000
0000
0100
0000
1000
0100
0000
1000
0000
1001
0000
0000
0001
,
0100
0000
0001
1000
0001
0000
1000
0000
0100
0000
1000
0000
0010
1000
0010
0000
,
1100
0000
2000
0010
0000
0000
0010
0000
3010
0000
1000
0000
0010
0000
0100
0000
,
0101
0000
0002
1000
0000
0000
1000
0000
1003
0000
0100
0000
0001
0000
0100
0000
,
1100
0000
1000
0020
0000
0000
0100
0000
0130
0000
0010
0000
1000
0000
1000
0000
,
0001
0100
0010
1000
0100
0001
2100
0000
,
3010
0000
0010
0200
0000
0000
0001
0000
0301
0000
0100
0000
0010
0000
1000
0000
,
1001
0000
0001
0020
0000
0000
0001
0000
0031
0000
1000
0000
0100
0000
1000
0000
,
1001
0000
0000
1100
0000
0000
1010
0000
1010
0000
1000
0000
0001
0000
0100
0000
,
0001
0000
0001
0000
1000
0000
0100
0000
1000
0000
0001
0000
0100
0001
0100
0000
,
0001
0000
0001
0000
1000
0000
1000
0000
0010
0000
0010
2000
0000
0000
0000
0000
,
3100
0000
1000
0000
0100
0000
1000
0000
0010
0000
1000
0002
0000
0000
0100
0000
,
0103
0001
0001
1000
0100
1000
1000
0010
,
0100
0010
0000
0100
0010
0000
0100
0001
0000
0100
0001
0000
1000
0001
1000
0000
,
0002
1000
2003
0000
3100
1000
0100
0001
,
0200
1000
2300
0000
3002
0100
0203
0000
,
0310
0010
1000
0100
0010
0010
0001
0100
,
0001
0001
1000
0010
0010
1000
1002
0000
,
1003
0000
1000
0001
1000
0001
1000
0000
0001
0000
0001
0100
0000
0001
0000
1000
,
0001
0000
0001
1000
0000
0100
0000
1000
0100
0000
0100
1000
0000
0010
0000
1000
,
0010
0010
0100
0100
0001
0001
1000
1000
,
0010
0100
0001
0001
1000
0010
0010
1000
,
1001
1001
0000
0000
0000
0000
0000
0000
,
1100
1000
0010
0100
0001
0001
0001
2001
,
0000
3010
1000
0100
0001
0100
0100
0000
,
1010
0010
0100
0001
0010
0010
0010
0001
,
1000
0100
0010
0100
1100
0000
1001
0000
,
0011
0001
1000
0100
1000
1000
1000
1020
,
0000
0130
0001
0010
0001
1000
1000
0000
,
1001
0001
1000
0100
1000
1000
1000
0010
,
1000
0000
0001
0000
0100
0000
0001
0000
0011
0000
0001
0000
1000
0001
1000
0000
,
0010
0010
0010
1000
0100
0100
0100
2100
,
0000
3001
1000
0100
0010
0010
0020
0000
,
0031
0001
0001
1000
0010
1000
1000
0100
,
1000
0010
0001
0010
1010
0000
1001
0000
,
0001
0100
0001
0010
0002
1000
1003
0000
,
1000
0100
1000
0010
0200
0001
0301
0000
,
0010
0010
0010
0010
0010
0010
0010
0010
,
0010
0001
1000
0100
1100
0000
1001
0000
,
0110
0000
0000
0000
0000
0000
0000
0000
0000
1001
0000
0000
0000
0000
0000
0000
0000
0000
1000
0000
0000
0000
0000
0000
0100
0000
0000
0000
0010
0000
0000
0000
0100
0000
0000
0000
1000
0000
0000
0000
0010
0000
0000
0000
0100
0000
0000
0000
,
0001
0000
0010
0000
0001
0000
0000
0000
0000
0100
0000
0000
0110
0000
0000
0000
0000
0000
2002
0000
0000
0000
0000
0000
,
0000
3003
0000
0000
0000
0000
0000
0000
0000
0000
0000
0000
0000
0000
0000
0000
0000
0000
0000
0000
0000
0000
0000
0000
0000
0000
0000
0000
0000
0000
0000
0000
0000
0000
0000
0000
0000
0000
0000
0000
0000
0000
0000
0000
0000
0000
0000
0000
1100
0000
0000
0000
0000
0000
0000
0000
0000
0000
0000
0000
0000
0000
0000
0000
0000
0000
0000
0000
0000
0000
0000
0000
1000
0000
0000
0000
0000
0000
0000
0000
0000
0000
0000
0000
0000
0000
0000
0000
0000
0000
0000
0000
0000
0000
0000
0000
0010
0000
0000
0000
0000
0000
0000
0000
0000
0000
0000
0000
0000
0000
0000
0000
0000
0000
0000
0000
0000
0000
0000
0000
0000
0000
0000
0000
0000
0000
0000
0000
0000
0000
0000
0000
0000
0000
0000
0000
0000
0000
0000
0000
0000
0000
0000
0000
0110
0000
0000
0000
0000
0000
0000
0000
0000
0000
0000
0000
0000
0000
0000
0000
0000
0000
0000
0000
0000
0000
0000
0000
0000
0000
0000
0000
0000
0000
0000
0000
0000
0000
0000
0000
0101
0000
0000
0000
0000
0000
0000
0000
0000
0000
0000
0000
,
0000
1001
0000
1000
0100
0000
1001
1001
,
1001
0000
0001
0010
0010
0001
1000
0100
,
0100
1000
0000
1000
0100
0001
1100
0000
,
1001
0000
0000
0000
0101
0000
0100
0000
0010
0000
0000
0000
1010
0000
0000
1100
,
0000
1001
0000
0001
1000
0100
1100
1100
,
1100
0000
1000
0010
0010
0100
0001
0001
,
1000
0100
0000
1000
0010
0100
0001
1000
,
0001
1000
0001
1000
0001
0000
1000
0000
1000
0000
0100
0000
1000
0000
1000
0000
,
0010
0000
0100
0000
0000
0000
0100
0000
0001
0000
0010
0000
0001
0000
1000
0001
,
1000
0100
1000
0010
0010
1000
0100
0100
,
1000
0000
0001
0000
0000
0000
0001
0000
0100
0000
0010
0000
1010
0000
1000
0001
,
1000
0001
0100
0100
0001
0010
0010
0001
,
1000
1000
0000
0100
1000
0100
0010
0010
,
0001
0000
1000
0100
1000
0000
0001
0010
0001
0000
0100
0000
0010
1000
0000
0010
,
1000
0000
0001
0000
1000
0100
0000
1000
0010
0000
0100
0000
0001
1000
0001
0000
,
1000
0001
1000
0001
0100
0001
0000
0100
0001
0000
1000
0001
0000
1000
0001
0000
,
1000
0000
0001
1000
0000
0000
0000
0000
0000
0000
0000
0000
0000
0000
0000
0000
;

//---------------dance-single - ----------------
#NOTEDATA:;
#CHARTNAME:;
#STEPSTYPE:dance-single;
#BANNER:;
#DESCRIPTION:;
#CHARTSTYLE:;
#DIFFICULTY:Medium;
#METER:9;
#METERF:0.000000;
#RADARVALUES:0.515273,0.572034,0.342323,0.133589,0.062620,432.000000,391.000000,41.000000,16.000000,0.000000,0.000000,0.000000,0.000000,0.000000,0.515273,0.572034,0.342323,0.133589,0.062620,432.000000,391.000000,41.000000,16.000000,0.000000,0.000000,0.000000,0.000000,0.000000;
#CREDIT:;
#NOTES:
0000
0000
0000
0000
,
0000
0000
0000
0000
,
0000
0000
0000
0000
,
0000
0000
0000
0000
,
1000
0000
0010
0000
1000
0000
0000
0000
0010
0000
0000
0010
0000
0000
0010
0000
,
0000
0100
0001
0000
1000
1000
1000
0000
,
0001
0000
1001
0000
1000
0010
0000
1010
,
0000
1000
0100
0010
0011
0000
1001
0000
,
0001
0000
0100
0000
0001
0000
0000
0000
1000
0000
0000
1000
0000
0000
1000
0000
,
0000
0010
1000
0000
0100
0100
0100
0000
,
1000
0100
0001
0100
1000
0100
0000
1001
,
0000
0001
0100
0010
1010
0000
1001
0000
,
1000
0000
0010
1000
0000
0100
1000
0100
,
0001
0000
0100
1000
0000
1000
0001
0010
,
0001
0000
0100
0001
0000
0001
1000
0010
,
0100
0000
0000
0010
0000
0000
1000
0000
0000
0001
0000
0000
2001
0000
0000
0000
,
3100
0000
1000
0100
0000
1000
0010
0100
,
0001
0000
0010
0001
0000
0001
0100
0010
,
1000
0000
1000
0001
0000
0001
0100
0000
,
0100
0010
1000
0000
1000
0001
0011
0001
,
1000
0000
0000
1000
0000
0000
0010
0000
2020
0000
0000
0000
3030
0000
0000
0000
,
0100
0000
0000
0100
0000
0000
0100
0000
0202
0000
0000
0000
0303
0000
0000
0000
,
0001
0000
0000
1000
0000
0000
0010
0000
1000
0000
0100
0000
1000
0000
0000
0000
,
0001
0100
0001
0000
1000
1000
1000
0000
,
0010
0000
0000
1000
0000
0000
1000
0000
2002
0000
0000
0000
3003
0000
0000
0000
,
0001
0000
0000
0100
0000
0000
0001
0000
0022
0000
0000
0000
0033
0000
0000
0000
,
0001
0000
0000
1000
0000
0000
0010
0000
0100
0000
0010
0000
1000
0000
0001
0000
,
0010
0001
0010
0000
0001
0001
0101
0000
,
0001
0000
1000
0000
0010
1000
0100
0010
,
0001
0000
0100
0000
0010
1000
0010
0000
,
1000
0001
1000
0000
0001
0100
0001
1000
,
0100
0010
0001
1000
0100
0000
1001
0000
,
1000
0000
0100
0000
1000
0010
0100
0001
,
1000
0000
0001
0000
0100
0001
0100
0000
,
0001
0000
0010
0000
0001
0010
1000
0010
,
0001
0000
0010
0000
0100
0100
0100
0000
,
1000
0010
1000
0000
0100
0000
1001
0000
,
0010
0001
0010
0000
0001
0000
1001
0000
,
0001
0100
0010
1000
,
0100
1000
0100
0001
0100
1000
0010
1000
,
0001
0001
0000
0000
0000
0000
0000
0000
,
1001
0000
0100
0000
1001
0000
0001
0200
,
0000
0010
0310
0000
0100
0000
1010
0000
,
1000
0100
0001
0100
1000
0000
0100
0000
,
1000
0010
1000
0000
0001
0001
0001
0000
,
0011
0000
1000
0000
0011
0000
0001
0200
,
0000
0010
0310
0000
0100
0000
0101
0000
,
0001
1000
0100
1000
0001
0000
0010
0001
,
0010
0100
0010
0000
0001
0001
0001
0000
,
1000
0100
1000
0000
1001
0000
0010
1000
,
0000
0100
1000
0100
0010
0000
0011
0000
,
0001
0100
0001
0000
1001
0000
1000
0010
,
0000
1000
0001
0100
0001
1000
0010
0000
,
0010
0000
0100
0000
0010
0010
0010
0000
,
1000
0000
0100
0000
1000
1000
1000
0000
,
0001
0001
0001
1000
3001
0001
0001
1000
,
0010
1000
0010
0100
0002
0000
2003
0000
,
0200
0000
0000
0000
,
0000
0000
3300
0000
,
2002
3003
0000
0000
0000
0000
0000
0000
0000
0000
0000
0000
0000
0000
0000
0000
0000
0000
0000
0000
0000
0000
0000
0000
0000
0000
0000
0000
0000
0000
0000
0000
0000
0000
0000
0000
0000
0000
0000
0000
0000
0000
0000
0000
0000
0000
0000
0000
1000
0000
0000
0000
0000
0000
0000
0000
0000
0000
0000
0000
0000
0000
0000
0000
0000
0000
0000
0000
0000
0000
0000
0000
0010
0000
0000
0000
0000
0000
0000
0000
0000
0000
0000
0000
0000
0000
0000
0000
0000
0000
0000
0000
0000
0000
0000
0000
1000
0000
0000
0000
0000
0000
0000
0000
0000
0000
0000
0000
0000
0000
0000
0000
0000
0000
0000
0000
0000
0000
0000
0000
0000
0000
0000
0000
0000
0000
0000
0000
0000
0000
0000
0000
0000
0000
0000
0000
0000
0000
0000
0000
0000
0000
0000
0000
0001
0000
0000
0000
0000
0000
0000
0000
0000
0000
0000
0000
0000
0000
0000
0000
0000
0000
0000
0000
0000
0000
0000
0000
0000
0000
0000
0000
0000
0000
0000
0000
0000
0000
0000
0000
0001
0000
0000
0000
0000
0000
0000
0000
0000
0000
0000
0000
,
0000
0001
0000
0100
0001
0000
0010
0010
,
0010
0000
0001
0010
0001
0000
1000
0001
,
0000
0101
0000
0010
1000
0001
0100
0000
,
0110
0000
0000
0000
0010
0000
1000
0000
0010
0000
0000
0000
0100
0000
0000
0100
,
0000
0100
0000
0001
1000
0000
0010
0010
,
0010
0000
1000
0010
1000
0000
0001
0100
,
0000
0101
0000
0001
1000
0100
0010
0000
,
0011
0000
0000
0000
1001
0000
0000
0000
0100
0000
0000
0000
1000
0000
0000
0010
,
0000
1000
0100
0000
1100
0000
1000
0001
,
1000
0000
0001
0100
0001
1000
0010
1000
,
0100
0010
0001
0010
0100
1000
1100
0000
,
1001
0000
0000
0000
0001
0000
0000
0000
0100
0000
0000
0000
0001
0000
0000
0010
,
0000
0001
1000
0000
0110
0000
1000
0010
,
1000
0000
0001
0100
0001
0100
0010
1000
,
0010
1000
0100
0010
0001
0010
0100
1000
,
1100
0000
1001
0000
0000
0101
0000
0000
,
1001
1001
0000
0000
0000
0000
0000
0000
;

//---------------dance-single - ----------------
#NOTEDATA:;
#CHARTNAME:;
#STEPSTYPE:dance-single;
#BANNER:;
#DESCRIPTION:;
#CHARTSTYLE:;
#DIFFICULTY:Easy;
#METER:6;
#METERF:0.000000;
#RADARVALUES:0.313696,0.413136,0.242131,0.116891,0.004175,263.000000,234.000000,29.000000,14.000000,0.000000,0.000000,0.000000,0.000000,0.000000,0.313696,0.413136,0.242131,0.116891,0.004175,263.000000,234.000000,29.000000,14.000000,0.000000,0.000000,0.000000,0.000000,0.000000;
#CREDIT:;
#NOTES:
0000
0000
0000
0000
,
0000
0000
0000
0000
,
0000
0000
0000
0000
,
0000
0000
0000
0000
,
1000
1000
0100
0000
,
1000
0000
0010
0010
,
0100
0101
0100
0110
,
0010
1000
0010
1000
,
0001
0001
0100
0000
,
0010
0000
1000
1000
,
0100
1100
0100
1010
,
1000
0001
0100
0001
,
1001
0000
0000
0100
0000
0000
0000
0000
,
1001
0000
0000
0010
0000
0000
0000
0000
,
0001
0001
1000
1000
,
0010
0100
0001
0010
,
0011
0000
0000
0100
0000
0000
0000
0000
,
1010
0000
0000
0100
0000
0000
0000
0000
,
0001
0001
1000
1000
,
0010
0100
0001
0010
,
0200
0000
0000
1000
1300
0000
1010
0000
,
2000
0000
0000
0001
3001
0000
0101
0000
,
0002
0000
0000
0010
0013
0000
0001
0000
,
1000
0100
1000
0010
,
2000
0000
0000
0001
3001
0000
0110
0000
,
0020
0000
0000
1000
1030
0000
1001
0000
,
0200
0000
0000
0001
0301
0000
0100
0000
,
0001
1000
0010
1000
,
0100
0100
1000
0000
,
1000
1000
0001
0000
,
0000
0100
0001
0100
,
0010
1000
0100
1001
,
1000
0000
1000
0000
,
1000
0000
0001
0000
,
0001
0001
0100
0100
,
0010
0010
1000
1001
,
0010
0000
0010
0000
,
0100
0000
0100
0000
,
1000
1000
0001
0001
,
0100
0010
1000
0001
,
1000
0001
0000
0000
0000
0000
0000
0000
,
0001
0000
0101
0000
1001
0000
0000
1000
,
0000
0010
1000
0000
0100
0000
1100
0000
,
1000
1010
1001
0000
,
0001
0100
0002
0003
,
1000
0000
1001
0000
0101
0000
0000
0100
,
0000
0010
1000
0000
1100
0000
0110
0000
,
0010
0001
0010
0001
,
1000
0001
2000
3000
,
0001
0000
0001
0000
0101
0000
0000
1001
,
0000
1000
0010
1010
,
1000
1000
1100
0000
,
1000
0001
0020
0030
,
0001
0001
1000
0100
,
1000
1000
0010
0100
,
0002
0000
2003
0000
,
3100
1000
0010
1000
,
0200
0000
0000
0000
,
0000
0000
0000
0300
,
2002
3003
0000
0000
0000
0000
0000
0000
0000
0000
0000
0000
0000
0000
0000
0000
0000
0000
0000
0000
0000
0000
0000
0000
0000
0000
0000
0000
0000
0000
0000
0000
0000
0000
0000
0000
0000
0000
0000
0000
0000
0000
0000
0000
0000
0000
0000
0000
1000
0000
0000
0000
0000
0000
0000
0000
0000
0000
0000
0000
0000
0000
0000
0000
0000
0000
0000
0000
0000
0000
0000
0000
0000
0000
0000
0000
0000
0000
0000
0000
0000
0000
0000
0000
0000
0000
0000
0000
0000
0000
0000
0000
0000
0000
0000
0000
1000
0000
0000
0000
0000
0000
0000
0000
0000
0000
0000
0000
0000
0000
0000
0000
0000
0000
0000
0000
0000
0000
0000
0000
0000
0000
0000
0000
0000
0000
0000
0000
0000
0000
0000
0000
0000
0000
0000
0000
0000
0000
0000
0000
0000
0000
0000
0000
0010
0000
0000
0000
0000
0000
0000
0000
0000
0000
0000
0000
0000
0000
0000
0000
0000
0000
0000
0000
0000
0000
0000
0000
0000
0000
0000
0000
0000
0000
0000
0000
0000
0000
0000
0000
0000
0000
0000
0000
0000
0000
0000
0000
0000
0000
0000
0000
,
0000
0100
0000
0001
,
0001
1000
0000
0001
,
0000
1000
0000
0010
,
0100
0001
0001
1000
,
0000
1000
0000
0010
,
0010
0100
0001
0100
,
0010
1000
0100
1000
,
0001
0100
0000
0100
,
0000
0010
0000
0010
,
0000
1000
1000
0100
,
0001
0100
1000
1000
,
0010
0100
0000
0100
,
0000
0001
0000
0001
,
0000
1000
1000
0001
,
0001
0010
1000
0010
,
0001
0000
0101
0000
0000
0001
0000
0000
,
1000
0001
0000
0000
0000
0000
0000
0000
;

//---------------dance-single - ----------------
#NOTEDATA:;
#CHARTNAME:;
#STEPSTYPE:dance-single;
#BANNER:;
#DESCRIPTION:;
#CHARTSTYLE:;
#DIFFICULTY:Beginner;
#METER:5;
#METERF:0.000000;
#RADARVALUES:0.165794,0.317275,0.041747,0.066795,0.000000,139.000000,134.000000,5.000000,8.000000,0.000000,0.000000,0.000000,0.000000,0.000000,0.165794,0.317275,0.041747,0.066795,0.000000,139.000000,134.000000,5.000000,8.000000,0.000000,0.000000,0.000000,0.000000,0.000000;
#CREDIT:;
#NOTES:
// measure 0
0000
0000
0000
0000
,  // measure 1
0000
0000
0000
0000
,  // measure 2
0000
0000
0000
0000
,  // measure 3
0000
0000
0000
0000
,  // measure 4
1000
0000
1000
0000
,  // measure 5
1000
0000
0000
0000
,  // measure 6
0001
0000
0001
0000
,  // measure 7
0001
0000
0000
0000
,  // measure 8
0100
0000
0100
0000
,  // measure 9
0100
0000
0000
0000
,  // measure 10
0010
0000
0010
0000
,  // measure 11
0010
0000
0000
0000
,  // measure 12
1000
1000
1000
0100
,  // measure 13
0000
1000
0000
1000
,  // measure 14
0001
0001
0001
0100
,  // measure 15
0000
0100
0000
1001
,  // measure 16
0010
0010
0010
0100
,  // measure 17
0000
0100
0000
0001
,  // measure 18
1000
1000
1000
0010
,  // measure 19
0000
0010
0000
1001
,  // measure 20
0200
0000
0300
0000
,  // measure 21
0200
0000
0300
0000
,  // measure 22
0020
0000
0030
0000
,  // measure 23
1000
1000
1000
0000
,  // measure 24
0002
0000
0003
0000
,  // measure 25
0002
0000
0003
0000
,  // measure 26
0200
0000
0300
0000
,  // measure 27
0010
0010
0010
0000
,  // measure 28
1000
0000
1000
0000
,  // measure 29
0100
0000
0100
0000
,  // measure 30
1000
0000
1000
0000
,  // measure 31
0001
0000
0001
0000
,  // measure 32
0100
0000
0000
0000
,  // measure 33
0010
0000
0000
0000
,  // measure 34
1000
0000
0000
0000
,  // measure 35
0001
0000
0000
0000
,  // measure 36
1000
0000
0000
0000
,  // measure 37
0100
0000
0000
0000
,  // measure 38
1000
0000
0000
0000
,  // measure 39
0010
0000
0000
0000
,  // measure 40
1001
0000
0000
0000
,  // measure 41
1000
1000
1000
0000
,  // measure 42
0000
0000
0010
0000
,  // measure 43
0100
0100
0100
0000
,  // measure 44
0000
0000
0001
0000
,  // measure 45
0010
0010
0010
0000
,  // measure 46
0000
0000
0001
0000
,  // measure 47
1000
1000
1000
0000
,  // measure 48
0000
0000
0001
0000
,  // measure 49
0100
0100
0100
0000
,  // measure 50
0010
0000
0010
0000
,  // measure 51
1000
1000
1000
0000
,  // measure 52
0001
0000
0001
0000
,  // measure 53
0100
0100
0100
0000
,  // measure 54
0001
0000
0001
0000
,  // measure 55
0010
0010
0010
0010
,  // measure 56
0010
0001
0100
0001
,  // measure 57
2002
0000
0000
0000
,  // measure 58
0000
0000
0000
0000
,  // measure 59
3003
1000
0000
1000
,  // measure 60
0000
1000
0000
0000
,  // measure 61
0000
0010
0000
0010
,  // measure 62
0000
0010
0000
0000
,  // measure 63
0000
0100
0000
0100
,  // measure 64
0000
0100
0000
0000
,  // measure 65
0000
0001
0000
0001
,  // measure 66
0000
0001
0000
0000
,  // measure 67
0000
1000
0000
1000
,  // measure 68
0000
0100
0000
0010
,  // measure 69
0000
0001
0000
0001
,  // measure 70
0000
0100
0000
0000
,  // measure 71
0000
0001
0000
0001
,  // measure 72
0000
1000
0000
0100
,  // measure 73
0000
0010
0000
0010
,  // measure 74
0000
0001
0000
0000
,  // measure 75
0000
0000
1000
0000
0000
0001
0000
0000
,  // measure 76
1001
0000
0000
0000
;
