#VERSION:0.83;
#TITLE:DISCO☆PRINCE;
#SUBTITLE:;
#ARTIST:新沼謙治;
#TITLETRANSLIT:;
#SUBTITLETRANSLIT:;
#ARTISTTRANSLIT:KENJI NINUMA;
#GENRE:;
#ORIGIN:;
#TAGS:;
#CREDIT:;
#BANNER:DISCO PRINCE.png;
#BACKGROUND:DISCO PRINCE-bg.png;
#PREVIEWVID:;
#JACKET:DISCO PRINCE-jacket.png;
#CDIMAGE:;
#DISCIMAGE:;
#LYRICSPATH:;
#CDTITLE:We Love Katamari.png;
#MUSIC:DISCO PRINCE.ogg;
#OFFSET:-0.025000;
#SAMPLESTART:89.598007;
#SAMPLELENGTH:15.000000;
#SELECTABLE:YES;
#BPMS:0.000000=120.000000
;
#STOPS:15.000000=1.817000
;
#DELAYS:;
#WARPS:;
#TIMESIGNATURES:0.000000=4=4
;
#TICKCOUNTS:0.000000=4
;
#COMBOS:0.000000=1
;
#SPEEDS:0.000000=1.000000=0.000000=0
;
#SCROLLS:0.000000=1.000000
;
#LABELS:0.000000=Song Start
;
#BGCHANGES:15.000=fireworks1.mp4=0.001=1=0=1===CrossFade==,
16.000=fireworks1.mp4=1.000=0=0=1=====,
32.000=star1.mp4=1.000=0=0=1=====,
48.000=planet1.mp4=1.000=0=0=1=====,
64.000=tunnel9.mp4=1.000=0=0=1=====,
80.000=tunnel5.mp4=1.000=0=0=1=====,
90.000=disco4.mp4=1.000=0=0=1=====,
92.000=disco1.mp4=1.400=0=0=1=====,
94.000=disco4.mp4=1.000=0=0=1=====,
96.000=star1.mp4=1.000=0=1=1=StretchRewind====,
104.000=star2.mp4=1.400=0=0=1=====,
112.000=dance12.mp4=1.400=0=0=1=====,
120.000=planet1.mp4=1.000=0=1=1=StretchRewind====,
128.000=ring8.mp4=1.400=0=0=1=====,
136.000=disco1.mp4=1.400=0=1=1=StretchRewind====,
140.000=disco4.mp4=1.000=0=1=1=StretchRewind====,
144.000=fireworks1.mp4=1.000=0=1=1=StretchRewind====,
160.000=heart1.mp4=1.000=0=0=1=====,
176.000=disco1.mp4=1.400=0=1=1=StretchRewind====,
184.000=tunnel5.mp4=1.000=0=1=1=StretchRewind====,
192.000=tunnel9.mp4=1.000=0=1=1=StretchRewind====,
200.000=star1.mp4=1.000=0=1=1=StretchRewind====,
208.000=dance12.mp4=1.400=0=1=1=StretchRewind====,
216.000=ring8.mp4=1.400=0=1=1=StretchRewind====,
224.000=disco4.mp4=1.000=0=1=1=StretchRewind====,
232.000=fireworks1.mp4=1.000=0=1=1=StretchRewind====,
235.500=star2.mp4=1.600=0=1=1=StretchRewind====,
239.500=DISCO PRINCE-bg.png=1.000=0=0=1=====,
99999=-nosongbg-=1.000=0=0=0 // don't automatically add -songbackground-
;
#KEYSOUNDS:;
#ATTACKS:
;

//---------------dance-single - ----------------
#NOTEDATA:;
#CHARTNAME:;
#CHARTHASH:1493434137;
#STEPSTYPE:dance-single;
#BANNER:;
#DESCRIPTION:;
#CHARTSTYLE:;
#DIFFICULTY:Beginner;
#METER:3;
#METERF:3.000000;
#LASTSECONDHINT:121.592003;
#RADARVALUES:0.099965,0.170515,0.040683,0.113914,0.000000,86.000000,81.000000,5.000000,14.000000,0.000000,0.000000,0.000000,0.000000,0.000000,0.099965,0.170515,0.040683,0.113914,0.000000,86.000000,81.000000,5.000000,14.000000,0.000000,0.000000,0.000000,0.000000,0.000000;
#CREDIT:;
#NOTES:
0000
0000
0000
0000
,
0000
0000
0000
0000
,
0000
0000
0000
0000
,
0000
0000
0000
0000
,
1000
0000
0000
0000
,
1000
0000
0000
0000
,
0001
0000
0000
0000
,
0001
0000
0000
0000
,
1000
0000
0000
0000
,
0001
0000
0000
0000
,
1000
0000
0000
0000
,
0001
0000
0000
0000
,
0100
0000
0000
0000
,
0100
0000
0000
0000
,
0010
0000
0000
0000
,
0010
0000
0000
0000
,
0100
0000
0000
0000
,
0010
0000
0000
0000
,
0100
0000
0000
0000
,
0010
0000
0000
0000
,
1000
1000
1000
0000
,
0001
0000
0010
0000
,
0100
0100
0200
0300
,
1000
1000
2000
3000
,
0001
0000
0001
0000
,
1000
0000
1000
0000
,
0020
0000
0000
0030
,
0200
0000
0000
0300
,
0001
0000
0001
0000
,
1000
0000
1000
0000
,
0010
0000
0010
0000
,
0100
0000
0100
0000
,
0001
0000
0000
0000
,
1000
0000
0000
0000
,
0010
0000
0000
0000
,
0100
0000
0000
0000
,
0220
0000
0000
0000
,
0330
0000
0000
0000
,
2002
0000
0000
0000
,
3003
0000
0000
0000
,
0220
0000
0000
0000
,
0330
0000
0000
0000
,
2002
0000
0000
0000
,
3003
0000
0000
0000
,
1000
1000
1000
0000
,
1000
0000
0000
0000
,
0001
0001
0001
0000
,
0001
0000
0000
0000
,
1000
1000
1000
0000
,
0010
0000
0000
0000
,
1000
1000
1000
0000
,
0100
0000
0000
0000
,
1000
0010
1000
0000
,
0001
0000
0000
0000
,
0001
0100
0001
0000
,
1000
0000
0000
0000
,
0010
0100
0010
0000
,
0100
0000
0000
0000
,
0100
0010
0100
0000
,
2002
0000
0000
0000
0000
0000
0000
3003
;

//---------------dance-single - ----------------
#NOTEDATA:;
#CHARTNAME:;
#CHARTHASH:3817824856;
#STEPSTYPE:dance-single;
#BANNER:;
#DESCRIPTION:;
#CHARTSTYLE:;
#DIFFICULTY:Easy;
#METER:7;
#METERF:7.000000;
#LASTSECONDHINT:121.592003;
#RADARVALUES:0.216204,0.243592,0.130187,0.105777,0.000000,186.000000,170.000000,16.000000,13.000000,0.000000,0.000000,0.000000,0.000000,0.000000,0.216204,0.243592,0.130187,0.105777,0.000000,186.000000,170.000000,16.000000,13.000000,0.000000,0.000000,0.000000,0.000000,0.000000;
#CREDIT:;
#NOTES:
0000
0000
0000
0000
,
0000
0000
0000
0000
,
0000
0000
0000
0000
,
0000
0000
0000
0000
,
1000
0000
1000
0000
0000
0001
0000
0001
,
0000
0000
0001
0000
0000
0100
0000
0100
,
0000
0000
0010
0000
0000
1000
0000
1000
,
0000
0000
0001
0000
0000
1000
0000
0000
,
1000
0100
0010
0000
,
0010
0100
1000
0000
,
0001
0000
1000
0000
0001
0000
0000
1000
,
0000
1000
0000
0001
0000
0001
0000
0000
,
1000
0000
1000
0000
0000
0010
0000
0010
,
0000
0000
0100
0000
0000
0001
0000
0001
,
0000
0000
1000
0000
0000
0010
0000
0010
,
0000
0000
0100
0000
0000
0001
0000
0000
,
0001
0010
1000
0000
,
1000
0010
0001
0000
,
0100
0000
0100
0000
0100
0000
0000
0001
,
0000
0001
0000
1000
0000
1000
0000
0000
,
1001
0010
0010
0000
,
1001
0100
0100
0000
,
1000
0010
2002
3003
,
0001
0010
2002
3003
,
0100
0100
0010
0010
,
1000
1000
0100
0100
,
1000
0000
1000
0000
,
0001
0000
0001
0000
,
0100
1001
0010
1001
,
0100
0000
0100
0000
,
1000
0101
1000
0110
,
1000
0000
0001
0000
,
0010
0010
0001
0001
,
1000
0100
0001
0100
,
1000
0000
0010
0000
,
0100
0001
0100
0010
,
2001
0000
0000
0000
0000
3010
0000
1002
,
0000
0000
0000
0000
0000
0103
0000
2001
,
0000
0000
0000
0000
0000
3010
0000
0210
,
0000
0000
0000
0000
0000
0301
0000
1002
,
0000
0000
0000
0000
0000
0013
0000
0210
,
0000
0000
0000
0000
0000
1300
0000
1002
,
0000
0000
0000
0000
0000
1003
0000
1000
,
0000
0001
0000
0001
0000
0100
0000
0000
,
0010
0010
1000
0010
,
1000
1000
0001
1000
,
0001
0000
0001
0000
,
1000
0000
1000
0000
,
0010
0010
0100
0010
,
0001
0001
0010
0100
,
0010
0000
1000
0000
,
0010
0100
0001
1000
,
0010
0010
1000
0100
,
0010
0010
0001
0010
,
0001
0000
1000
0000
,
0001
0000
0100
0000
,
0010
0010
1000
0100
,
0100
1000
0010
0010
,
0100
0001
0100
0010
,
2002
0000
0000
0000
0000
0003
0000
3001
;

//---------------dance-single - ----------------
#NOTEDATA:;
#CHARTNAME:;
#CHARTHASH:4272643609;
#STEPSTYPE:dance-single;
#BANNER:;
#DESCRIPTION:;
#CHARTSTYLE:;
#DIFFICULTY:Medium;
#METER:9;
#METERF:9.000000;
#LASTSECONDHINT:121.592003;
#RADARVALUES:0.327793,0.365389,0.187144,0.170871,0.000000,282.000000,259.000000,23.000000,21.000000,0.000000,0.000000,0.000000,0.000000,0.000000,0.327793,0.365389,0.187144,0.170871,0.000000,282.000000,259.000000,23.000000,21.000000,0.000000,0.000000,0.000000,0.000000,0.000000;
#CREDIT:;
#NOTES:
0000
0000
0000
0000
,
0000
0000
0000
0000
,
0000
0000
0000
0000
,
0000
0000
0000
0000
,
1000
0000
1000
0000
0000
0001
0010
0100
,
1000
0000
1000
0000
0000
1000
0100
0010
,
0001
0000
0001
0000
0000
0001
1000
0010
,
0100
0000
0100
0000
0000
0100
0010
1000
,
0001
0000
0001
0000
0000
0001
1000
0100
,
0010
0000
0010
0000
0000
0010
0001
1000
,
0100
0000
0100
0000
0000
1000
0000
1001
,
0000
0011
0000
1001
0000
1000
0001
0010
,
0100
0000
0100
0000
0000
1000
0001
1000
,
0001
0000
0100
0000
0000
0001
1000
0001
,
1000
0000
0010
0000
0000
1000
0100
1000
,
0100
0000
0010
0000
0000
0001
0010
0001
,
1000
0000
0001
0000
0000
1000
0100
1000
,
0001
0000
0100
0000
0000
0001
0010
0100
,
1000
0000
0001
0000
0000
1000
0000
1001
,
0000
0110
0000
1001
0000
0010
0100
0000
,
1001
0000
1000
0000
1000
0100
0001
0000
,
0100
0000
1000
0000
0001
0010
1000
0000
,
0010
0001
2002
3003
,
0100
0010
0220
0330
,
0010
0010
1000
1000
,
0001
0100
0001
0000
0100
0001
0100
0000
,
0001
0010
0100
1000
,
0100
0000
0010
0000
0100
0100
0100
0000
,
1000
0100
1000
0000
0001
1000
0001
0000
,
0010
0001
0010
0000
0001
0001
0001
0000
,
1000
0001
1000
0000
0001
0010
0001
0000
,
0100
0010
0100
0000
0010
0010
0010
0000
,
1000
0000
0001
0000
1000
0010
0001
0000
,
0010
0000
1000
0000
0001
0100
1000
0000
,
0200
0000
0000
0000
0301
0001
0001
0000
,
1000
0001
1000
0010
,
0220
0000
0000
0030
0000
0301
0000
0202
,
0000
0000
0000
0300
0000
1003
0000
2020
,
0000
0000
0000
3000
0000
0130
0000
2002
,
0000
0000
0000
0003
0000
3010
0000
0202
,
0000
0000
0000
0300
0000
1003
0000
0220
,
0000
0000
0000
0030
0000
0301
0000
2002
,
0000
0000
0000
0003
0000
3010
0000
1001
,
0000
0011
0000
0101
0000
0100
0010
1000
,
0001
0000
0010
0000
0100
1000
0001
0100
,
0001
0000
1000
0100
0001
0000
0001
0100
,
1000
0100
0010
0100
,
1000
0001
1000
0010
0100
0000
1001
0000
,
0010
0000
1000
0000
0001
0000
1000
0010
,
0001
0000
0001
0010
1000
0000
0010
0000
,
0100
0001
0100
0000
0001
1000
0001
0000
,
0100
0100
0100
0000
0010
0010
0010
0000
,
1001
0000
0100
0000
0010
0001
0010
0000
,
0001
0000
0100
1000
0100
0000
0100
0001
,
0100
0000
0010
0000
1000
0001
1000
0001
,
0000
1001
0000
0001
0010
0000
0100
1000
,
0100
0000
1000
0000
0001
0000
0010
0001
,
0010
0000
0001
0000
1000
0000
0001
1000
,
0001
1000
0100
0010
0001
1000
0010
0220
,
0000
0000
0000
0000
0000
0030
0000
0310
;

//---------------dance-single - ----------------
#NOTEDATA:;
#CHARTNAME:;
#CHARTHASH:2986919557;
#STEPSTYPE:dance-single;
#BANNER:;
#DESCRIPTION:;
#CHARTSTYLE:;
#DIFFICULTY:Hard;
#METER:12;
#METERF:12.000000;
#LASTSECONDHINT:121.592003;
#RADARVALUES:0.491689,0.511544,0.195281,0.162734,0.317331,423.000000,399.000000,24.000000,20.000000,0.000000,0.000000,0.000000,0.000000,0.000000,0.491689,0.511544,0.195281,0.162734,0.317331,423.000000,399.000000,24.000000,20.000000,0.000000,0.000000,0.000000,0.000000,0.000000;
#CREDIT:;
#NOTES:
// measure 0
0000
0000
0000
0000
,  // measure 1
0000
0000
0000
0000
,  // measure 2
0000
0000
0000
0000
,  // measure 3
0000
0000
0000
0000
,  // measure 4
1000
0000
0000
0000
0010
0000
0000
0010
1000
0001
0100
0000
0010
0000
1000
0000
,  // measure 5
0100
0000
0000
0000
1000
0000
0000
1000
0100
0010
0001
0000
0100
0000
0010
0000
,  // measure 6
1000
0000
0000
0000
0001
0000
0000
0001
1000
0100
0010
0000
0100
0000
0010
0000
,  // measure 7
0001
0000
0000
0000
0100
0000
0000
0001
0100
0010
1000
0000
0001
0000
0001
0000
,  // measure 8
0000
0000
1000
0000
0001
0000
0000
0001
1000
0000
0010
0000
1000
0000
1000
0000
,  // measure 9
0000
0000
0010
0000
0100
0000
0000
0100
0001
0000
1000
0000
0100
0000
0100
0000
,  // measure 10
0000
0000
1000
0000
0010
0000
0000
0010
1000
0000
1100
0000
0000
0000
0100
1000
,  // measure 11
0000
0000
0001
0100
0000
0000
0010
0100
0000
0000
1001
0000
1001
0000
0100
0000
,  // measure 12
0010
0000
0000
0000
0001
0000
0000
0000
1000
0000
0001
0100
0001
0000
1000
0010
,  // measure 13
1000
0000
0000
0000
0010
0000
0000
0010
0100
0000
0100
0001
0100
0000
0100
0010
,  // measure 14
0100
0000
0000
0000
0010
0000
0000
0000
1000
0000
0001
1000
0001
0000
1000
0010
,  // measure 15
1000
0000
0000
0000
0100
0000
0000
0100
1000
0000
1000
0010
1000
0000
1000
0100
,  // measure 16
1000
0000
0000
0000
0100
0000
0000
0000
0010
0000
0001
0010
0001
0000
0100
0010
,  // measure 17
0100
0000
0000
0000
0010
0000
0000
0010
1000
0000
0001
0100
0001
0000
0001
1000
,  // measure 18
0001
0000
0000
0000
1000
0000
0000
1000
0010
0000
0110
0000
0000
0000
0100
0001
,  // measure 19
0000
0000
1000
0010
0000
0000
0100
0010
0000
0000
1001
0000
1001
0000
1000
0001
,  // measure 20
1000
0000
0000
0000
0010
0000
0000
0000
1000
0000
1000
0100
0000
0000
1000
0000
,  // measure 21
0010
0000
0010
0000
0100
0000
0001
0000
0100
0001
0100
0001
0000
0000
1000
0000
,  // measure 22
0001
0100
0001
0000
0000
0001
1000
0010
0220
0000
0000
0000
0000
0000
0330
0000
,  // measure 23
0000
1000
0000
1000
0001
0000
1000
0001
2002
0000
0000
0000
0000
0000
3003
0000
,  // measure 24
0001
0000
0100
0000
0010
1000
1000
0000
,  // measure 25
0100
0000
1000
0000
0001
1000
1000
0010
,  // measure 26
1000
1000
0100
0100
0010
0010
0001
0001
,  // measure 27
0100
0100
0001
0001
0010
0011
1001
0000
,  // measure 28
0001
0000
1000
0001
0000
0000
0001
0000
0100
0000
0001
0010
0001
0000
1000
0100
,  // measure 29
1000
0000
0010
0000
0100
0000
0000
0000
0010
1000
0010
0000
1001
0000
0000
0000
,  // measure 30
1000
0000
0100
0000
0001
0000
0000
0000
0100
1000
0100
0000
0010
0000
0000
0000
,  // measure 31
0100
0000
1000
0000
0001
0000
0010
0000
0001
0000
1000
0100
1000
0000
0000
0000
,  // measure 32
0010
0000
0100
0000
0001
0000
0010
0000
0001
0000
1000
0100
0000
0000
0000
0010
,  // measure 33
0001
0000
0100
0000
1000
0000
0100
0000
0001
0000
0100
0010
0000
0000
0010
0000
,  // measure 34
0000
1000
0000
1000
0010
0000
0100
0000
0001
0000
0001
0000
0001
0000
0000
0000
,  // measure 35
1001
0000
1000
0001
0000
1000
0001
0000
0100
0000
0010
0000
1000
0000
0010
0000
,  // measure 36
2020
0000
0000
0000
0000
0000
0000
0000
3030
0000
0001
0100
0000
0000
0002
2000
,  // measure 37
0000
0000
0000
0000
0000
0000
0000
0000
3003
0000
1000
0100
0000
0000
2000
0002
,  // measure 38
0000
0000
0000
0000
0000
0000
0000
0000
3003
0000
0001
0010
0000
0000
0020
0200
,  // measure 39
0000
0000
0000
0000
0000
0000
0000
0000
0330
0000
1000
0100
0000
0000
2000
0002
,  // measure 40
0000
0000
0000
0000
0000
0000
0000
0000
3003
0000
0001
0010
0000
0000
0200
0020
,  // measure 41
0000
0000
0000
0000
0000
0000
0000
0000
0330
0000
0010
0001
0000
0000
0002
2000
,  // measure 42
0000
0000
0000
0000
0000
0000
0000
0000
3003
0000
1000
0001
0000
0000
0001
1000
,  // measure 43
0000
0000
1000
0010
0000
0000
0110
0000
0000
0000
0010
0000
1000
0000
0100
1000
,  // measure 44
0100
1000
0010
0001
0010
1000
0100
0101
,  // measure 45
0000
0100
1000
1000
0010
0100
0001
0010
,  // measure 46
0100
1000
0001
0010
0001
1000
0100
0010
,  // measure 47
0011
0001
0100
0010
1010
1000
0001
1001
,  // measure 48
0000
0001
0100
1000
0100
0001
0010
0011
,  // measure 49
0000
1000
0001
0001
1000
0100
0010
0100
,  // measure 50
1000
1000
0001
0100
0001
0001
1000
0010
,  // measure 51
0110
0100
0001
1000
1001
0001
0100
0110
,  // measure 52
0000
0000
1000
0000
0010
1000
0010
0000
1000
0000
1000
0000
0001
0000
0101
0000
,  // measure 53
0000
0000
0010
0000
0001
1000
0001
0000
1000
0000
0100
0000
0001
0000
0100
0000
,  // measure 54
1000
0010
1000
0000
0010
0000
0100
0000
0001
0100
0001
0000
1000
0000
0010
0000
,  // measure 55
0000
0000
0010
0000
0100
0000
1000
0000
0100
0000
0001
0000
0100
0000
0010
0100
,  // measure 56
0000
0000
0010
0000
1000
0000
0100
0000
1000
0000
0001
0000
0010
0000
0001
0010
,  // measure 57
0000
0001
0100
0010
1000
0100
0001
0100
,  // measure 58
1000
1000
0100
0001
0100
0100
0010
0220
,  // measure 59
0000
0000
0000
0000
0000
0300
0000
0130
;
