#VERSION:0.83;
#TITLE:DISCO LOCO;
#SUBTITLE:(German Mix);
#ARTIST:MASTERPLAN;
#TITLETRANSLIT:;
#SUBTITLETRANSLIT:;
#ARTISTTRANSLIT:;
#GENRE:;
#ORIGIN:;
#TAGS:;
#CREDIT:;
#BANNER:DISCO LOCO (German Mix).png;
#BACKGROUND:DISCO LOCO (German Mix)-bg.png;
#PREVIEWVID:;
#JACKET:DISCO LOCO (German Mix)-jacket.png;
#CDIMAGE:;
#DISCIMAGE:;
#LYRICSPATH:;
#CDTITLE:DANCE MANIA X6.PNG;
#MUSIC:DISCO LOCO (German Mix).ogg;
#OFFSET:-0.020000;
#SAMPLESTART:7.047124;
#SAMPLELENGTH:15.000000;
#SELECTABLE:YES;
#BPMS:0.000000=135.610001
;
#STOPS:;
#DELAYS:;
#WARPS:;
#TIMESIGNATURES:0.000000=4=4
;
#TICKCOUNTS:0.000000=4
;
#COMBOS:0.000000=1
;
#SPEEDS:0.000000=1.000000=0.000000=0
;
#SCROLLS:0.000000=1.000000
;
#LABELS:0.000000=Song Start
;
#BGCHANGES:8.000=afro1.mp4=0.800=1=0=1===CrossFade==,
16.000=cards2.mp4=1.000=0=0=1=====,
24.000=cards3.mp4=1.000=0=0=1=====,
32.000=cards2.mp4=1.000=0=0=1=====,
40.000=cards3.mp4=1.000=0=0=1=====,
48.000=dance7.mp4=1.000=0=0=1=====,
56.000=dance6.mp4=1.400=0=0=1=====,
60.000=dance4.mp4=1.000=0=0=1=====,
64.000=cards5.mp4=1.000=0=0=1=====,
72.000=cards7.mp4=1.000=0=0=1=====,
76.000=afro1.mp4=1.400=0=1=1=StretchRewind====,
80.000=girl2.mp4=1.000=0=0=1=====,
88.000=disco3.mp4=1.200=0=0=1=====,
96.000=girl2.mp4=1.000=0=1=1=StretchRewind====,
104.000=disco4.mp4=1.000=0=0=1=====,
108.000=afro1.mp4=1.400=0=1=1=StretchRewind====,
112.000=cards2.mp4=1.000=0=1=1=StretchRewind====,
120.000=cards3.mp4=1.000=0=1=1=StretchRewind====,
128.000=cards2.mp4=1.000=0=0=1=====,
136.000=cards3.mp4=1.000=0=0=1=====,
144.000=dancers3.mp4=1.000=0=0=1=====,
148.000=dancers4.mp4=1.000=0=0=1=====,
152.000=dancers5.mp4=1.000=0=0=1=====,
156.000=dancers6.mp4=1.400=0=0=1=====,
160.000=dance4.mp4=1.000=0=1=1=StretchRewind====,
168.000=cards7.mp4=1.000=0=1=1=StretchRewind====,
172.000=afro1.mp4=1.400=0=1=1=StretchRewind====,
176.000=cards4.mp4=1.000=0=1=1=StretchRewind====,
184.000=cards5.mp4=1.000=0=1=1=StretchRewind====,
192.000=cards4.mp4=1.000=0=0=1=====,
200.000=cards5.mp4=1.000=0=0=1=====,
203.750=DISCO LOCO (German Mix)-bg.png=1.000=0=0=1=====,
99999=-nosongbg-=1.000=0=0=0 // don't automatically add -songbackground-
;
#KEYSOUNDS:;
#ATTACKS:
;

//---------------dance-single - ----------------
#NOTEDATA:;
#CHARTNAME:;
#CHARTHASH:3507865152;
#STEPSTYPE:dance-single;
#BANNER:;
#DESCRIPTION:;
#CHARTSTYLE:;
#DIFFICULTY:Beginner;
#METER:3;
#METERF:3.000000;
#LASTSECONDHINT:91.606163;
#RADARVALUES:0.000000,0.000000,0.000000,0.000000,0.000000,0.000000,0.000000,0.000000,0.000000,0.000000,0.000000,0.000000,0.000000,0.000000,0.000000,0.000000,0.000000,0.000000,0.000000,0.000000,0.000000,0.000000,0.000000,0.000000,0.000000,0.000000,0.000000,0.000000;
#CREDIT:;
#NOTES:
0000
0000
0000
0000
,
0000
0000
0000
0000
,
0000
0000
0000
0000
,
0000
0000
0000
0000
,
1000
1000
1000
0000
,
0001
0000
0000
0000
,
1000
1000
1000
1000
,
1000
0000
0000
0000
,
1000
1000
1000
0000
,
0001
0000
0000
0000
,
1000
1000
1000
1000
,
1000
0000
0000
0000
,
0001
0000
0100
0000
,
0001
0000
0000
0000
,
1000
0000
0010
0000
,
1000
0000
0000
0000
,
0010
0000
0100
0000
,
0010
0000
0000
0000
,
0100
0000
0010
0000
,
0100
0000
0000
0000
,
0001
0000
0001
0001
,
0001
0000
1000
1000
,
1000
0000
0010
0000
,
1000
0000
0000
0000
,
0001
0000
0100
0000
,
0001
0000
0000
0000
,
0100
0000
0010
0000
,
0100
0000
0000
0000
,
0001
0001
0001
0000
,
1000
0000
0000
0000
,
0001
0001
0001
0001
,
0001
0000
0000
0000
,
0001
0001
0001
0000
,
1000
0000
0000
0000
,
0001
0001
0001
0001
,
0001
0000
0000
0000
,
1000
0000
0010
0000
,
0100
0000
0000
0000
,
0001
0000
0100
0000
,
0010
0000
0000
0000
,
1000
1000
1000
0000
,
1000
1000
1000
0000
,
0001
0001
0001
0000
,
0001
0001
0001
0000
,
1000
1000
1000
0000
,
0001
0000
0000
0000
,
1000
1000
1000
0000
,
0001
0000
0000
0000
,
0100
0100
0100
0000
,
0010
0000
0000
0000
,
0100
0100
0100
0100
,
0100
0000
0001
1000
;

//---------------dance-single - ----------------
#NOTEDATA:;
#CHARTNAME:;
#CHARTHASH:1272274031;
#STEPSTYPE:dance-single;
#BANNER:;
#DESCRIPTION:;
#CHARTSTYLE:;
#DIFFICULTY:Easy;
#METER:5;
#METERF:5.000000;
#LASTSECONDHINT:91.606163;
#RADARVALUES:0.000000,0.000000,0.000000,0.000000,0.000000,0.000000,0.000000,0.000000,0.000000,0.000000,0.000000,0.000000,0.000000,0.000000,0.000000,0.000000,0.000000,0.000000,0.000000,0.000000,0.000000,0.000000,0.000000,0.000000,0.000000,0.000000,0.000000,0.000000;
#CREDIT:;
#NOTES:
0000
0000
0000
0000
,
0000
0000
0000
0000
,
0000
0000
0000
0000
,
0000
0000
0000
0000
,
1000
1000
1000
0000
,
0001
0000
0001
0000
,
1000
1000
1000
0000
,
0001
0100
0010
1000
,
0010
0010
0010
0000
,
0100
0000
0100
0000
,
0010
0010
0010
0000
,
0100
0001
1000
0010
,
1001
0000
0100
0010
,
0001
0000
0010
0100
,
1000
0000
0001
1000
,
0010
0100
0110
0000
,
1000
0000
1000
0000
,
0001
0001
0001
0000
,
0100
0000
0100
0000
,
0010
0010
0010
1000
,
0001
0100
0010
0000
,
1000
0010
0100
0000
,
0001
1000
0100
0010
,
0001
0000
0010
0100
,
1000
1000
0001
0101
,
1000
0000
0010
0100
,
0001
0000
0010
0100
,
1000
0100
0010
0001
,
1000
1000
1000
0000
,
0010
0000
0010
0000
,
1000
1000
1000
0000
,
0010
0010
0010
1001
,
0100
0100
0100
0000
,
0001
0000
0001
0000
,
0100
0100
0100
0000
,
0010
0010
0010
1001
,
0100
0000
0010
1000
,
0100
0000
0010
0001
,
1000
0000
0001
0010
,
0100
0000
1000
0100
,
0010
0010
0001
1001
,
1000
1000
0010
0110
,
0100
0100
0100
1001
,
0010
0010
0010
1001
,
0100
0100
0100
0000
,
0010
0000
0010
0000
,
1000
1000
1000
0000
,
0010
0010
0010
0010
,
0100
0100
0100
0000
,
0001
0000
0001
0000
,
0100
0100
0100
0000
,
0001
1000
0001
1001
;

//---------------dance-single - ----------------
#NOTEDATA:;
#CHARTNAME:;
#CHARTHASH:397836558;
#STEPSTYPE:dance-single;
#BANNER:;
#DESCRIPTION:;
#CHARTSTYLE:;
#DIFFICULTY:Medium;
#METER:9;
#METERF:9.000000;
#LASTSECONDHINT:91.606163;
#RADARVALUES:0.000000,0.000000,0.000000,0.000000,0.000000,0.000000,0.000000,0.000000,0.000000,0.000000,0.000000,0.000000,0.000000,0.000000,0.000000,0.000000,0.000000,0.000000,0.000000,0.000000,0.000000,0.000000,0.000000,0.000000,0.000000,0.000000,0.000000,0.000000;
#CREDIT:;
#NOTES:
0000
0000
0000
0000
,
0000
0000
0000
0000
,
0000
0000
0000
0000
,
0000
0000
0000
0000
,
1000
0101
1010
0001
,
1000
0100
0010
0001
1000
0000
0010
0000
,
0100
0011
1100
0010
,
0100
0010
0100
0000
0010
0010
0010
0000
,
1000
0101
1010
0100
,
0001
0010
0100
1000
0001
0000
0100
0000
,
0010
1001
0110
1000
,
0001
0100
0010
1000
0100
0000
1001
0000
,
0010
0000
0000
0010
0100
0000
0001
0000
,
0010
0000
0001
1000
0000
0100
0010
0000
,
0001
0000
0000
1000
0010
0000
0100
0000
,
0001
0000
0000
1000
0001
0010
0001
0000
,
0100
0000
0000
0001
1000
0000
0010
0000
,
0100
0000
0010
1000
0010
0000
0100
0000
,
0001
0000
1000
0100
1000
0000
0010
0000
,
0100
0001
0100
0010
1000
0000
0110
0000
,
0001
0000
0000
0000
1000
0010
1000
0000
,
0001
0100
0001
0000
0100
0000
0100
0000
,
0010
0100
0010
0000
1000
0000
1000
0000
,
0001
0100
0001
0000
0010
0000
0010
0000
,
0001
0000
0000
0000
1000
0100
0010
0000
,
0001
0000
0000
0000
0010
0100
1000
0000
,
0001
0000
0000
0000
0100
0001
1000
0000
,
0010
0000
0000
0000
1000
0010
0100
0000
,
0001
1010
0101
0010
,
0001
1000
0100
0010
0001
0000
0100
0000
,
0010
1001
0110
1000
,
0001
1000
0100
0010
0100
0000
1000
0000
,
0001
0110
1001
0010
,
1000
0001
0100
0010
1000
0000
0100
0000
,
0010
1001
0110
1000
,
0001
0010
0100
0010
0001
0000
1100
0000
,
0010
0000
0100
0001
,
1000
0010
1000
0000
0010
0000
0100
0000
,
0001
0000
0000
0000
1000
0001
1000
0000
,
0110
0000
0000
0000
0010
0010
0010
0000
,
1000
0001
0100
1001
,
0010
0100
0001
0110
,
1000
0000
0000
0000
0001
0010
0100
0000
,
1000
0000
0000
0000
0100
0010
0001
0000
,
1000
0110
1001
0010
,
0100
0001
1000
0010
1000
0000
0001
0000
,
0100
0011
1100
0001
,
0100
0010
1000
0100
0010
0000
0001
0000
,
0100
1010
0101
0010
,
1000
0100
0010
0001
0100
0000
0010
0000
,
1000
0101
1010
0100
,
0001
0100
0001
0000
1000
1000
1000
0000
;

//---------------dance-single - ----------------
#NOTEDATA:;
#CHARTNAME:;
#CHARTHASH:1120674704;
#STEPSTYPE:dance-single;
#BANNER:;
#DESCRIPTION:;
#CHARTSTYLE:;
#DIFFICULTY:Hard;
#METER:11;
#METERF:11.000000;
#LASTSECONDHINT:91.495552;
#RADARVALUES:0.570325,0.554706,0.075123,0.000000,0.343421,372.000000,365.000000,7.000000,0.000000,0.000000,0.000000,0.000000,0.000000,0.000000,0.570325,0.554706,0.075123,0.000000,0.343421,372.000000,365.000000,7.000000,0.000000,0.000000,0.000000,0.000000,0.000000,0.000000;
#CREDIT:;
#NOTES:
// measure 0
0000
0000
0000
0000
,  // measure 1
0000
0000
0000
0000
,  // measure 2
0000
0000
0000
0000
,  // measure 3
0000
0000
0000
0000
,  // measure 4
1000
0000
0000
0001
1000
0000
0000
0001
1000
0000
0000
0010
0100
0000
0010
0000
,  // measure 5
1000
0100
0001
0100
1000
0000
0001
0010
,  // measure 6
0100
0000
0000
1000
0100
0000
0000
1000
0001
0000
0000
1000
0100
0000
0000
0000
,  // measure 7
1000
0000
0001
0000
0010
0000
0100
0000
1000
0000
0001
0100
0001
0000
0000
0000
,  // measure 8
0100
0000
0000
0010
0100
0000
0000
0010
0100
0000
0000
0001
1000
0000
0001
0000
,  // measure 9
1000
0010
0001
0010
1000
0000
0100
0010
,  // measure 10
0001
0000
0000
0100
0010
0000
0000
1000
0010
0000
0000
0100
0001
0000
0000
1000
,  // measure 11
0010
0000
0100
0000
0001
0000
0100
0000
0010
0000
1000
0000
0001
0000
0100
0010
,  // measure 12
0100
0000
0101
0000
1000
0010
0001
0010
,  // measure 13
0100
0000
0001
1000
0100
0010
1001
0000
,  // measure 14
0110
0000
1000
0100
0010
0001
0100
0000
,  // measure 15
0001
0000
0010
0001
0010
1000
0011
0000
,  // measure 16
0001
0000
0000
1000
0100
0000
0000
0000
1000
0000
0001
0000
0010
0000
0100
0000
,  // measure 17
0010
0000
0000
0001
1000
0000
0000
0000
0010
0000
0100
0000
0010
0000
1000
0000
,  // measure 18
0100
0000
1000
0001
0010
0000
0100
1000
,  // measure 19
0001
0010
1000
0010
0001
0100
0010
1000
,  // measure 20
1000
0001
0010
0000
0001
1000
0100
1000
,  // measure 21
1000
0001
0001
0100
0001
0010
0010
0100
,  // measure 22
1000
0001
0001
0100
0010
0000
1001
0000
,  // measure 23
0100
0010
0001
0000
0010
0100
1000
0000
,  // measure 24
0001
0000
0100
0000
0001
0000
1000
0100
1000
0000
0010
0000
0010
0000
0000
0000
,  // measure 25
0100
0000
0001
0010
0001
0000
1000
0000
0010
0000
0100
0000
0001
1000
0000
0100
,  // measure 26
0000
1000
0100
0010
0001
0000
0010
0100
,  // measure 27
1000
0001
0100
0010
1000
0100
1001
0000
,  // measure 28
0100
0000
0000
0001
1000
0000
0000
0001
1000
0000
0000
0010
0100
0000
0010
0000
,  // measure 29
1000
0100
0001
0100
1000
0000
0001
0010
,  // measure 30
0100
0000
0000
1000
0100
0000
0000
1000
0001
0000
0000
0100
0010
0000
0100
0000
,  // measure 31
0010
0000
1000
0000
0010
0000
0100
0000
0001
0000
0100
0010
0100
0000
0000
0000
,  // measure 32
0001
0000
0000
1000
0010
0000
0000
1000
0010
0000
0000
1000
0001
0000
0100
0000
,  // measure 33
0010
0001
0010
1000
0010
0000
1000
0100
,  // measure 34
0010
0000
0000
0001
0100
0000
0000
0001
0010
0000
0000
0001
1000
0000
0010
0000
,  // measure 35
0100
0000
0001
0000
0010
0000
0100
0000
1000
0000
0010
0000
0100
0000
0001
1000
,  // measure 36
0001
1000
0100
0000
0010
0001
1000
0100
,  // measure 37
0010
0001
0001
0010
0100
1000
1001
0000
,  // measure 38
0100
0000
0010
0000
0100
0000
0000
0000
0001
1000
0000
0100
0000
0000
1000
0000
,  // measure 39
0010
0000
0001
0000
0010
0000
0100
0000
0010
0000
1000
0000
0100
0000
0010
0001
,  // measure 40
0010
0000
0010
0000
0001
0000
0001
0000
1000
0000
0010
1000
0000
0000
1000
0001
,  // measure 41
1000
0000
1000
0000
0010
0000
0010
0000
0100
0000
0001
0100
0000
0000
0100
0000
,  // measure 42
0010
0000
1000
0000
0010
0000
0100
0000
0001
0100
0001
0000
1000
0000
0000
0000
,  // measure 43
0100
0000
0010
0000
0001
0000
1000
0000
0001
0000
0100
0000
0010
0100
0010
0000
,  // measure 44
0100
0000
0000
0001
1000
0000
0000
0001
1000
0000
0000
0010
0100
0000
0010
0000
,  // measure 45
0001
0000
0010
0000
1000
0000
0010
0000
0100
0000
0000
0001
1000
0000
0100
0000
,  // measure 46
0010
0000
0000
0001
0010
0000
0000
0001
0100
0000
0000
0010
0100
0000
0010
1000
,  // measure 47
0010
0000
1000
0000
0100
0000
0010
0000
0001
0000
1000
0001
1000
0000
0000
0000
,  // measure 48
0100
0000
0000
0010
0001
0000
0000
0010
0001
0000
0000
1000
0100
0000
0010
0000
,  // measure 49
0001
0000
0010
0000
1000
0000
0010
0000
0001
0000
0000
0001
1000
0000
0010
0000
,  // measure 50
0100
0000
0000
0001
1000
0000
0000
0010
0100
0000
0000
0001
1000
0000
1000
0001
,  // measure 51
0000
0100
0000
0010
1000
0000
1000
0001
1000
0000
0001
0100
0000
0000
0000
0000
;
