#VERSION:0.83;
#TITLE:DIGITAL LOVE;
#SUBTITLE:(Radio Edit);
#ARTIST:DAFT PUNK;
#TITLETRANSLIT:;
#SUBTITLETRANSLIT:;
#ARTISTTRANSLIT:;
#GENRE:EURO FUNK;
#ORIGIN:;
#TAGS:;
#CREDIT:YonabearCWY;
#BANNER:DIGITAL LOVE (Radio Edit).png;
#BACKGROUND:DIGITAL LOVE (Radio Edit)-bg.png;
#PREVIEWVID:;
#JACKET:DIGITAL LOVE (Radio Edit)-jacket.png;
#CDIMAGE:;
#DISCIMAGE:;
#LYRICSPATH:;
#CDTITLE:Dance Mania 21.png;
#MUSIC:DIGITAL LOVE (Radio Edit).ogg;
#OFFSET:-7.690000;
#SAMPLESTART:73.109810;
#SAMPLELENGTH:15.000000;
#SELECTABLE:YES;
#BPMS:0.000000=124.709999
;
#STOPS:;
#DELAYS:;
#WARPS:;
#TIMESIGNATURES:0.000000=4=4
;
#TICKCOUNTS:0.000000=4
;
#COMBOS:0.000000=1
;
#SPEEDS:0.000000=1.000000=0.000000=0
;
#SCROLLS:0.000000=1.000000
;
#LABELS:0.000000=Song Start
;
#BGCHANGES:-21.000=DIGITAL LOVE (Radio Edit).mp4=1.000=1=0=0=StretchNoLoop==CrossFade==,
224.000=DIGITAL LOVE (Radio Edit)-bg.png=1.000=1=0=1===CrossFade==,
99999.000=-nosongbg-=1.000=0=0=0=StretchNoLoop====,
99999=-nosongbg-=1.000=0=0=0 // don't automatically add -songbackground-
;
#KEYSOUNDS:;
#ATTACKS:
;

//---------------dance-single - ----------------
#NOTEDATA:;
#CHARTNAME:BASIC;
#CHARTHASH:2026565471;
#STEPSTYPE:dance-single;
#BANNER:;
#DESCRIPTION:;
#CHARTSTYLE:;
#DIFFICULTY:Easy;
#METER:5;
#METERF:5.000000;
#LASTSECONDHINT:115.460030;
#RADARVALUES:0.211054,0.244641,0.182686,0.015886,0.000000,186.000000,163.000000,23.000000,2.000000,0.000000,0.000000,0.000000,0.000000,0.000000,0.211054,0.244641,0.182686,0.015886,0.000000,186.000000,163.000000,23.000000,2.000000,0.000000,0.000000,0.000000,0.000000,0.000000;
#CREDIT:YonabearCWY;
#NOTES:
1000
1000
1000
0000
,
0001
0100
0010
1000
,
0001
0001
0001
0000
,
0100
0010
0001
0010
,
0100
0100
0100
0000
,
0001
1000
0100
1000
,
0010
0010
0010
0000
,
1000
0100
0010
1001
,
0001
0100
0001
0000
,
1000
1000
1000
1000
,
0010
1000
0010
0000
,
0100
0100
0100
0100
,
0001
0010
0100
0000
,
0010
0010
0010
1001
,
0100
0001
0010
0000
,
0001
1000
0100
0000
,
1000
1000
1000
0000
,
0001
0001
0001
1000
,
0001
0001
0001
0000
,
0100
0100
0100
0010
,
0100
0000
0100
0000
,
0010
0000
0010
0000
,
1000
1000
0001
0001
,
1000
0001
1000
1001
,
0110
0000
0000
0100
0000
0100
0000
0100
,
0000
0010
0000
0010
,
1001
0000
0000
0010
0000
0010
0000
0010
,
0000
0100
0000
0100
,
1000
1000
0000
0001
,
0001
0100
0001
0010
,
1001
1000
1000
0000
,
1000
1000
1000
0000
,
0001
0001
0001
0000
,
0001
0001
0001
0000
,
1000
0010
1000
0010
,
0110
0000
0010
0000
,
0001
0100
0001
0100
,
0110
0000
0100
0000
,
1000
0001
1000
0001
,
0011
0010
0000
0010
,
1000
0001
1000
0001
,
1100
0100
0000
0100
,
1001
0000
1001
0000
,
1001
0000
0000
0000
,
0110
0000
0110
0000
,
0110
0000
0000
0000
,
1100
0000
1100
0000
,
1100
0000
0000
0000
,
0011
0000
0011
0000
,
0011
0000
0000
0000
,
0001
0001
0001
0001
,
0001
0000
0001
0000
,
1000
1000
1000
1000
,
1000
0000
1000
0000
,
2002
0000
0000
0000
,
0000
0000
0000
0000
,
3003
0000
0000
0000
;

//---------------dance-single - ----------------
#NOTEDATA:;
#CHARTNAME:DIFFICULT;
#CHARTHASH:3121019132;
#STEPSTYPE:dance-single;
#BANNER:;
#DESCRIPTION:;
#CHARTSTYLE:;
#DIFFICULTY:Medium;
#METER:8;
#METERF:8.000000;
#LASTSECONDHINT:115.460030;
#RADARVALUES:0.334735,0.378081,0.182686,0.214458,0.019857,295.000000,272.000000,23.000000,27.000000,0.000000,0.000000,0.000000,0.000000,0.000000,0.334735,0.378081,0.182686,0.214458,0.019857,295.000000,272.000000,23.000000,27.000000,0.000000,0.000000,0.000000,0.000000,0.000000;
#CREDIT:YonabearCWY;
#NOTES:
1000
0000
0001
0000
0022
0000
0033
1000
,
0001
1000
0001
0000
0010
0000
0100
0000
,
1000
0000
0100
0000
0000
1000
0000
0000
0001
0000
0010
0000
0001
0000
0000
0000
,
0100
0000
0010
0000
1000
0001
1000
0000
,
0010
0000
0100
0001
0010
0000
0001
0000
,
1000
0000
0100
0010
0001
0010
0100
0000
,
1000
0000
0001
0000
0100
0010
0100
0000
,
0010
0010
0010
0000
2002
0000
3003
0000
,
1000
0010
2002
3003
,
0001
0010
0001
0000
0100
0100
0100
0000
,
0001
0010
0100
1000
,
0001
0000
1000
0010
1000
0000
0110
0000
,
0001
0000
0010
0001
0010
0000
0100
0000
,
1000
0100
0001
0100
1000
0100
0010
0000
,
0001
0000
0100
0000
0010
0100
0010
0000
,
1001
0110
2002
3003
,
0010
0001
0100
0001
,
1000
0010
1000
0000
0010
0010
0010
0000
,
0100
0001
0010
0100
,
1000
0001
1000
0000
0100
0100
0100
0000
,
0010
0100
0001
0100
,
1000
0000
0001
0010
0100
1000
0001
0000
,
0100
0010
1000
0010
,
1000
0001
1000
0000
0220
0000
0330
0000
,
0002
0010
0000
0010
0000
0010
0000
0023
,
0000
1000
0001
1030
,
0200
1000
0000
1000
0000
1000
0000
2300
,
0000
0010
0100
3001
,
1000
0001
1000
0000
0001
0000
0102
0000
,
0000
0010
0100
0013
,
0001
2000
0000
0001
0000
3001
0000
1002
,
0000
1003
0010
0000
0100
0000
0011
0000
,
1000
0002
0000
1000
0000
1003
0000
0120
,
0000
0130
0001
0000
0010
0100
0010
0000
,
0100
0000
1000
0100
0001
0000
0100
0000
,
1000
0001
0010
0000
0100
0010
0001
0000
,
0100
0000
0001
0100
1000
0000
0100
0000
,
0010
0100
1000
0000
0100
0001
1000
0000
,
0010
0000
0001
0010
1000
0000
0100
0000
,
0010
0001
1000
0000
0001
1000
0100
0000
,
0010
0000
1000
0010
0001
0000
0010
0000
,
0100
1000
0001
0000
0100
0010
0001
0000
,
1000
1000
1001
0000
0001
0001
1001
0000
,
0100
0000
0100
0000
0110
0000
0000
0000
0001
0000
0000
0001
0000
0000
1000
0000
,
0010
0010
1010
0000
0100
0100
0101
0000
,
0010
0000
0010
0000
0110
0000
0000
0000
1000
0000
0000
1000
0000
0000
0001
0000
,
0100
0010
2000
0000
3100
0010
0002
0000
,
1003
0000
0010
0000
0200
0000
0000
0000
0301
0000
0000
0010
0000
0000
0001
0000
,
1000
0001
0020
0000
0031
0100
2000
0000
,
3100
0000
0001
0000
0020
0000
0000
0000
0031
0000
0000
1000
0000
0000
0100
0000
,
0010
0011
0001
1001
,
1000
0010
1000
0000
0010
0010
0010
0000
,
0100
0101
0010
1010
,
0100
0001
0100
0000
0010
0010
0010
2002
,
0000
0000
0000
0000
,
0000
0000
0000
0000
,
3003
0000
0000
0000
;

//---------------dance-single - ----------------
#NOTEDATA:;
#CHARTNAME:EXPERT;
#CHARTHASH:2778685787;
#STEPSTYPE:dance-single;
#BANNER:;
#DESCRIPTION:;
#CHARTSTYLE:;
#DIFFICULTY:Hard;
#METER:13;
#METERF:13.000000;
#LASTSECONDHINT:115.460030;
#RADARVALUES:0.485650,0.489281,0.103257,0.262115,0.238286,428.000000,415.000000,13.000000,33.000000,0.000000,0.000000,0.000000,0.000000,0.000000,0.485650,0.489281,0.103257,0.262115,0.238286,428.000000,415.000000,13.000000,33.000000,0.000000,0.000000,0.000000,0.000000,0.000000;
#CREDIT:YonabearCWY;
#NOTES:
1000
0010
1000
0010
0100
0001
0010
0000
,
0100
0000
1000
0000
0001
0000
0010
0000
0001
0000
1000
0000
0000
0010
0000
0000
,
0100
0001
0010
0001
0010
0100
1000
0000
,
0010
0000
0100
0000
0001
0000
0010
0000
0100
0000
0010
0000
0001
1000
0001
0000
,
1000
0010
1000
0100
0010
0001
0100
0000
,
0001
0010
0001
1000
0100
0010
2001
0000
,
3100
0000
1000
0000
0010
0000
1000
0000
0001
0000
0010
0000
0000
0001
0000
0000
,
1000
0000
0100
0000
0010
0000
0000
0000
1002
0000
0000
0000
0103
0010
0100
0000
,
0001
0010
0001
1000
0100
1000
0001
1000
,
0100
0000
0010
0000
0001
0000
0010
0000
0100
0000
0001
0000
0000
1000
0000
0000
,
0010
0001
0010
0100
1000
0100
0010
0001
,
0100
0000
0010
0000
0100
0000
0001
0000
0021
0000
0000
0000
0031
1000
0001
0000
,
1000
0010
0100
0001
0020
0000
0130
1000
,
0001
1000
1000
0010
0010
0100
1002
0000
,
0013
0000
0001
0000
1000
0000
0100
0000
0010
0000
0001
0000
0000
1000
0000
0000
,
0010
0000
1000
0000
0100
0000
0000
0000
2001
0000
0000
0000
3010
0100
0010
0000
,
1000
0000
0000
0000
0100
0000
1000
0000
0001
0000
1000
0000
0000
0010
0000
0000
,
0100
0000
0000
0000
0010
0000
1000
0000
0001
0000
0010
0000
0100
1000
0100
0000
,
1000
0000
0000
0000
0001
0000
0100
0000
0010
0000
0100
0000
0000
0001
0000
0000
,
1000
0000
0100
0010
0001
0000
0110
0000
,
1000
0000
0000
0000
0001
0000
0100
0000
0001
0000
0010
0000
0000
0001
0000
0000
,
0010
0100
1000
0010
0001
0010
1000
0000
,
0100
0010
0001
1000
0010
1000
0010
0100
,
0001
0000
0100
0000
0001
0000
0010
0000
0100
0000
0000
0000
1000
0001
1000
0000
,
0010
1000
0010
2000
0000
3002
0000
0203
,
0000
0000
0301
0010
0002
0000
0000
0000
1003
0010
0000
0100
0001
0100
0001
0000
,
0010
0000
0001
1000
0001
0000
1000
0000
0010
0000
1000
0000
0100
0000
2000
0000
,
0000
0000
3100
0000
1020
0000
0130
0001
,
0100
0010
0100
0010
1000
0100
0020
0000
,
0000
0000
0031
1000
0002
0000
0000
0000
1003
0100
0000
0010
0100
0010
0100
0000
,
1000
2000
0000
0001
0000
0100
0000
3002
,
0000
0000
1003
0100
1000
0000
0010
0000
1000
0100
0000
0000
0010
0001
0000
0000
,
0001
0002
0000
1000
0000
0010
0000
2003
,
0000
0000
3001
0010
0001
0000
1000
0000
0010
0100
0000
0000
0001
2000
0000
0000
,
3100
0010
0100
0001
0100
1000
0100
0010
,
0100
1000
0100
0000
1000
0000
0001
0000
0010
0000
0001
0000
0100
0002
0000
0000
,
0013
0001
1000
0100
0010
0100
1000
0010
,
0100
0010
0100
0000
0001
0000
0010
0000
0001
1000
0000
1000
0001
0000
0100
0000
,
0010
1000
0010
0001
0010
0100
0010
1000
,
0010
0100
0010
0000
0100
0000
0001
0000
1000
0000
0100
0000
0010
0200
0000
0000
,
1300
0010
0100
0001
0010
0100
0010
0001
,
1000
0010
1000
0000
0001
0000
0100
0000
0001
0010
0001
0000
1000
0002
0000
0000
,
0013
0001
0201
0000
0310
1000
1200
0000
,
1300
0000
0001
0000
0001
0000
0100
0000
0010
0000
0100
0010
0000
0010
1000
0000
,
0100
0010
0012
0000
1003
0010
2010
0000
,
3001
0000
0010
0000
0010
0000
0100
0000
1000
0000
0001
1000
0000
1000
0100
0000
,
1000
0000
0001
0010
0002
0000
0000
0000
0013
0000
0100
1000
0200
0000
0000
0000
,
1300
0001
1000
0000
0010
0000
0100
0000
0001
0000
0010
0001
0000
0001
1000
0000
,
0100
0010
0100
0000
0021
0000
0000
0000
0031
1000
0001
0000
2010
0000
0000
0000
,
3010
1000
0010
0000
1000
0001
0000
0001
0010
0000
0001
0100
0001
0000
1000
0000
,
0010
0100
0001
0100
0001
0010
0100
2000
,
0000
0000
3001
0010
0001
0000
1000
0000
0010
0100
0000
0100
0010
0000
1000
0000
,
0100
0010
0100
1000
0001
0100
0001
0010
,
0001
1000
0001
0000
1000
0000
0010
0000
1000
0100
1000
0000
0001
1000
0002
2000
,
0000
0000
0000
0000
,
0000
0000
0000
0000
,
3003
0000
0000
0000
;

//---------------dance-single - ----------------
#NOTEDATA:;
#CHARTNAME:BEGINNER;
#CHARTHASH:1343063573;
#STEPSTYPE:dance-single;
#BANNER:;
#DESCRIPTION:;
#CHARTSTYLE:;
#DIFFICULTY:Beginner;
#METER:2;
#METERF:2.000000;
#LASTSECONDHINT:7.690000;
#RADARVALUES:0.121413,0.155680,0.007943,0.015886,0.000000,107.000000,106.000000,1.000000,2.000000,0.000000,0.000000,0.000000,0.000000,0.000000,0.121413,0.155680,0.007943,0.015886,0.000000,107.000000,106.000000,1.000000,2.000000,0.000000,0.000000,0.000000,0.000000,0.000000;
#CREDIT:YonabearCWY;
#NOTES:
// measure 0
1000
0000
1000
0000
,  // measure 1
1000
0000
0000
0000
,  // measure 2
0001
0000
0001
0000
,  // measure 3
0001
0000
0000
0000
,  // measure 4
0100
0000
0100
0000
,  // measure 5
0100
0000
0000
0000
,  // measure 6
0010
0000
0010
0000
,  // measure 7
0010
0000
0000
0000
,  // measure 8
1000
1000
1000
0000
,  // measure 9
1000
0000
0000
0000
,  // measure 10
0001
0001
0001
0000
,  // measure 11
0001
0000
0000
0000
,  // measure 12
0100
0100
0100
0000
,  // measure 13
0100
0000
0000
0000
,  // measure 14
0010
0010
0010
0000
,  // measure 15
0010
0000
0000
0000
,  // measure 16
1000
0000
1000
1000
,  // measure 17
1000
0000
0000
0000
,  // measure 18
0001
0000
0001
0001
,  // measure 19
0001
0000
0000
0000
,  // measure 20
0010
0000
0010
0010
,  // measure 21
0010
0000
0000
0000
,  // measure 22
0100
0000
0100
0100
,  // measure 23
0100
0000
0000
0000
,  // measure 24
1000
1000
1000
1000
,  // measure 25
1000
0000
0000
0000
,  // measure 26
1000
0000
1000
0000
,  // measure 27
1000
0000
0000
0000
,  // measure 28
0001
0001
0001
0001
,  // measure 29
0001
0000
0000
0000
,  // measure 30
0001
0000
0001
0000
,  // measure 31
0001
0000
0000
0000
,  // measure 32
1000
0000
1000
0000
,  // measure 33
1000
0000
0000
0000
,  // measure 34
0010
0010
0010
0010
,  // measure 35
0010
0000
0000
0000
,  // measure 36
0010
0010
0010
0010
,  // measure 37
0010
0000
0000
0000
,  // measure 38
0100
0100
0100
0100
,  // measure 39
0100
0000
0000
0000
,  // measure 40
0100
0100
0100
0100
,  // measure 41
0100
0000
0000
0000
,  // measure 42
1000
0000
1000
0000
,  // measure 43
1000
0000
0000
0000
,  // measure 44
1000
0000
1000
0000
,  // measure 45
1000
0000
0000
0000
,  // measure 46
0001
0000
0001
0000
,  // measure 47
0001
0000
0000
0000
,  // measure 48
0001
0000
0001
0000
,  // measure 49
0001
0000
0000
0000
,  // measure 50
0001
0001
0001
0001
,  // measure 51
0001
0000
0000
0000
,  // measure 52
1000
1000
1000
1000
,  // measure 53
1000
0000
0000
0000
,  // measure 54
2002
0000
0000
0000
,  // measure 55
0000
0000
0000
0000
,  // measure 56
3003
0000
0000
0000
;
