#TITLE:DENIM;
#SUBTITLE:;
#ARTIST:SLAKE;
#TITLETRANSLIT:;
#SUBTITLETRANSLIT:;
#ARTISTTRANSLIT:;
#GENRE:;
#CREDIT:;
#BANNER:DENIM.png;
#BACKGROUND:DENIM-bg.png;
#LYRICSPATH:;
#CDTITLE:Beatmania.png;
#MUSIC:DENIM.ogg;
#OFFSET:-0.045000;
#SAMPLESTART:35.182995;
#SAMPLELENGTH:15.000000;
#SELECTABLE:YES;
#BPMS:0.000000=150.000000
;
#STOPS:
;
#BGCHANGES:8.000=wave3.mp4=1.000=1=0=1===CrossFade==,
16.000=waterfall1.mp4=1.000=0=0=1=====,
24.000=wave3.mp4=1.000=0=0=1=====,
32.000=waterfall1.mp4=1.000=0=0=1=====,
40.000=wheel4.mp4=1.000=0=0=1=====,
48.000=wheel2.mp4=1.000=0=0=1=====,
56.000=wave2.mp4=1.000=0=0=1=====,
64.000=square4.mp4=1.000=0=0=1=====,
72.000=wave2.mp4=1.000=0=0=1=====,
80.000=square4.mp4=1.000=0=0=1=====,
88.000=wires1.mp4=0.800=0=0=1=====,
96.000=web1.mp4=1.000=0=0=1=====,
104.000=wheel7.mp4=1.000=0=0=1=====,
112.000=wires1.mp4=0.800=0=1=1=StretchRewind====,
117.500=wheel2.mp4=1.000=0=0=1=====,
120.000=tunnel6.mp4=1.000=0=0=1=====,
128.000=tunnel7.mp4=1.000=0=0=1=====,
136.000=tunnel6.mp4=1.000=0=0=1=====,
144.000=tunnel7.mp4=1.000=0=0=1=====,
150.000=wheel2.mp4=1.000=0=0=1=====,
152.000=wave3.mp4=1.000=0=1=1=StretchRewind====,
160.000=waterfall1.mp4=1.000=0=1=1=StretchRewind====,
168.000=wave2.mp4=1.000=0=1=1=StretchRewind====,
176.000=wheel4.mp4=1.000=0=1=1=StretchRewind====,
183.500=DENIM-bg.png=1.000=0=0=1=====,
99999.000=-nosongbg-=1.000=0=0=0=StretchNoLoop====,
99999=-nosongbg-=1.000=0=0=0 // don't automatically add -songbackground-
;
#KEYSOUNDS:;
#ATTACKS:;

//---------------dance-single - ----------------
#NOTES:
     dance-single:
     :
     Beginner:
     2:
     0.146559,0.149612,0.000000,0.000000,0.000000,78.000000,78.000000,0.000000,0.000000,0.000000,0.000000,0.146559,0.149612,0.000000,0.000000,0.000000,78.000000,78.000000,0.000000,0.000000,0.000000,0.000000:
0000
0000
0000
0000
,
0000
0000
0000
0000
,
1000
0000
1000
0000
,
1000
0000
0000
0000
,
1000
0000
1000
0000
,
1000
0000
0000
0000
,
0001
0000
0001
0000
,
0001
0000
0000
0000
,
0001
0000
0001
0000
,
0001
0000
0000
0000
,
0100
0100
0100
0000
,
0100
0000
0000
0000
,
0100
0100
0100
0000
,
0100
0000
0000
0000
,
0010
0010
0010
0000
,
0010
0000
0000
0000
,
0010
0010
0010
0000
,
0010
0000
0000
0000
,
1000
0000
1000
0000
,
1000
0000
0000
0000
,
0001
0000
0001
0000
,
0001
0000
0000
0000
,
1000
0000
0100
0000
,
1000
0000
0000
0000
,
0010
0000
0100
0000
,
0010
0000
0000
0000
,
0100
0000
0001
0000
,
0100
0000
0000
0000
,
0001
0000
1000
0000
,
0001
0000
0000
0000
,
1000
1000
1000
0000
,
1000
0000
0000
0000
,
1000
1000
1000
0000
,
1000
0000
0000
0000
,
0001
0001
0001
0000
,
0001
0000
0000
0000
,
0001
0001
0001
0000
,
0001
0000
0000
0000
,
1000
0000
1000
0000
,
0100
0000
0100
0000
,
0010
0000
0010
0000
,
0001
0000
0001
0000
,
0010
0000
0010
0000
,
0100
0000
0100
0000
,
1000
0000
0001
0000
,
1000
0000
0001
0000
;

//---------------dance-single - ----------------
#NOTES:
     dance-single:
     :
     Easy:
     6:
     0.270570,0.361042,0.170985,0.000000,0.000000,144.000000,131.000000,13.000000,0.000000,0.000000,0.000000,0.270570,0.361042,0.170985,0.000000,0.000000,144.000000,131.000000,13.000000,0.000000,0.000000,0.000000:
0000
0000
0000
0000
,
0000
0000
0000
0000
,
1000
0000
1000
0000
,
0001
0010
0100
1000
,
0001
0000
0001
0000
,
1000
0100
1001
0000
,
0010
0000
0010
0000
,
0100
0001
0100
0010
,
1000
0000
1000
0000
,
0001
1000
0110
0000
,
0010
0000
0010
0000
,
1000
0100
0010
0001
,
1000
0000
1000
0000
,
0001
0010
0100
1000
,
0001
0000
0101
0000
,
0001
0000
1000
1000
,
0100
0000
1100
0000
,
1000
0000
0010
0010
,
0100
0000
1001
0000
,
0010
0000
0100
0001
,
1000
0000
0110
0000
,
0001
0000
0100
0010
,
1000
0000
1000
1000
,
0001
0000
0001
0001
,
0100
0000
0100
0100
,
0010
0000
0100
0100
,
0001
0000
0001
0001
,
1000
0000
1000
1000
,
0010
0100
0001
0100
,
0010
0000
1000
0001
,
0010
0000
0010
0001
,
1000
0000
1000
0100
,
0010
0000
0010
0100
,
1000
0000
0001
0100
,
1000
0000
1000
0100
,
0001
0000
1000
0010
,
0001
0000
0001
0010
,
1000
0000
0000
0000
,
1000
1000
1000
1001
,
0001
0001
0001
1001
,
0100
0100
0100
0110
,
0010
0010
0010
0110
,
1000
0010
1000
1001
,
0001
0100
0001
1001
,
1000
0000
1000
0010
,
0100
0000
0001
1001
;

//---------------dance-single - ----------------
#NOTES:
     dance-single:
     :
     Medium:
     10:
     0.475376,0.543042,0.341970,0.000000,0.092069,253.000000,227.000000,26.000000,0.000000,0.000000,0.000000,0.475376,0.543042,0.341970,0.000000,0.092069,253.000000,227.000000,26.000000,0.000000,0.000000,0.000000:
0000
0000
0000
0000
,
0000
0000
0000
0000
,
1001
0000
0000
1000
0000
0000
0000
0000
0001
0000
0000
0001
0000
0000
0000
0000
,
0100
0000
0000
0100
0000
0000
0010
0000
0100
0000
0000
0000
0000
0000
0000
0000
,
1001
0010
0100
0010
,
1000
0000
0000
1000
0000
0000
0000
0000
0001
0000
0100
0000
0000
0000
0000
0000
,
0110
0000
0000
0010
0000
0000
0000
0000
0100
0000
0000
0100
0000
0000
0000
0000
,
0001
0000
0000
0001
0000
0000
1000
0000
0100
0000
0000
0000
1000
0000
0000
0000
,
1001
0010
0100
0010
,
1000
0000
0000
1000
0000
0000
0001
0000
0010
0000
0001
0000
0000
0000
0000
0000
,
1001
0100
0010
0100
,
1000
0000
0001
0010
1000
0010
0100
0000
,
1100
1000
0010
0100
,
0001
0000
0010
0000
0001
0100
1000
0100
,
0010
0110
0100
0101
,
0001
0000
1001
0000
1000
0001
1000
0000
,
0010
0110
0100
1100
,
0100
0000
0101
0000
0001
1000
0001
0000
,
1000
1010
1000
1001
,
1000
0000
1100
0000
1000
0010
1000
0000
,
0010
0110
0010
0011
,
0010
0000
1010
0000
0010
0100
0010
0000
,
1001
1000
0100
0000
1000
0100
1000
0000
,
0010
0100
0010
0000
0100
0001
0100
0001
,
1000
0001
0010
0000
0001
0010
0001
0000
,
1000
0100
0010
0000
0100
1000
0001
0100
,
0010
0100
0010
0000
0100
0001
0100
0000
,
0001
1000
0001
1000
0100
0010
0001
0010
,
0100
1000
0100
0000
1000
0100
1000
0000
,
0001
0000
1000
0001
0000
0000
0010
0000
0010
0000
0000
0001
0000
0000
0100
0000
,
0001
0010
1000
0010
,
0001
0000
0100
0000
0010
1000
0100
0010
,
0001
1000
0100
0001
,
0100
0000
0010
0000
0100
1000
0100
0001
,
0100
1000
0010
0100
,
0001
0000
0010
0000
0001
1000
0100
0010
,
0001
0100
0010
0100
,
0001
0000
1000
0001
0000
0000
0000
0000
,
0101
0000
0000
0000
0001
0000
1000
0000
0001
0000
0000
1000
0000
0000
0000
0000
,
1000
0100
1000
0000
0010
0100
0010
0000
,
0101
0000
0000
0000
0100
0000
0010
0000
0100
0000
0000
0010
0000
0000
0000
0000
,
1000
0001
1000
0000
0001
0100
0001
0000
,
1010
0000
0000
0000
1000
0000
0010
0000
0001
0000
0000
0010
0000
0000
0000
0000
,
1000
0010
0001
0000
1000
0100
0001
0000
,
0101
0000
0000
0000
0001
0000
1000
0000
0001
0000
1001
0000
0000
1100
0000
0000
,
1010
0010
0100
0001
0100
0010
1000
0001
;

//---------------dance-single - ----------------
#NOTES:
     dance-single:
     :
     Hard:
     13:
     0.672667,0.785463,0.407734,0.000000,0.723399,358.000000,327.000000,31.000000,0.000000,0.000000,0.000000,0.672667,0.785463,0.407734,0.000000,0.723399,358.000000,327.000000,31.000000,0.000000,0.000000,0.000000:
0000
0000
0000
0000
,
0000
0000
0000
0000
,
1001
0000
0000
1000
0000
0000
0010
0000
0100
0000
0000
0001
0000
0010
0000
0000
,
1001
0000
0000
1000
0000
0000
0100
0000
0010
0000
0000
0000
0000
0000
0001
0000
,
0010
0000
0000
0000
0001
0000
0000
1000
0000
0100
0000
0000
1000
0000
0010
0000
,
0110
0000
0000
0001
0000
0000
0100
0000
0010
0000
1000
0000
0101
0000
0000
0000
,
1001
0000
0000
0001
0000
0000
1000
0000
0100
0000
0000
1000
0000
0000
0010
0000
,
0100
0000
0000
0010
0000
0000
0100
0000
0010
0000
1000
0000
0110
0000
0000
0000
,
0010
0000
1000
0000
0001
0000
0000
0100
0000
0010
0000
0000
1000
0000
0100
0000
,
0010
0000
0001
1000
0000
0000
0010
0000
0100
0000
1001
0000
0000
0000
0000
0000
,
0110
0000
0000
0000
0010
0000
0000
1000
0010
0000
0000
0000
0100
0001
0000
0100
,
0010
0000
0000
0000
1000
0010
0000
1000
0100
0000
0010
0000
0001
0000
0000
0001
,
1000
0000
0000
0000
0100
1000
0000
0100
0010
0000
0000
0000
0100
1000
0000
0001
,
0100
0000
0001
0000
0010
0000
0000
0001
1000
0000
0100
0000
0010
0000
0000
0000
,
1001
1000
0100
0000
1001
1000
0100
0000
,
1001
0001
0010
0000
1001
0001
0010
0000
,
0110
0010
1000
0000
0110
0010
1000
0000
,
0110
0100
0001
0000
0110
0100
0001
0000
,
0110
1000
0001
0000
0110
1000
0001
0000
,
0110
0001
1000
0000
0110
0001
1000
0000
,
1001
0100
0010
0000
1001
0100
0010
0000
,
1001
0010
0100
0000
1001
0010
0100
0000
,
0010
0000
0100
0000
0010
0000
1000
0010
0000
1000
0010
0000
1000
0010
0000
1000
,
0001
0000
1000
0001
0000
1000
0001
0000
0010
0000
0100
0000
1000
0001
0000
0010
,
0000
0000
0001
0000
0100
0000
0010
1000
0000
0010
1000
0000
0010
1000
0000
0001
,
0100
0000
0001
0100
0000
0001
0100
0000
0010
0000
1000
0000
0100
1000
0000
1001
,
0000
0000
1000
0000
0100
0000
0010
0001
0000
0010
0001
0000
0010
0001
0000
0010
,
0001
0000
1000
0010
0000
1000
0010
0000
1000
0000
0001
0000
0010
0001
0000
0010
,
0000
0000
0001
0000
0100
0000
0010
0100
0000
0010
0100
0000
0010
0100
0000
0010
,
0100
0000
0001
1000
0000
0000
0010
0000
0010
0000
0010
0100
0000
0001
1000
0000
,
0100
0000
0000
1000
0100
0000
0000
0001
0100
0000
1000
0000
0001
0000
0000
0000
,
0010
0000
0000
0010
0001
0000
0000
0010
1000
0000
0010
0000
0001
0000
0000
0000
,
0100
0000
0000
0100
0010
0000
0000
0100
1000
0000
0100
0000
0001
0000
0000
0000
,
0100
0000
0000
0001
1000
0000
0000
0100
0010
0000
0100
0000
1000
0000
0000
0000
,
0001
0000
0000
1000
0010
0000
0000
0001
0010
0000
0100
0000
0001
0000
0000
0000
,
1000
0000
0000
0010
0100
0000
0000
0010
0001
0000
0010
0000
1000
0000
0000
0000
,
0100
0000
0000
0100
1000
0000
0000
0100
0010
0000
0100
0000
1000
0000
0000
0000
,
0001
0000
0000
1000
0001
0000
0010
0100
0000
0000
0000
0000
0000
0000
0000
0000
,
1000
0100
1000
0100
1000
0100
0000
0000
1000
0000
0000
1001
0000
0000
0000
0000
,
0001
0010
0000
0001
0000
0010
0000
0000
0001
0000
0000
1001
0000
0000
0000
0000
,
0100
0010
0100
0010
0100
0010
0000
0000
0100
0000
0000
1001
0000
0000
0000
0000
,
1000
0100
0000
1000
0000
0010
0000
0000
1000
0001
0000
1001
0000
0000
0000
0000
,
0001
0010
0000
0001
0100
0001
0100
0000
0001
1000
0000
1100
0000
0000
0000
0000
,
1000
0010
0000
1000
0000
0001
0000
1000
0001
0000
0000
1001
0000
0000
0000
0000
,
0001
0010
0000
0001
1000
0001
1000
0000
0100
0000
0010
0100
0000
0010
0001
0000
,
1000
0001
1000
0000
0100
1000
0100
0010
0001
0010
0001
1000
0010
0100
0001
1000
;

//---------------dance-double - ----------------
#NOTES:
     dance-double:
     :
     Medium:
     9:
     0.430281,0.481389,0.210443,0.000000,0.052611,229.000000,213.000000,16.000000,0.000000,0.000000,0.000000,0.430281,0.481389,0.210443,0.000000,0.052611,229.000000,213.000000,16.000000,0.000000,0.000000,0.000000:
00000000
00000000
00000000
00000000
,
00000000
00000000
00000000
00000000
,
01000000
00100000
00000000
00010000
00001000
00000000
00010000
00000000
,
00000010
00000000
00000000
00000100
00000000
00000000
00000001
00000000
00001000
00000000
00000000
00000000
00001100
00000000
00000000
00000000
,
00010100
00000000
00000000
00000000
00000000
00000000
00000000
00001000
00000000
00010000
00000000
00000000
00001000
00000000
00000000
00000000
,
00100000
00000000
00010000
00000000
10000000
01000000
10000000
00000000
,
00100000
01000000
00000000
00001000
00010000
00000000
00001000
00000000
,
00010000
00000000
00000000
00000100
00000000
00000000
00000010
00000000
00000001
00000000
00000000
00000000
00001010
00000000
00000000
00000000
,
00000110
00000000
00000000
00000000
00000000
00000000
00000000
00010000
00000000
00001000
00000000
00000000
00000000
00000000
00000000
00000000
,
00001000
00000000
00100000
00000000
00010000
10000000
00000000
00000000
,
00100000
00100000
01000000
01000000
,
00010000
00000000
00010000
00000000
00100000
00001000
00010000
00000000
,
00000100
00000100
00001000
00001000
,
00000001
00000000
00000001
00000000
00001000
00000010
00010000
00000000
,
00010000
00011000
00001000
00011000
,
00010000
00000000
00011000
00000000
00001000
00010000
00001000
00000000
,
01000000
01001000
00001000
01001000
,
01000000
00000000
01001000
00000000
00001000
00100000
00001000
00000000
,
00100000
00001000
00010000
00000100
,
00010000
00000000
00000010
00000000
00010000
00000100
00001000
00000000
,
00000100
00010000
00001000
01000000
,
00001000
00000000
00100000
00000000
00010000
00100000
00001000
00000000
,
00011000
00010000
00010000
00010000
,
00001000
00010000
00000010
00000000
00000100
00000000
00000100
00000000
,
00000001
00000010
00000010
00000010
,
00000010
00000100
00001000
00000000
00000100
00000000
00010000
00000000
,
00011000
00010000
00010000
00010000
,
00010000
00001000
01000000
00000000
00100000
00000000
00100000
00000000
,
00100000
00000000
10000000
00000000
10000000
00000000
10000000
01000000
,
00100000
00010000
01000000
00000000
00001000
00100000
00010000
00100000
,
00001000
00000000
00010000
00000000
00001000
00010000
00001000
00000000
,
00010000
00000000
00000010
00000000
00000100
00000010
00000100
00000000
,
00000001
00000000
00001000
00000000
00000100
00001000
00000100
00000000
,
00010000
00001000
00010000
00000000
00001000
00001000
00001000
00000000
,
00010000
00000000
00001000
00000000
01000000
00100000
01000000
00000000
,
00010000
00000000
00100000
00000000
01000000
10000000
01000000
00000000
,
00100000
00000000
00010000
00000000
01000000
00001000
01000000
00000000
,
00001000
00000000
00010000
00000000
00001000
00000000
00000000
00010000
00000000
00000000
00000000
00000000
00000000
00000000
00000000
00000000
,
00000001
00000000
00001000
00000100
00000001
00000000
00001100
00000000
,
00010000
00000000
00000100
00010000
00001000
00000000
00110000
00000000
,
10000000
00000000
00010000
00100000
10000000
00000000
00110000
00000000
,
01000000
00000000
00001000
00010000
00001000
00000000
00010000
00000010
,
00000100
00000000
00000001
00000000
00000010
00000000
00001000
00000010
,
00000001
00000000
00000100
00000000
00000010
00000000
00001000
00000100
,
00000001
00000000
00000100
00000000
00010000
00000000
00001000
00000000
00010000
00000000
00001000
00000000
00000000
00010000
00000000
00000000
,
00001000
00000000
00010000
00010000
00010000
00010000
00011000
00000000
;

//---------------dance-double - ----------------
#NOTES:
     dance-double:
     :
     Hard:
     13:
     0.618177,0.693887,0.144680,0.000000,0.440616,329.000000,318.000000,11.000000,0.000000,0.000000,0.000000,0.618177,0.693887,0.144680,0.000000,0.440616,329.000000,318.000000,11.000000,0.000000,0.000000,0.000000:
00000000
00000000
00000000
00000000
,
00000000
00000000
00000000
00000000
,
00011000
00000000
00000000
00001000
00000000
00000000
00100000
00000000
00010000
00000000
00000000
10000000
00000000
00000000
00010000
00000000
,
01000000
00000000
00000000
00001000
00000000
00000000
00010000
00000000
00000100
00000000
00000010
00000000
00000001
00000000
00000000
00000000
,
00001000
00000000
00000100
00000000
00010000
00000000
00000000
00001000
00000000
00001000
00000000
00000000
00010000
00000000
00001000
00000000
,
01000000
00000000
00100000
01000000
00000000
00000000
10000000
00000000
01000000
00000000
00010000
00000000
00100000
00000000
00000000
00000000
,
00011000
00000000
00000000
00010000
00000000
00000000
00000010
00000000
00001000
00000000
00000000
00000100
00000000
00000000
00000010
00000000
,
00000001
00000000
00000000
00001000
00000000
00000000
00000001
00000000
00000100
00000000
00001000
00000000
00010000
00000000
00000000
00000000
,
00001000
00000000
01000000
00000000
00100000
00000000
00000000
10000000
00000000
10000000
00000000
00000000
01000000
00000000
00100000
00000000
,
00010000
00000000
01000000
00001000
00000000
00000000
00010000
00000000
00001000
00000000
00011000
00000000
00000000
00000000
00000000
00000000
,
00001001
00000000
00000000
00000000
00000010
00000000
00000000
00000001
00000100
00000000
00000010
00000000
00001000
00000000
00010000
00000000
,
00100000
00000000
01000000
00000000
10000000
00000000
00000000
00010000
01000000
00000000
00010000
00000000
00100000
00000000
00001000
00000000
,
00100000
00000000
00000000
00000000
00001000
00000000
00000000
00010000
00001000
00000000
00010000
00000000
00000100
00000000
00000010
00000000
,
00000001
00001000
00000010
00000100
00000010
00010000
00001000
00000000
,
00100000
00001000
00100000
00000000
00001000
00010000
00001000
00000000
,
00010000
00000100
00010000
00000000
00001000
00001000
00001000
00001000
,
00010000
00001000
00010000
00000000
00001000
00100000
00001000
00000000
,
00010000
00000100
00010000
00000000
00001000
00010000
00000100
00000000
,
00010000
00100000
01000000
00000000
00001000
00100000
00010000
00000000
,
01000000
00001000
00010000
00000000
00001000
00001000
00001000
00001000
,
00010000
00000100
00001000
00000000
00000010
00010000
00001000
00000000
,
00010000
00000100
00000010
00000000
00001000
00000100
00010000
00000000
,
00011000
00000000
00000000
00000000
00001000
00000000
00000000
00100000
00010000
00000000
00100000
00000000
00001000
00100000
00000000
00001000
,
00100000
00000000
00001000
00100000
00000000
00000000
00010000
00000000
10000000
00000000
01000000
00000000
00100000
00000000
00001000
00000000
,
00010000
00000000
00000000
00000000
00011000
00000000
00000000
00000000
00001000
00000000
00010000
00000000
00000100
00010000
00000000
00000100
,
00010000
00000000
00000100
00010000
00000000
00000000
00001000
00000000
00000010
00000000
00000001
00000000
00000100
00000010
00000000
00001010
,
00000000
00000100
00010000
00100000
01000000
10000000
01000000
00100000
,
10000000
00000000
00010000
01000000
00000000
00000000
00100000
00000000
10000000
00000000
01000000
00000000
00100000
00000000
00010000
01000000
,
00000000
00000000
00001000
00000000
01000000
00000000
00100000
00000000
01000000
00000000
00001000
00000000
00010000
00001000
00000000
00010000
,
00001000
00000000
00010000
00001000
00000000
00000000
00100000
00000000
00100000
00000000
00000000
00001000
00000000
00010000
00000100
00000000
,
00000010
00000001
00001000
00000000
00000100
00001000
00000001
00000000
,
00001000
00000100
00010000
00000000
00001000
00100000
01000000
10000000
,
01000000
00000000
00100000
00000000
00010000
00000000
00000000
00010000
01000000
00000000
00001000
00000000
00010000
00000000
00000000
00010000
,
00001000
00000000
00010000
00000000
00000100
00000000
00000000
00000100
00010000
00000000
00000100
00000000
00000010
00000000
00000001
00000000
,
00000010
00000100
00001000
00000000
00000010
00010000
00001000
00000000
,
00010000
00001000
00100000
00000000
00010000
10000000
01000000
00010000
,
01000000
00000000
10000000
00000000
00010000
00000000
00000000
00010000
00100000
00000000
00001000
00000000
00010000
00000000
00000000
00010000
,
00000100
00000000
00000010
00000000
00000001
00001000
00000001
00001000
00000000
00000000
00000000
00000000
00000000
00000000
00000000
00000000
,
00001000
01000000
00000000
00100000
00000000
01000000
00000000
00000000
00010000
00000000
00000000
10010000
00000000
00000000
00000000
00000000
,
10000000
01000000
00000000
10000000
00000000
00010000
00000000
00000000
00100000
00001000
00000000
00011000
00000000
00000000
00000000
00000000
,
00010000
00000010
00000000
00010000
00000010
00000000
00001000
00000000
00000001
00000000
00000000
00001001
00000000
00000000
00000000
00000010
,
00001000
00000010
00000000
00001000
00000010
00000000
00010000
00000000
00001000
00010000
00000000
00011000
00000000
00000000
00000000
00000000
,
00001000
00000000
00100000
00000000
01000000
00000000
10000000
00000000
01000000
00100000
00000000
00010000
00000000
00000000
01000000
00000000
,
00001000
00000000
00010000
00000000
00001000
00000000
00000010
00000000
00000001
00001000
00000000
00000001
00001000
00000000
00000100
00000000
,
00010000
00001000
00000000
00010000
00001000
00010000
00001000
00000000
01000000
00000000
00001000
00010000
00000000
00010000
00001000
00000000
,
00010000
00000000
00000010
00001000
00000010
00001000
00000010
00000000
00010000
00000000
00001000
00000000
00010000
00001000
00010000
00000000
;

//---------------dance-double - ----------------
#NOTES:
     dance-double:
     :
     Easy:
     6:
     0.311907,0.361042,0.263054,0.000000,0.000000,166.000000,146.000000,20.000000,0.000000,0.000000,0.000000,0.311907,0.361042,0.263054,0.000000,0.000000,166.000000,146.000000,20.000000,0.000000,0.000000,0.000000:
// measure 0
00000000
00000000
00000000
00000000
,  // measure 1
00000000
00000000
00000000
00000000
,  // measure 2
01100000
00000000
00100000
00100000
,  // measure 3
10010000
00000000
01000000
00100000
,  // measure 4
10000000
01000000
00010000
00001000
,  // measure 5
00010000
00000010
00001000
00000100
,  // measure 6
00001001
00000000
00000100
00000100
,  // measure 7
00000110
00000000
00000001
00001000
,  // measure 8
00000100
00000010
00000100
00010000
,  // measure 9
00001000
01000000
01010000
00000000
,  // measure 10
10000000
10000000
10000000
10000000
,  // measure 11
01000000
00010000
00001000
00000010
,  // measure 12
00000001
00000001
00000001
00000001
,  // measure 13
00000001
00001000
00000010
00010000
,  // measure 14
00011000
00001000
00001000
00001000
,  // measure 15
01001000
01000000
01000000
01000000
,  // measure 16
01100000
00100000
00100000
00100000
,  // measure 17
10100000
10000000
00100000
10000000
,  // measure 18
01000000
00010000
00001000
00000010
,  // measure 19
00001000
00010000
00000010
00000100
,  // measure 20
00000001
00001000
00000100
00010000
,  // measure 21
00001000
00010000
00010100
00000000
,  // measure 22
00010000
00010000
00010000
00010000
,  // measure 23
00001000
00000000
00100000
00000000
,  // measure 24
00010000
00010000
00010000
00010000
,  // measure 25
01000000
00000000
00001000
00000000
,  // measure 26
00010000
00010000
00010000
00010000
,  // measure 27
00000010
00000000
00000100
00000000
,  // measure 28
00000001
00000001
00000001
00000001
,  // measure 29
00001001
00000000
00000000
00000000
,  // measure 30
00001000
00000100
00010000
00000100
,  // measure 31
00001000
00000000
00001000
00000000
,  // measure 32
00000100
00010000
00001000
00100000
,  // measure 33
00001000
00000000
00001000
00000000
,  // measure 34
00010000
00001000
01000000
00010000
,  // measure 35
00100000
00000000
00100000
00000000
,  // measure 36
00001000
00010000
00000100
00010000
,  // measure 37
00000010
00000000
00000000
00000000
,  // measure 38
00001001
00000100
00000010
00010000
,  // measure 39
00001000
00000000
00010000
00010000
,  // measure 40
00011000
00001000
01000000
00100000
,  // measure 41
10000000
00000000
00010000
01000000
,  // measure 42
00011000
00010000
00000010
00001000
,  // measure 43
00000100
00000000
00000100
00000000
,  // measure 44
00001001
00000000
00010100
00000000
,  // measure 45
00011000
00011000
00011000
00011000
;
