#VERSION:0.83;
#TITLE:DENIM;
#SUBTITLE:(ELECTRO MIX);
#ARTIST:SLAKE (another mixed by DEPROGRAM MAN);
#TITLETRANSLIT:;
#SUBTITLETRANSLIT:;
#ARTISTTRANSLIT:;
#GENRE:;
#ORIGIN:;
#TAGS:;
#CREDIT:;
#BANNER:DENIM (ELECTRO MIX).png;
#BACKGROUND:DENIM (ELECTRO MIX)-bg.png;
#PREVIEWVID:;
#JACKET:DENIM (ELECTRO MIX)-jacket.png;
#CDIMAGE:;
#DISCIMAGE:;
#LYRICSPATH:;
#CDTITLE:Beatmania.png;
#MUSIC:DENIM (ELECTRO MIX).ogg;
#OFFSET:-0.100000;
#SAMPLESTART:35.227997;
#SAMPLELENGTH:15.000000;
#SELECTABLE:YES;
#BPMS:0.000000=150.000000
;
#STOPS:;
#DELAYS:;
#WARPS:;
#TIMESIGNATURES:0.000000=4=4
;
#TICKCOUNTS:0.000000=4
;
#COMBOS:0.000000=1
;
#SPEEDS:0.000000=1.000000=0.000000=0
;
#SCROLLS:0.000000=1.000000
;
#LABELS:0.000000=Song Start
;
#BGCHANGES:8.000=wave3.mp4=1.000=1=0=1===CrossFade==,
16.000=waterfall1.mp4=1.000=0=0=1=====,
24.000=wave3.mp4=1.000=0=0=1=====,
32.000=waterfall1.mp4=1.000=0=0=1=====,
40.000=wave2.mp4=1.000=0=0=1=====,
48.000=square4.mp4=1.000=0=0=1=====,
56.000=wave2.mp4=1.000=0=0=1=====,
64.000=square4.mp4=1.000=0=0=1=====,
72.000=blackhole2.mp4=0.700=0=0=1=====,
80.000=blackhole2r.mp4=0.700=0=0=1=====,
88.000=wires1.mp4=0.800=0=0=1=====,
96.000=web1.mp4=1.000=0=0=1=====,
104.000=wheel4.mp4=1.000=0=0=1=====,
112.000=wheel2.mp4=1.000=0=0=1=====,
116.000=wave3.mp4=1.000=0=1=1=StretchRewind====,
120.000=blackhole2.mp4=0.700=0=1=1=StretchRewind====,
128.000=blackhole2r.mp4=0.700=0=1=1=StretchRewind====,
136.000=blackhole2.mp4=0.700=0=1=1=StretchRewind====,
144.000=blackhole2r.mp4=0.700=0=1=1=StretchRewind====,
152.000=wheel7.mp4=1.000=0=0=1=====,
160.000=wheel4.mp4=1.000=0=1=1=StretchRewind====,
168.000=wheel7.mp4=1.000=0=0=1=====,
176.000=wave3.mp4=1.000=0=1=1=StretchRewind====,
183.500=DENIM (ELECTRO MIX)-bg.png=1.000=0=0=1=====,
99999.000=-nosongbg-=1.000=0=0=0=StretchNoLoop====,
99999=-nosongbg-=1.000=0=0=0 // don't automatically add -songbackground-
;
#KEYSOUNDS:;
#ATTACKS:
;

//---------------dance-single - ----------------
#NOTEDATA:;
#CHARTNAME:;
#CHARTHASH:400121319;
#STEPSTYPE:dance-single;
#BANNER:;
#DESCRIPTION:;
#CHARTSTYLE:;
#DIFFICULTY:Challenge;
#METER:16;
#METERF:16.000000;
#LASTSECONDHINT:73.500000;
#RADARVALUES:0.914346,1.031308,0.938905,0.000000,1.090981,484.000000,413.000000,71.000000,0.000000,0.000000,0.000000,0.000000,0.000000,0.000000,0.914346,1.031308,0.938905,0.000000,1.090981,484.000000,413.000000,71.000000,0.000000,0.000000,0.000000,0.000000,0.000000,0.000000;
#CREDIT:;
#NOTES:
0000
0000
0000
0000
,
0000
0000
0000
0000
,
1001
0000
0000
0000
0010
0000
0001
1000
0000
0100
0000
0000
1000
0000
0010
0000
,
0101
0000
0000
0000
0001
0000
1000
0100
0000
1000
0010
0000
0100
0000
0001
0000
,
1010
0000
0000
0000
0100
0000
0001
1000
0000
0010
0000
0000
0100
0000
1000
0000
,
0101
0000
0000
0000
0001
0000
1000
0010
0000
0100
0010
0000
0100
0000
0001
0000
,
1001
0000
0000
0000
0010
0000
0001
1000
0000
0100
0000
0000
0010
0000
0001
0000
,
0110
0000
0000
0000
1000
0000
0100
0001
0000
0100
1000
0000
0010
0000
0100
0000
,
1001
0000
0000
0000
0010
0000
0100
0001
0000
1000
0000
0000
0100
0000
0010
0000
,
1100
0000
0000
0000
0001
0000
1000
0001
0000
0010
0001
0010
0001
0000
0100
0000
,
0010
0000
1000
0010
1000
0000
0001
0100
0001
0100
0010
0000
1100
0000
0011
0000
,
1100
0000
1000
0001
1000
0000
0001
0010
0001
0010
0100
0000
0101
0000
1010
0000
,
0101
0000
0100
0000
0001
0000
1000
0001
0000
1000
0001
0000
0010
0000
0001
0000
,
0100
0000
0010
0000
1000
0000
0001
1000
0000
0001
1000
0000
0010
0000
0100
0000
,
0001
0000
0100
0010
0100
0000
0010
1000
0010
1000
0001
0000
0110
0000
1100
0000
,
0110
0000
0100
0001
0100
0000
0001
1000
0001
1000
0100
0000
0011
0000
0110
0000
,
0011
0000
1000
0001
1000
0000
0001
0010
0000
0001
0010
0000
0100
0000
1000
0000
,
0100
0000
0010
0100
0010
0000
0100
1000
0000
0100
1000
0000
0001
0000
0100
0000
,
0010
1010
0010
0011
0010
1010
0010
0011
,
0010
0100
0010
0100
0010
0100
0010
0100
0001
1000
0001
1000
0001
1000
0001
1000
,
1100
0011
1100
0011
1010
0101
1010
0101
,
0100
0010
0100
0010
0100
0010
0100
0010
1000
0001
1000
0001
1000
0001
1000
0001
,
1000
0001
0000
1000
0001
0000
1000
0001
0000
0010
0000
0001
0000
0100
0000
0001
,
0010
0001
0000
0010
0001
0000
1000
0010
0000
1000
0010
0000
0100
0000
0001
0000
,
0100
0010
0000
0100
0010
0000
0100
0010
0000
0100
0000
0001
0000
1000
0000
0100
,
1000
0100
0000
0010
0001
0000
0000
0000
1100
0000
0011
0000
0101
0000
1010
0000
,
0010
0100
0000
0010
0001
0000
0010
0100
0000
0010
0000
1000
0000
0100
0000
1000
,
0001
1000
0000
0100
0001
0000
0100
1000
0000
0100
0010
0000
0100
0000
1000
0000
,
0001
1000
0000
0010
0001
0000
0010
0100
0000
0010
0000
1000
0000
0010
0100
0000
,
1001
0000
0000
0000
0100
0000
0000
0010
0000
0010
0000
0000
1001
0000
0000
0000
,
0001
0000
1100
0000
0011
0000
1100
0000
0010
0000
0000
1010
0000
0101
0000
1010
,
0000
0000
0100
0000
0100
0000
0100
0000
0100
0000
0001
1000
0000
0110
0000
1000
,
0001
0000
1010
0000
0101
0000
1010
0000
0100
0000
0000
1100
0000
0011
0000
1100
,
0000
0000
0010
0000
0010
0000
0010
0000
0010
0000
0001
1000
0000
0100
1000
0100
,
0010
0000
0000
0001
0010
0000
1000
0010
0001
0000
0000
0001
0100
0000
1000
0100
,
0001
0000
0000
0100
0010
0000
1000
0010
0001
0000
0010
0100
0000
0010
1000
0100
,
0001
0000
0000
0100
1000
0000
0001
0100
1000
0000
0000
0100
0010
0000
0001
0010
,
1000
0000
0000
0010
0001
0000
1000
0010
0001
0000
0000
0110
0000
0000
0000
0000
,
1000
0010
0000
1000
0010
0000
1000
0010
0000
1100
0000
0011
0000
1100
0000
0000
,
0001
0010
0000
0001
0010
0000
0001
0010
0000
0101
0000
1010
0000
0101
0000
0000
,
0100
0010
0000
0100
0010
0000
0100
0010
0000
1100
0000
0011
0000
1100
0000
0000
,
0010
0100
0000
0010
0100
0000
0000
0000
1010
0000
0101
0000
1010
0000
0101
0000
,
1000
0100
0000
0010
0001
0000
1000
0100
0000
0011
0000
1100
0000
0011
0000
0000
,
0001
0100
0000
0010
1000
0000
0001
0100
0000
1010
0000
0101
0000
1010
0000
0000
,
0010
0100
0010
0000
1000
0001
1000
0000
0000
0100
0010
0100
0000
0010
0001
0010
,
1000
0010
0001
0010
0100
0010
0001
0000
1000
0001
1000
0000
0010
1000
0001
0000
;

//---------------dance-double - ----------------
#NOTEDATA:;
#CHARTNAME:;
#CHARTHASH:2740031100;
#STEPSTYPE:dance-double;
#BANNER:;
#DESCRIPTION:;
#CHARTSTYLE:;
#DIFFICULTY:Challenge;
#METER:16;
#METERF:16.000000;
#LASTSECONDHINT:0.100000;
#RADARVALUES:0.889787,0.909978,0.766993,0.000000,0.932293,471.000000,413.000000,58.000000,0.000000,0.000000,0.000000,0.000000,0.000000,0.000000,0.889787,0.909978,0.766993,0.000000,0.932293,471.000000,413.000000,58.000000,0.000000,0.000000,0.000000,0.000000,0.000000,0.000000;
#CREDIT:;
#NOTES:
// measure 0
00000000
00000000
00000000
00000000
,  // measure 1
00000000
00000000
00000000
00000000
,  // measure 2
10010000
00000000
00000000
00000000
01000000
00000000
00010000
00100000
00000000
00000000
01000000
00000000
00100000
00000000
00010000
00000000
,  // measure 3
01000000
00000000
00001000
00000000
00010000
00000000
00001000
00010000
00000000
00001000
00010000
00000000
00001000
00000000
00000010
00000000
,  // measure 4
00001001
00000000
00000000
00001000
00000100
00000000
00010000
00000100
00000000
00010000
00000100
00000000
00010000
00000000
00100000
00000000
,  // measure 5
01000000
00000000
00000000
00010000
10000000
00000000
00010000
10000000
00000000
00010000
10000000
00000000
00100000
00000000
00010000
00000000
,  // measure 6
00011000
00000000
00000000
00000000
00000010
00000000
00001000
00000001
00000000
00000000
00000010
00000000
00000100
00000000
00001000
00000000
,  // measure 7
00000010
00000000
00010000
00000000
00001000
00000000
00010000
00001000
00000000
00010000
00001000
00000000
00100000
00000000
00010000
00000000
,  // measure 8
10010000
00000000
00000000
01000000
00010000
00000000
01000000
00010000
00000000
01000000
00010000
00000000
00100000
00000000
00001000
00000000
,  // measure 9
00010000
00000000
00000100
00000000
00000010
00000000
00000001
00001000
00000000
00000000
00000100
00000000
00010000
00000000
00100000
00000000
,  // measure 10
01010000
00000000
10100000
00000000
01010000
00000000
10000000
01000000
00010000
01000000
10000000
00000000
00110000
00000000
11000000
00000000
,  // measure 11
00110000
00000000
00000000
00000100
00010000
00000000
00001000
00010000
00000000
00001000
00010000
00000000
00000100
00000000
00000010
00000000
,  // measure 12
00000101
00000000
00001010
00000000
00000101
00000000
00001000
00000010
00000001
00000010
00001000
00000000
00000011
00000000
00001100
00000000
,  // measure 13
00000011
00000000
00001000
00000000
00000100
00000000
00010000
00001000
00000000
00010000
00001000
00010000
00001000
00000000
00100000
00000000
,  // measure 14
00110000
00000000
11000000
00000000
00110000
00000000
10000000
00100000
00010000
00100000
10000000
00000000
01010000
00000000
10100000
00000000
,  // measure 15
01010000
00000000
00100000
00000000
00001000
00000000
00010000
00001000
00000000
00010000
00001000
00000000
00010000
00000000
00000010
00000000
,  // measure 16
00001100
00000000
00000011
00000000
00001100
00000000
00000001
00000100
00001000
00000100
00000001
00000000
00001010
00000000
00000101
00000000
,  // measure 17
00001010
00000000
00000100
00000000
00010000
00000000
00001000
00010000
00000000
00001000
00010000
00001000
00010000
00000000
00001000
00000000
,  // measure 18
01000000
01010000
01000000
11000000
01000000
01010000
01000000
11000000
,  // measure 19
00100000
10000000
01000000
10000000
01000000
00100000
00010000
00100000
00010000
01000000
00001000
01000000
00001000
00010000
00001000
00010000
,  // measure 20
00000100
00001100
00000100
00000101
00000100
00000110
00000100
00001100
,  // measure 21
00000100
00010000
00001000
00010000
00001000
00100000
00001000
00100000
00001000
01000000
00001000
01000000
00100000
10000000
01000000
00100000
,  // measure 22
00010000
01000000
00000000
00010000
01000000
00000000
00010000
01000000
00000000
00000000
00010000
00000000
00100000
00000000
00001000
00000000
,  // measure 23
00010000
00001000
00000000
00010000
00001000
00000000
00010000
00001000
00000000
00000000
00010000
00000000
00000010
00000000
00000100
00000000
,  // measure 24
00000001
00001000
00000000
00000001
00001000
00000000
00000001
00001000
00000000
00000000
00000010
00000000
00001000
00000000
00010000
00000000
,  // measure 25
00100000
00010000
00000000
00010000
10000000
00000000
00000000
00000000
01010000
00000000
10100000
00000000
11000000
00000000
00110000
00000000
,  // measure 26
01000000
00010000
00000000
01000000
00010000
00000000
01000000
00010000
00000000
00000000
10000000
00000000
00010000
00000000
00100000
00000000
,  // measure 27
00001000
00010000
00000000
00001000
00010000
00000000
00001000
00010000
00000000
00000000
00000010
00000000
00001000
00000000
00000100
00000000
,  // measure 28
00000010
00000001
00000000
00000010
00000001
00000000
00000010
00000001
00000000
00000000
00001000
00000000
00000010
00000000
00000100
00000000
,  // measure 29
00001001
00000000
00000000
00000000
00000010
00000000
00000000
00000100
00000000
00000100
00000000
00000000
00001001
00000000
00000000
00000000
,  // measure 30
00000010
00000000
00000010
00000000
00000010
00000000
00000010
00000000
00000010
00000000
00000010
00001000
00000000
00000100
00000000
00010000
,  // measure 31
00000100
00000000
00010000
00000000
00010000
00000000
00010000
00000000
00010000
00000000
00001000
00010000
00000000
00001000
00000000
01000000
,  // measure 32
00100000
00000000
10000000
00000000
10000000
00000000
10000000
00000000
10000000
00000000
00100000
01000000
00000000
10000000
00000000
01000000
,  // measure 33
00010000
00000000
00100000
00000000
00100000
00000000
00100000
00000000
00100000
00000000
00001000
00010000
00001000
00000000
00010000
00000000
,  // measure 34
00000100
00000000
00000100
00000000
00000100
00000000
00000100
00000000
00000100
00000000
00001000
00000001
00000000
00000010
00000000
00000100
,  // measure 35
00010000
00000000
00001000
00000000
00001000
00000000
00001000
00000000
00001000
00000000
00100000
00010000
00000000
10000000
00000000
00010000
,  // measure 36
01000000
00000000
00010000
00000000
00010000
00000000
00010000
00000000
00010000
00000000
00100000
00001000
00000000
00010000
00000000
00001000
,  // measure 37
00100000
00000000
00001000
00010000
00001000
00000000
00010000
00000000
00000100
00000000
00000000
00001000
00000001
00000000
00000000
00000000
,  // measure 38
00000100
00000001
00000000
00000100
00000001
00000000
00000100
00000001
00000000
00001001
00000000
00001001
00000000
00001001
00000000
00000010
,  // measure 39
00000100
00001000
00000000
00000100
00001000
00000000
00000100
00001000
00000000
00000100
00000000
00010000
00000000
00001000
00000000
00100000
,  // measure 40
00010000
00100000
00000000
00010000
00100000
00000000
00010000
00100000
00000000
10010000
00000000
10010000
00000000
10010000
00000000
01000000
,  // measure 41
00100000
00010000
00000000
00010000
10000000
00000000
00000000
00000000
00110000
00000000
11000000
00000000
01010000
00000000
10100000
00000000
,  // measure 42
01000000
00010000
00000000
01000000
00010000
00000000
01000000
00010000
00000000
00110000
00000000
00110000
00000000
00110000
00000000
00001000
,  // measure 43
00010000
00001000
00000000
00010000
00001000
00000000
00010000
00001000
00000000
00010010
00000000
00010010
00000000
00010010
00000000
00000010
,  // measure 44
00000100
00000001
00001000
00000000
00000100
00010000
00001000
00000000
00000000
00000000
00001000
00100000
00000000
00010000
10000000
01000000
,  // measure 45
00100000
00010000
00100000
01000000
00100000
00010000
01000000
00000000
00001000
00100000
00010000
00000000
00100000
00001000
00010000
00000000
;
