#VERSION:0.83;
#TITLE:ダレダレダレDA!;
#SUBTITLE:;
#ARTIST:滝根俊之;
#TITLETRANSLIT:DAREDAREDARE DA!;
#SUBTITLETRANSLIT:;
#ARTISTTRANSLIT:Toshiyuki Takine;
#GENRE:;
#ORIGIN:;
#TAGS:;
#CREDIT:;
#BANNER:DAREDAREDARE DA!.png;
#BACKGROUND:DAREDAREDARE DA!-bg.png;
#PREVIEWVID:;
#JACKET:DAREDAREDARE DA!-jacket.png;
#CDIMAGE:;
#DISCIMAGE:;
#LYRICSPATH:;
#CDTITLE:OSU! SARARIMAN BANCHO.png;
#MUSIC:DAREDAREDARE DA!.ogg;
#OFFSET:-0.233000;
#SAMPLESTART:25.850000;
#SAMPLELENGTH:15.000000;
#SELECTABLE:YES;
#BPMS:0.000000=159.000000;
#STOPS:300.000000=1.130000;
#DELAYS:;
#WARPS:;
#TIMESIGNATURES:0.000000=4=4;
#TICKCOUNTS:0.000000=4;
#COMBOS:0.000000=1;
#SPEEDS:0.000000=1.000000=0.000000=0;
#SCROLLS:0.000000=1.000000;
#FAKES:;
#LABELS:0.000000=Song Start;
#BGCHANGES:-1.000=DAREDAREDARE-DA!.mp4=1.000=1=0=0=StretchNoLoop==CrossFade==,
449.000=DAREDAREDARE DA!-bg.png=1.000=1=0=1===CrossFade==,
99999=-nosongbg-=1.000=0=0=0 // don't automatically add -songbackground-
;
#KEYSOUNDS:;
#ATTACKS:
;

//---------------dance-single - ----------------
#NOTEDATA:;
#CHARTNAME:;
#STEPSTYPE:dance-single;
#BANNER:;
#DESCRIPTION:;
#CHARTSTYLE:;
#DIFFICULTY:Beginner;
#METER:4;
#METERF:0.000000;
#RADARVALUES:0.162300,0.292792,0.023186,0.011593,0.000000,196.000000,192.000000,4.000000,2.000000,0.000000,0.000000,0.000000,0.000000,0.000000,0.162300,0.292792,0.023186,0.011593,0.000000,196.000000,192.000000,4.000000,2.000000,0.000000,0.000000,0.000000,0.000000,0.000000;
#CREDIT:;
#NOTES:
0000
0000
0000
0000
,
0000
0000
0000
0000
,
0000
0000
0000
0000
,
0000
0000
0000
0000
,
1000
0000
0000
0000
,
1000
0000
0000
0000
,
0001
0000
0000
0000
,
0001
0000
0000
0000
,
0000
0000
0000
0000
,
0100
0000
0100
0000
,
0100
0000
0000
0000
,
0010
0000
0010
0000
,
0010
0000
0000
0000
,
1000
0000
1000
0000
,
1000
0000
0000
0000
,
0001
0000
0001
0000
,
0001
0000
0000
0000
,
1000
1000
1000
1000
,
1000
0000
0000
0000
,
1000
1000
1000
1000
,
1000
0000
0001
0000
,
0100
0100
0100
0100
,
0100
0000
0000
0000
,
0010
0010
0010
0010
,
0010
0000
0100
0000
,
0001
0000
0000
0000
,
0001
0000
0000
0000
,
1000
0000
0000
0000
,
1000
0000
0000
0000
,
0100
0000
0100
0000
,
1000
0000
1000
0000
,
0010
0000
0000
0000
,
0100
0000
0000
0000
,
0001
0000
0001
0000
,
0001
0000
0000
0000
,
1000
0000
1000
0000
,
1000
0000
0000
0000
,
0010
0000
0010
0000
,
0010
0000
0000
0000
,
0100
0000
0100
0000
,
0100
0000
0000
0000
,
0010
0000
0010
0000
,
0010
0000
0000
0000
,
1000
0000
0000
0000
,
0001
0000
0000
0000
,
1000
0000
1000
0000
,
1000
0000
0000
0000
,
0010
0010
0100
0100
,
0001
0001
1000
1000
,
0100
0000
1000
0000
,
0000
0000
0000
0000
,
0001
0001
0001
0000
,
0001
0000
0001
0000
,
1000
1000
1000
0000
,
1000
0000
1000
0000
,
0010
0010
0010
0000
,
0010
0000
0010
0000
,
0100
0100
0100
0000
,
0100
0000
0000
0000
,
0010
0010
0010
0000
,
0010
0000
0010
0000
,
1000
1000
1000
0000
,
1000
0000
1000
0000
,
0001
0001
0001
0000
,
0001
0000
0001
0000
,
0100
0000
0100
0000
,
0010
0000
0000
0000
,
0100
0000
0100
0000
,
0100
0000
0000
0000
,
0010
0000
0010
0000
,
0010
0000
0000
0000
,
1000
0000
1000
0000
,
1000
0000
0000
0000
,
0001
0000
0001
0000
,
0001
0000
0000
0000
,
0000
0000
0000
0000
,
0000
1000
0000
0000
,
0000
1000
0000
0000
,
0000
0001
0000
0001
,
0000
0001
0000
0000
,
0000
0010
0000
0000
,
0000
0010
0000
0000
,
0000
0001
0000
0001
,
0000
1000
0000
0000
,
0000
1000
1000
1000
,
0000
0100
0000
0100
,
0000
1000
1000
1000
,
0000
0010
0000
0000
,
0000
0100
0100
0100
,
0000
0001
0000
0001
,
0000
1000
1000
1000
,
0000
1001
0000
0000
,
0000
0010
0000
0010
,
0000
0010
0000
0000
,
0000
0100
0000
0100
,
0000
0100
0000
0000
,
0000
0001
0000
0001
,
0000
0001
0000
0000
,
0000
1000
0000
1000
,
0000
1000
0000
0000
,
0000
0100
0000
0100
,
0000
0100
0100
0100
,
0000
1000
0000
1000
,
0000
1000
1000
1000
,
0000
0001
0000
0001
,
0000
0001
0001
0001
,
0000
1000
0000
1000
,
0000
1000
1000
1000
,
0000
1001
0000
0000
,
0000
0110
0000
0000
,
0000
1000
0000
0001
,
0000
2002
0000
0000
,
0000
3003
0000
0000
;

//---------------dance-single - ----------------
#NOTEDATA:;
#CHARTNAME:;
#STEPSTYPE:dance-single;
#BANNER:;
#DESCRIPTION:;
#CHARTSTYLE:;
#DIFFICULTY:Easy;
#METER:7;
#METERF:0.000000;
#RADARVALUES:0.329568,0.390390,0.249246,0.318804,0.002898,398.000000,355.000000,43.000000,55.000000,0.000000,0.000000,0.000000,0.000000,0.000000,0.329568,0.390390,0.249246,0.318804,0.002898,398.000000,355.000000,43.000000,55.000000,0.000000,0.000000,0.000000,0.000000,0.000000;
#CREDIT:;
#NOTES:
0000
0000
0000
0000
,
0000
0000
0000
0000
,
0000
0000
0000
0000
,
0000
0000
0000
0000
,
1000
1000
0010
0010
,
0100
0000
0100
0000
,
0001
0001
1000
1000
,
0001
0100
0010
1000
,
2002
0000
3003
0000
,
0001
0100
0001
0001
,
1000
0010
1000
1000
,
0100
1000
0100
0001
,
0100
1000
0010
1000
,
0001
0001
0100
0001
,
0010
0010
0001
0100
,
0001
0100
0010
1000
,
0100
0001
1000
0010
,
0002
0003
0002
0003
,
0101
1001
1010
1100
,
2000
3000
2000
3000
,
1010
1001
0220
0330
,
0020
0030
0020
0030
,
1000
0010
1000
1001
,
0200
0300
0200
0300
,
0010
0001
0100
0101
,
0002
0000
0000
0000
0000
1000
1003
0000
,
2000
0000
0010
3020
,
0130
0000
0100
0001
,
1000
0000
0100
1000
,
0001
0000
0001
0000
,
1000
0000
1000
0000
,
0100
0100
1000
1000
,
0010
0010
0100
0100
,
0001
0000
1000
0001
,
2002
0000
3003
0110
,
0010
0000
0010
1000
,
2002
0000
3003
1100
,
1000
0000
0010
0100
,
0202
0000
0303
0011
,
0001
1000
0100
1000
,
0010
0100
0001
0010
,
0200
1000
1300
0000
,
2000
0001
3001
0000
,
0002
0003
0200
0300
,
1010
1001
0001
0100
,
0020
1000
1030
0000
,
0200
0010
0310
0000
,
0011
0001
0001
1000
,
1001
1000
1000
0010
,
0210
0000
0010
0300
,
2002
0000
3003
0000
,
1000
1000
0001
0001
,
1000
0000
0000
0000
0010
0100
0010
0000
,
0100
0100
0001
0001
,
0010
0100
1000
0100
,
0010
0010
0001
0001
,
0100
0000
0000
0000
0001
1000
0001
0000
,
1000
1000
0010
0010
,
1001
0100
1001
0110
,
0010
1000
0010
1000
,
0010
0000
0000
0000
0100
0001
0100
0000
,
0001
0010
0001
0010
,
0011
0000
1001
0000
,
1000
0010
1000
0001
,
0100
0000
0000
0000
0010
1000
0010
0000
,
1000
0010
0100
0001
,
1000
0000
0000
0001
0000
0000
0100
0000
,
1001
1000
1000
1000
,
1000
0000
0010
0100
,
1001
0001
0001
0001
,
0001
0000
0100
0000
,
0011
0001
0001
0001
,
0001
0000
0010
0000
,
0101
0100
0100
0100
,
0100
0000
0000
0010
0000
0000
0200
0000
,
0000
0300
0000
0000
0000
0000
0000
0000
0000
0000
0000
0000
0000
0000
0000
0000
0000
0000
0000
0000
0000
0000
0000
0000
0000
0000
0000
0000
0000
0000
0000
0000
0000
0000
0000
0000
0000
0000
0000
0000
0000
0000
0000
0000
0000
0000
0000
0000
0010
0000
0000
0000
0000
0000
0000
0000
0000
0000
0000
0000
0000
0000
0000
0000
0000
0000
0000
0000
0000
0000
0000
0000
0000
0000
0000
0000
0000
0000
0000
0000
0000
0000
0000
0000
0000
0000
0000
0000
0000
0000
0000
0000
0000
0000
0000
0000
0000
0000
0000
0000
0000
0000
0000
0000
0000
0000
0000
0000
0000
0000
0000
0000
0000
0000
0000
0000
0000
0000
0000
0000
0000
0000
0000
0000
0000
0000
0000
0000
0000
0000
0000
0000
0000
0000
0000
0000
0000
0000
0000
0000
0000
0000
0000
0000
1000
0000
0000
0000
0000
0000
0000
0000
0000
0000
0000
0000
0000
0000
0000
0000
0000
0000
0000
0000
0000
0000
0000
0000
0000
0000
0000
0000
0000
0000
0000
0000
0000
0000
0000
0000
0000
0000
0000
0000
0000
0000
0000
0000
0000
0000
0000
0000
,
0001
2001
0000
0100
,
0000
0100
0000
0100
,
0100
3200
1000
0000
,
1000
0000
1000
0000
,
1000
2300
0001
0000
,
0001
0000
0001
0001
,
3002
0023
0001
0032
,
1003
2002
0000
3003
,
0110
1001
1000
0100
,
1000
0100
0001
0100
,
0001
0100
1000
0100
,
0001
0100
1000
0001
,
1000
0010
1000
0010
,
0001
0010
0001
0010
,
0100
0001
1000
0100
,
1000
2002
0000
3003
,
0000
0002
0003
0001
,
0001
0200
0300
0100
,
1001
0200
0300
1000
,
1000
0000
0010
0000
1000
0000
0001
1000
,
0001
2000
3000
0010
,
1010
0200
0300
0001
,
1001
0020
0030
0001
,
0100
0000
0001
0000
1000
0000
0010
1000
,
0010
1000
0100
1000
,
0100
0000
1000
0000
1000
0000
0001
0100
,
0001
0010
0001
0010
,
0001
0010
0010
0010
,
0000
0001
1000
0001
,
1000
0000
0001
0000
0001
0000
1000
0010
,
1000
0100
1000
0100
,
1000
0001
0001
1000
,
0001
2020
0000
3030
,
0100
0202
0000
0303
,
0010
2002
0000
3003
,
0100
2002
0000
0000
,
0000
3003
0003
0000
;

//---------------dance-single - ----------------
#NOTEDATA:;
#CHARTNAME:;
#STEPSTYPE:dance-single;
#BANNER:;
#DESCRIPTION:;
#CHARTSTYLE:;
#DIFFICULTY:Medium;
#METER:10;
#METERF:0.000000;
#RADARVALUES:0.510086,0.553052,0.428936,0.411546,0.055066,616.000000,542.000000,74.000000,71.000000,0.000000,0.000000,0.000000,0.000000,0.000000,0.510086,0.553052,0.428936,0.411546,0.055066,616.000000,542.000000,74.000000,71.000000,0.000000,0.000000,0.000000,0.000000,0.000000;
#CREDIT:;
#NOTES:
0000
0000
0000
0000
,
0000
0000
0000
0000
,
0000
0000
0000
0000
,
0000
0000
0000
0000
,
1000
1000
0000
0010
1000
0000
1001
0000
,
0001
0001
0100
0010
1000
1000
1000
0000
,
0100
0100
0000
1000
0010
0000
1001
0000
,
0001
0100
0010
1000
0001
0000
1001
0000
,
0110
0000
0000
0100
0000
0000
0100
0000
0010
0000
0000
0000
1010
0000
0000
0000
,
0101
0000
0001
0000
0001
0010
0100
1000
,
0100
0000
0100
0000
0100
1000
0100
0001
,
0100
0000
1000
0000
0100
1000
0010
0100
,
0001
0000
0000
0000
0010
0000
0000
0001
1000
0000
0100
0000
1000
0000
0010
0000
,
1000
0000
1000
0000
1000
0010
0100
0001
,
0010
0000
0010
0000
0010
0001
0010
0100
,
0010
0000
0001
0000
0010
0001
1000
0010
,
1000
0000
0000
0000
0100
0000
0000
0100
1000
0000
0010
0000
0100
0000
0001
0000
,
2001
3100
1002
0013
,
0001
0000
0001
0000
1000
0010
1000
0000
,
1200
1300
1020
1030
,
1000
0100
0010
0001
0010
0000
0001
0000
,
0021
0031
0201
0301
,
0100
0000
0100
0000
0010
1000
0010
0000
,
2010
3100
1002
0013
,
0001
0010
0100
1000
0100
0000
1001
0000
,
0120
0000
1000
1000
0000
0100
0130
0000
,
0010
1000
0100
1000
,
2001
0000
0010
0000
0010
0000
0010
3010
,
1000
0100
1000
0000
1000
0000
0101
0000
,
0002
0000
0000
1000
0000
1003
0000
0000
0002
0000
0000
0010
0000
0013
0000
0000
,
0001
0001
1000
1000
,
0100
1000
0010
0100
,
0001
0000
0000
0000
0010
0000
0000
0000
0100
0000
0000
1000
0000
0001
0000
0000
,
0201
0000
0001
0000
0301
0100
0010
0000
,
0200
0301
0200
1300
,
0210
0000
0001
0000
0301
0100
0010
1000
,
0100
0000
0000
0100
0000
0000
0200
0000
0000
0000
0000
0000
0300
0000
0000
0000
,
2010
0000
0100
0000
3100
1000
0001
0000
,
0002
1003
2000
3001
,
0101
0001
0011
0001
,
1001
0000
0000
1000
0000
0000
2000
0000
0000
0000
0000
0000
3000
0000
0000
0000
,
0010
1000
0100
0001
,
0100
0000
1000
0000
0001
0001
0001
0000
,
0010
0001
0010
0100
,
0011
0101
1001
1100
,
1000
0001
0010
0001
,
1000
0000
0100
0000
1000
1000
1000
0000
,
2010
0000
3100
0000
1000
1000
0001
0010
,
0012
0000
0103
0000
0001
0001
1000
0010
,
2000
3200
2300
3020
,
0130
0000
0000
0100
0000
0000
0100
0000
0010
0000
0000
0000
1001
0000
0000
0000
,
0120
0000
1000
0000
1000
0000
1030
0010
,
0000
0010
0200
0000
0001
0001
0301
0000
,
2001
0000
0100
0000
0100
0000
3100
1000
,
0000
1000
0001
2000
0000
0000
3000
0000
,
0102
0000
0010
0000
0010
0000
0013
0001
,
0000
0001
2000
0000
0100
0100
3100
0000
,
2000
0010
0010
0000
0100
0000
0100
0000
,
3001
1000
0001
2000
0000
0000
3001
0000
,
0102
0000
1000
0000
1000
0000
1033
0001
,
0000
0001
0200
0000
0010
0010
0310
0000
,
1020
0000
1000
0000
1000
0000
1030
0010
,
0000
0010
0100
0020
0000
0000
0030
0000
,
1002
0000
0100
0000
0100
0000
0103
0001
,
0000
0001
2000
0000
0100
0100
3100
0000
,
0100
1000
0010
0100
,
0001
0001
0001
0001
0000
1000
1000
1000
,
1000
0010
0001
0010
,
1000
0100
0010
0001
0100
0010
1000
0000
,
0001
0010
0100
1000
,
0001
1000
0100
1000
0010
0100
0010
0000
,
1000
1010
0010
0110
,
0100
0001
0010
0001
1000
0100
1000
0000
,
1001
0001
1001
1000
,
1010
0000
0000
0010
0000
0000
0010
0000
0100
0000
0000
0000
0102
0000
0000
0000
,
0000
0003
0000
0000
0000
0000
0000
0000
0000
0000
0000
0000
0000
0000
0000
0000
0000
0000
0000
0000
0000
0000
0000
0000
0000
0000
0000
0000
0000
0000
0000
0000
0000
0000
0000
0000
0000
0000
0000
0000
0000
0000
0000
0000
0000
0000
0000
0000
1001
0000
0000
0000
0000
0000
0000
0000
0000
0000
0000
0000
0000
0000
0000
0000
0000
0000
0000
0000
0000
0000
0000
0000
0000
0000
0000
0000
0000
0000
0000
0000
0000
0000
0000
0000
1000
0000
0000
0000
0000
0000
0000
0000
0000
0000
0000
0000
0000
0000
0000
0000
0000
0000
0000
0000
0000
0000
0000
0000
0000
0000
0000
0000
0000
0000
0000
0000
0000
0000
0000
0000
0001
0000
0000
0000
0000
0000
0000
0000
0000
0000
0000
0000
0000
0000
0000
0000
0000
0000
0000
0000
0000
0000
0000
0000
1000
0000
0000
0000
0000
0000
0000
0000
0000
0000
0000
0000
0000
0000
0000
0000
0000
0000
0000
0000
0000
0000
0000
0000
0000
0000
0000
0000
0000
0000
0000
0000
0000
0000
0000
0000
0000
0000
0000
0000
0000
0000
0000
0000
0000
0000
0000
0000
,
1001
0120
1000
0000
,
2030
3002
0203
0010
,
0000
0320
1000
0100
,
1030
2002
3003
0220
,
0330
2001
0100
0000
,
3200
2300
3020
0230
,
0001
0301
1000
0010
,
0100
0000
0000
0000
1001
0000
0000
1010
0000
0000
0010
0000
0100
0000
0000
0000
,
0101
1001
1000
0100
,
1000
0100
1000
0010
0200
0000
0001
0001
,
0301
0001
0011
1000
,
1000
0010
0000
0010
0100
0002
0000
0000
,
0003
1001
0001
0100
,
0010
1000
0000
1000
0020
0000
1000
1000
,
1030
0100
1000
0001
,
0100
0001
1001
0000
0000
0110
0000
0010
,
1000
0010
0100
0100
0000
0001
1000
1000
,
0001
0001
0010
0001
0010
0000
0001
0001
,
0001
0000
0100
0001
0000
0010
0001
0001
,
1000
1000
0100
1000
0100
1000
0010
0010
,
0010
0000
0100
0010
0000
0100
0001
0001
,
0010
0010
0001
1000
0100
1000
0010
0010
,
0010
0000
1000
0010
0000
1000
0001
0001
,
1000
1000
0100
1000
0100
0001
0100
1000
,
0010
1000
2001
0000
3001
0000
1002
0000
,
1003
0000
1000
1000
0010
0010
0100
0100
,
0001
0021
0130
0012
,
1003
0000
1000
1000
0001
0010
0100
0000
,
1100
2010
3100
2001
,
3010
0000
0010
0010
1000
1000
0001
0001
,
0100
0120
1030
0210
,
0301
0000
0010
0010
0100
0100
0010
1000
,
0100
0000
1000
0000
1100
0000
0000
1100
0000
0000
1000
0000
0002
0000
0000
0000
,
0103
0000
0000
0000
0101
0000
0000
0101
0000
0000
0001
0000
2000
0000
0000
0000
,
3100
0000
0000
0000
1100
0000
0000
1100
0000
0000
1000
0000
0001
0000
0000
0000
,
0110
2002
0000
0000
,
0000
3003
0000
0000
;

//---------------dance-single - ----------------
#NOTEDATA:;
#CHARTNAME:;
#STEPSTYPE:dance-single;
#BANNER:;
#DESCRIPTION:;
#CHARTSTYLE:;
#DIFFICULTY:Hard;
#METER:15;
#METERF:0.000000;
#RADARVALUES:0.751052,0.845844,0.394157,0.301414,0.475307,907.000000,839.000000,68.000000,52.000000,0.000000,0.000000,0.000000,0.000000,0.000000,0.751052,0.845844,0.394157,0.301414,0.475307,907.000000,839.000000,68.000000,52.000000,0.000000,0.000000,0.000000,0.000000,0.000000;
#CREDIT:;
#NOTES:
// measure 0
0000
0000
0000
0000
,  // measure 1
0000
0000
0000
0000
,  // measure 2
0000
0000
0000
0000
,  // measure 3
0000
0000
0000
0000
,  // measure 4
1000
0010
0010
1000
0100
0100
1000
1000
,  // measure 5
0001
1000
0100
0001
0100
0100
1000
0000
,  // measure 6
0001
0010
0010
0001
1000
1000
0001
0001
,  // measure 7
1000
0010
0001
0010
1010
0000
0101
0000
,  // measure 8
1001
0000
0000
0110
0000
0000
1010
0000
1001
0000
1000
0001
1000
0000
0001
0000
,  // measure 9
0010
0001
0001
1000
0100
0100
1000
1000
,  // measure 10
0010
1000
0100
0001
0100
0100
0100
0000
,  // measure 11
1000
0010
0100
0001
0001
0010
0001
0001
,  // measure 12
1000
0000
0001
0000
0010
0000
0001
0000
1000
0000
1000
0000
1000
0000
0001
0100
,  // measure 13
0001
0010
0010
0001
1000
1000
0010
0010
,  // measure 14
1000
0100
0100
1000
0001
0001
0001
0000
,  // measure 15
1000
0100
0010
0001
0001
1000
0100
0100
,  // measure 16
1000
0000
0010
0000
0100
0000
0001
0000
1001
0000
0000
1000
0001
0000
0000
0001
,  // measure 17
1000
0000
0000
1000
0100
0000
0000
0100
0010
0000
0000
0010
0001
0000
0000
0001
,  // measure 18
0100
0100
0001
0001
1000
1000
1000
0000
,  // measure 19
0100
0000
0000
0100
1000
0000
0000
1000
0010
0000
0000
0010
0100
0000
0000
0100
,  // measure 20
0001
0001
0010
0010
0001
0001
1001
0000
,  // measure 21
1000
0000
0000
1000
0010
0000
0000
0010
1000
0000
0000
1000
0100
0000
0000
0100
,  // measure 22
1000
1000
0001
0001
0010
0010
0010
0000
,  // measure 23
0001
0000
0000
0001
0100
0000
0000
0100
0010
0000
0000
0010
1000
0000
0000
1000
,  // measure 24
0001
0000
0001
0000
0100
0000
0100
0000
0010
0000
0010
0000
0010
1000
0010
1000
,  // measure 25
0010
0000
1000
0000
0100
0000
0000
1000
0000
0000
1001
0000
1002
0000
0000
0000
,  // measure 26
1003
0001
0010
0001
0000
0001
1000
0100
,  // measure 27
0100
0000
1000
0100
0000
1000
0100
1000
0000
0010
1000
0010
0100
0000
0010
0000
,  // measure 28
0100
0000
0000
0101
0000
0000
0001
0000
1000
0000
0001
0010
0002
0000
0000
0000
,  // measure 29
2003
0000
0000
0010
0000
3010
0000
0000
0020
0000
0000
0100
0000
0130
0000
0000
,  // measure 30
0100
0000
0001
0000
1000
0000
0010
0000
1000
0000
0100
1000
0200
0000
0000
0000
,  // measure 31
1300
0000
1000
0001
0000
0010
0000
0001
0000
0100
0000
0010
0000
1000
0010
0000
,  // measure 32
1010
0000
1000
0000
0001
0000
0100
0000
0001
0010
0001
0010
0001
1000
0001
1000
,  // measure 33
0001
0000
0100
0000
0100
0000
0100
0001
0000
0100
0001
0000
1000
0000
0010
0000
,  // measure 34
1010
0000
0000
1001
0000
0000
0120
0000
0000
0000
1000
0000
1000
0000
1000
0000
,  // measure 35
1030
0000
0010
0000
0100
0000
0001
0010
0000
0001
0010
0000
0001
0000
1000
0000
,  // measure 36
1100
0000
0000
1001
0000
0000
0210
0000
0000
0000
0001
0000
0001
0000
0001
0000
,  // measure 37
0301
0000
1000
0000
1000
0000
1000
0010
0000
1000
0001
0000
0100
0000
0010
0000
,  // measure 38
0110
0000
0000
1001
0000
0000
0102
0000
0000
0000
1000
0000
1000
0000
1000
0000
,  // measure 39
1003
0000
0000
0001
0000
0000
1000
0000
0010
0000
0000
1000
0000
0000
0001
0000
,  // measure 40
0101
0000
0000
1001
0000
0000
2010
0000
0000
0000
3010
0000
0010
1000
0010
1000
,  // measure 41
0010
1000
0000
0100
1000
0100
0001
0100
,  // measure 42
1000
0010
1000
0002
0100
0100
0103
0000
,  // measure 43
0001
0001
1000
0020
1000
1000
0030
1000
,  // measure 44
1000
0010
0000
0000
0010
0100
0000
0000
0100
0001
0000
0000
0001
1000
0000
0000
,  // measure 45
1000
0001
0000
0010
0001
0010
0100
0010
,  // measure 46
0001
1000
0100
2000
0010
0010
3010
0000
,  // measure 47
0010
1000
0000
0000
1001
0000
0000
0000
1000
0001
1000
0000
0001
0000
0010
0000
,  // measure 48
0001
0100
0000
0000
0110
0000
0000
0000
0010
1000
0010
0000
1000
0000
0100
0000
,  // measure 49
1100
1000
0010
0100
0101
0001
1000
0001
,  // measure 50
0011
0000
0000
1001
0000
0000
1000
0000
1010
0000
1000
0001
1000
0000
0001
0000
,  // measure 51
0100
0100
0010
0010
1000
0100
0010
0002
,  // measure 52
0000
1000
1003
0002
1000
1000
2003
0000
,  // measure 53
0100
3100
1000
1000
0010
1000
0001
0102
,  // measure 54
0000
1003
0010
2010
0000
0001
0001
0000
,  // measure 55
3100
0100
1000
1000
0010
0100
0001
0012
,  // measure 56
0000
1000
1003
0002
1000
1000
2003
0000
,  // measure 57
3100
1000
0100
0001
0100
1000
0010
0100
,  // measure 58
0010
0000
0010
0000
0010
0000
0010
0000
0000
0000
1000
0000
0001
1000
0001
1000
,  // measure 59
0001
2000
0010
3020
1000
1000
1030
1002
,  // measure 60
0000
0103
0001
0020
0100
0100
0130
0000
,  // measure 61
1100
0000
1001
0001
1000
1000
1000
2010
,  // measure 62
0000
3010
0100
0002
0010
0010
0010
0013
,  // measure 63
0001
0002
1000
2003
0100
0100
3100
2100
,  // measure 64
0000
3010
1000
0200
0001
0001
0301
0000
,  // measure 65
0001
0100
1000
0001
0100
0010
1000
0001
,  // measure 66
1001
0000
1001
0000
1001
0000
1001
0000
0000
0000
1000
0010
1000
0010
1000
0010
,  // measure 67
1000
0000
0000
1000
0100
0000
0000
0100
0010
0000
0000
0010
0001
0000
0000
0001
,  // measure 68
0100
0000
0100
0000
0001
0000
1000
0001
2000
0000
0001
0000
3002
0000
0000
0000
,  // measure 69
0103
0001
0000
0000
0001
0010
0000
0000
0010
0001
0000
0000
0001
1000
0000
0000
,  // measure 70
1000
0000
1000
0010
0001
0000
0010
0000
1000
0100
0001
0000
0100
0000
1000
0000
,  // measure 71
0100
0000
0000
0100
1000
0000
0000
1000
0010
0000
0000
0010
0100
0000
0000
0100
,  // measure 72
0001
0000
0001
0000
0001
0000
0001
1000
0100
0000
1100
0000
1020
0000
0000
0000
,  // measure 73
0130
0010
0000
0000
0010
1000
0000
0000
1000
0001
0000
0000
0001
1000
0000
0000
,  // measure 74
1010
0000
0000
1001
0000
0000
0101
0000
0001
1000
0001
1000
0100
0000
2000
0000
,  // measure 75
0000
3000
0000
0000
0000
0000
0000
0000
0000
0000
0000
0000
0000
0000
0000
0000
0000
0000
0000
0000
0000
0000
0000
0000
0000
0000
0000
0000
0000
0000
0000
0000
0000
0000
0000
0000
0000
0000
0000
0000
0000
0000
0000
0000
0000
0000
0000
0000
1001
0000
0000
0000
0000
0000
0000
0000
0000
0000
0000
0000
0000
0000
0000
0000
0000
0000
0000
0000
0000
0000
0000
0000
0000
0000
0000
0000
0000
0000
0000
0000
0000
0000
0000
0000
0110
0000
0000
0000
0000
0000
0000
0000
0000
0000
0000
0000
0000
0000
0000
0000
0000
0000
0000
0000
0000
0000
0000
0000
0000
0000
0000
0000
0000
0000
0000
0000
0000
0000
0000
0000
1010
0000
0000
0000
0000
0000
0000
0000
0000
0000
0000
0000
0000
0000
0000
0000
0000
0000
0000
0000
0000
0000
0000
0000
1000
0000
0000
0000
0000
0000
0000
0000
0000
0000
0000
0000
0010
0000
0000
0000
0000
0000
0000
0000
0000
0000
0000
0000
1000
0000
0000
0000
0000
0000
0000
0000
0000
0000
0000
0000
0010
0000
0000
0000
0000
0000
0000
0000
0000
0000
0000
0000
,  // measure 76
0100
0001
0100
0001
2000
0000
0000
0000
0100
0000
0000
0000
0000
0000
0000
0000
,  // measure 77
0100
3200
0000
1000
1000
0000
0001
0001
,  // measure 78
0001
2300
0010
0010
,  // measure 79
0010
0010
0000
3010
2000
0002
0000
0000
,  // measure 80
3000
0203
0001
0001
,  // measure 81
0001
0302
0000
1000
1000
0000
0100
0100
,  // measure 82
0203
0320
1000
1000
,  // measure 83
1000
0000
1030
0010
1010
0000
0000
1001
0000
0000
0101
0000
0001
0100
0001
0100
,  // measure 84
0010
1000
0010
1000
0100
0000
1000
0000
0100
0000
1000
0000
0100
0000
0001
0000
,  // measure 85
0100
0001
0100
1000
0100
0020
0001
0001
,  // measure 86
0032
0000
1003
0001
1000
0001
0010
0001
,  // measure 87
0010
0000
0012
0000
0000
0000
1003
0000
0001
0000
1000
0000
1001
0000
0000
0001
,  // measure 88
1000
0000
0000
1000
0010
0000
0001
0000
0010
0000
0001
0000
0010
0000
1000
0000
,  // measure 89
0010
1000
0100
0010
0001
0010
0100
0100
,  // measure 90
0100
0000
1000
0100
0001
0100
1000
0010
,  // measure 91
1000
0000
0100
1000
1001
0000
0000
0000
0000
0000
0110
0000
0000
0000
0010
0000
,  // measure 92
1000
0000
0100
0000
1100
0000
1000
0020
0000
0000
1030
0000
0100
0000
0100
0000
,  // measure 93
1000
0000
1000
0000
0001
0000
1000
0100
1000
0000
0010
0000
0100
0000
0100
0000
,  // measure 94
0100
0000
0001
0000
0011
0000
0001
2000
0000
0000
3100
0000
1000
0000
1000
0000
,  // measure 95
0010
0000
0010
0000
0100
0000
0001
0010
0001
0010
0001
0000
1000
0000
1000
0000
,  // measure 96
1000
0000
1000
0000
0010
0000
1000
0000
1001
0000
0000
0001
0100
0000
0100
0000
,  // measure 97
0001
0000
0001
0000
0010
0000
0001
1000
0001
0000
1000
0000
0100
0000
0100
0000
,  // measure 98
0100
0000
1000
0000
0010
0000
1000
0100
1000
0000
0001
0000
1000
0001
1000
0000
,  // measure 99
0010
0000
0010
0000
0100
0001
0100
0001
0100
0000
0001
0000
0010
0001
0010
0001
,  // measure 100
0010
0001
0100
0001
0100
0000
0000
0100
0001
0000
0000
0001
1000
0000
0000
1000
,  // measure 101
0010
0000
0000
0010
1000
0000
1000
0000
0001
0000
0001
0000
0100
0000
0100
0000
,  // measure 102
0100
0000
0100
0000
0100
0010
0000
0000
0010
1000
0000
0000
1000
0001
0000
0000
,  // measure 103
0001
1000
0000
0001
1000
0000
1000
0000
0100
0000
0100
0000
1000
0000
1000
0000
,  // measure 104
1000
0010
1000
0010
1000
0000
0000
1000
0100
0000
0000
0100
0010
0000
0000
0010
,  // measure 105
0001
0000
0000
0001
0100
0000
0100
0000
0001
0000
0001
0000
1000
0000
1000
0000
,  // measure 106
1000
0000
1000
0000
1000
0001
0000
0000
0001
0100
0000
0000
0100
0010
0000
0000
,  // measure 107
0010
1000
0000
0010
1000
0000
1000
0000
0001
0000
0001
0000
0100
0001
0100
0001
,  // measure 108
1000
0100
0010
0001
0020
0000
0000
0001
0000
0000
0031
0000
1001
0000
0000
0001
,  // measure 109
1000
0001
1000
0001
2000
0000
0000
0100
0000
0000
3100
0000
1100
0000
0000
1000
,  // measure 110
0010
1000
0010
1000
1010
0000
0000
1001
0000
0000
0101
0000
1001
0000
1000
0010
,  // measure 111
1000
0010
1000
0001
2002
0000
0000
0000
0000
0000
0000
0000
0000
0000
0000
0000
,  // measure 112
0000
3003
0000
0000
;
