#TITLE:DANCING ALL ALONE;
#SUBTITLE:(Kimono Grandale Mix);
#ARTIST:SMILE.dk;
#TITLETRANSLIT:;
#SUBTITLETRANSLIT:;
#ARTISTTRANSLIT:;
#GENRE:;
#CREDIT:;
#BANNER:DANCING ALL ALONE (Kimono Grandale Mix).png;
#BACKGROUND:DANCING ALL ALONE (Kimono Grandale Mix)-bg.png;
#LYRICSPATH:;
#CDTITLE:Dance Mania Speed 6.png;
#MUSIC:DANCING ALL ALONE (Kimono Grandale Mix).ogg;
#OFFSET:-0.250000;
#SAMPLESTART:41.159176;
#SAMPLELENGTH:15.000000;
#SELECTABLE:YES;
#BPMS:0.000000=170.000000
;
#STOPS:
;
#BGCHANGES:4.000=ribbon1.mp4=1.000=1=0=1===CrossFade==,
12.000=girl2b.mp4=1.000=0=0=1=====,
20.000=blinds1.mp4=1.000=0=0=1=====,
28.000=circle5.mp4=0.900=0=0=1=====,
36.000=circle4.mp4=1.000=0=0=1=====,
44.000=flower2.mp4=1.000=0=0=1=====,
52.000=sakura1.mp4=1.000=0=0=1=====,
68.000=snow1.mp4=1.000=0=0=1=====,
84.000=film1.mp4=1.000=0=0=1=====,
92.000=girl2b.mp4=1.000=0=1=1=StretchRewind====,
100.000=film1.mp4=1.000=0=0=1=====,
108.000=blinds1.mp4=1.000=0=1=1=StretchRewind====,
116.000=ribbon1.mp4=1.000=0=1=1=StretchRewind====,
124.000=circle1.mp4=1.000=0=0=1=====,
132.000=ribbon1.mp4=1.000=0=1=1=StretchRewind====,
140.000=circle1.mp4=1.000=0=0=1=====,
148.000=blinds2.mp4=1.000=0=0=1=====,
156.000=square3.mp4=1.400=0=0=1=====,
164.000=blinds2.mp4=1.000=0=0=1=====,
172.000=square3.mp4=1.400=0=0=1=====,
180.000=film1.mp4=1.000=0=1=1=StretchRewind====,
188.000=flower2.mp4=1.000=0=1=1=StretchRewind====,
196.000=film1.mp4=1.000=0=0=1=====,
204.000=circle5.mp4=0.900=0=1=1=StretchRewind====,
212.000=sakura1.mp4=1.000=0=1=1=StretchRewind====,
220.000=snow1.mp4=1.000=0=1=1=StretchRewind====,
228.000=sakura1.mp4=1.000=0=0=1=====,
236.000=snow1.mp4=1.000=0=0=1=====,
244.000=blinds2.mp4=1.000=0=1=1=StretchRewind====,
252.000=square3.mp4=1.400=0=1=1=StretchRewind====,
260.000=blinds2.mp4=1.000=0=0=1=====,
268.000=square3.mp4=1.400=0=0=1=====,
276.000=DANCING ALL ALONE (Kimono Grandale Mix)-bg.png=1.000=0=0=1=====,
99999=-nosongbg-=1.000=0=0=0 // don't automatically add -songbackground-
;
#KEYSOUNDS:;
#ATTACKS:;

//---------------dance-single - ----------------
#NOTES:
     dance-single:
     :
     Beginner:
     3:
     0.000000,0.000000,0.000000,0.000000,0.000000,0.000000,0.000000,0.000000,0.000000,0.000000,0.000000,0.000000,0.000000,0.000000,0.000000,0.000000,0.000000,0.000000,0.000000,0.000000,0.000000,0.000000:
0000
0000
0000
0000
,
0000
0000
0000
0000
,
0000
0000
0000
0000
,
0000
0000
0000
0000
,
0000
0000
0000
0000
,
1000
0000
0000
0000
,
1000
0000
0000
0000
,
0001
0000
0001
0000
,
0001
0000
1000
0000
,
1000
0000
0000
0000
,
0010
0010
0010
0000
,
1000
0000
1000
0000
,
0001
0000
0001
0000
,
1001
0000
0000
0000
,
0100
0100
0100
0000
,
0000
0010
0000
0010
,
0000
0010
0000
0000
,
1001
0000
0000
0000
,
0010
0010
0010
0000
,
0000
0100
0000
0100
,
0000
0100
0000
0000
,
0001
0001
0001
0000
,
0001
0000
0000
0000
,
1000
0000
1000
0000
,
1000
0000
0000
0000
,
0001
0001
0001
0000
,
0001
0000
0000
0000
,
1000
0000
1000
0000
,
1000
0000
0000
0000
,
0001
0000
0001
0000
,
0001
0001
0001
0000
,
0001
0000
0001
0000
,
0001
0001
0001
0000
,
1000
0000
1000
0000
,
1000
1000
1000
0000
,
1000
0000
1000
0000
,
1000
1000
1000
0000
,
0010
0000
0000
0000
,
0010
0000
0000
0000
,
0100
0000
0000
0000
,
0100
0000
0000
0000
,
0001
0000
0000
0000
,
0001
0000
0000
0000
,
1000
0000
0000
0000
,
1000
0000
0000
0000
,
0001
0000
0001
0000
,
0001
0000
0000
0000
,
1000
0000
1000
0000
,
1000
0000
0000
0000
,
0001
0000
0001
0000
,
0001
0000
0000
0000
,
1000
0000
1000
0000
,
1000
0000
0000
0000
,
0001
0001
0001
0000
,
0001
0000
0000
0000
,
1000
1000
1000
0000
,
1000
0000
0000
0000
,
0001
0001
0001
0000
,
0001
0000
0000
0000
,
1000
1000
1000
0000
,
1000
0000
0000
0000
,
0001
0000
0000
0000
,
0001
0000
0000
0000
,
0100
0000
0000
0000
,
0100
0000
0000
0000
,
0010
0000
0000
0000
,
0010
0000
0000
0000
,
1000
0000
0000
0000
,
1000
0000
0000
0000
,
0002
0000
0000
0000
,
0003
0000
0000
0000
;

//---------------dance-single - ----------------
#NOTES:
     dance-single:
     :
     Easy:
     6:
     0.000000,0.000000,0.000000,0.000000,0.000000,0.000000,0.000000,0.000000,0.000000,0.000000,0.000000,0.000000,0.000000,0.000000,0.000000,0.000000,0.000000,0.000000,0.000000,0.000000,0.000000,0.000000:
0000
0000
0000
0000
,
0000
0000
0000
0000
,
0000
0000
0000
0000
,
0000
0000
0000
0000
,
0000
0000
0000
0000
,
1000
0000
1000
0000
,
1000
0000
0000
0000
,
0001
0000
0001
0000
,
1000
0001
1000
0001
,
1001
1001
1001
0000
,
0010
0000
0010
0000
,
0100
0100
0100
0000
,
0010
0010
0010
0010
,
1010
1000
0100
0010
,
0001
1000
0001
0000
,
0001
0010
0100
1000
,
0100
1000
0100
0000
,
1000
0001
1000
0001
,
0100
0001
0100
0001
,
1000
0010
1000
0010
,
0100
0001
0100
0010
,
1000
1000
1000
1000
,
0001
0000
0001
0000
,
0001
0001
0001
0001
,
1000
0000
1000
0000
,
1000
0010
0010
0010
,
0010
0000
0100
0000
,
0001
0100
0100
0100
,
0100
0010
0100
0010
,
1001
1001
1001
0000
,
0100
0000
0100
0000
,
0010
0010
0010
0000
,
1000
0000
1000
0000
,
1001
1001
1001
0000
,
0001
0000
0001
0000
,
0100
0100
0100
0000
,
0010
0010
0010
0010
,
1010
1000
0010
1000
,
0020
0000
0130
0100
,
0100
0001
1000
0001
,
1000
0010
1000
0010
,
0110
0100
0001
0100
,
0002
0000
1003
1000
,
1000
0010
1000
0010
,
0100
0001
0100
0001
,
1000
0010
0010
0010
,
0010
0000
0100
0100
,
0100
0001
0100
0001
,
1000
0000
0001
0000
,
1000
0100
0100
0100
,
0100
0000
1000
0001
,
1000
0010
0100
0010
,
0100
0100
0100
0100
,
0110
0110
0110
0000
,
1000
0000
0001
0000
,
1000
1000
1000
0000
,
0001
0001
0001
0100
,
0110
0110
0110
0000
,
0010
0000
1000
0000
,
0001
0001
0001
0000
,
0100
0000
0010
0000
,
1000
1000
1000
1000
,
0001
0000
1000
0000
,
0001
0001
0001
0001
,
1000
0000
0001
0000
,
0100
0100
0100
0100
,
0010
0000
0100
0000
,
0010
0010
0010
0010
,
0100
0000
0001
0000
,
2000
0000
0000
0000
,
3000
0000
0000
0000
;

//---------------dance-single - ----------------
#NOTES:
     dance-single:
     :
     Medium:
     9:
     0.000000,0.000000,0.000000,0.000000,0.000000,0.000000,0.000000,0.000000,0.000000,0.000000,0.000000,0.000000,0.000000,0.000000,0.000000,0.000000,0.000000,0.000000,0.000000,0.000000,0.000000,0.000000:
0000
0000
0000
0000
,
0000
0000
0000
0000
,
0000
0000
0000
0000
,
0000
0000
0000
0000
,
0000
0000
0000
0000
,
1000
0000
1000
0000
0001
0100
0001
0000
,
1000
0000
1000
0000
0010
0100
0010
0000
,
1000
0100
0001
0100
,
1000
0000
0001
0000
1000
0001
1000
0001
,
1000
0010
0100
0010
,
1000
0000
0001
0010
1000
0010
0001
0000
,
0100
0001
1000
0001
,
0100
0010
1000
0010
1000
0001
1000
0000
,
0012
1000
0010
1000
,
0013
0000
0001
0010
0100
1000
0001
0000
,
0000
1000
0000
0100
0000
1000
0000
0001
,
1000
0000
0001
0010
0100
1000
0100
0000
,
2100
0001
0100
0001
,
3100
0000
1000
0100
0010
0001
1000
0000
,
0000
0001
0000
0010
0000
0001
0000
1000
,
0001
0000
0010
0001
0010
0001
1000
0000
,
1100
0000
0011
0000
0001
0010
0100
1000
,
0001
0000
1000
0000
0100
0000
1000
1000
,
0000
0001
0000
0100
0000
0001
0000
1000
,
0001
0010
0010
0000
,
1001
0000
0110
0000
0010
1000
0010
0000
,
1000
0000
1000
0000
0001
0100
0001
0000
,
1000
0100
0010
0001
,
0010
0010
0000
0001
0000
1000
0001
0000
,
1001
0000
0001
0010
0001
0000
0100
0001
,
0100
0000
0001
1000
0001
1000
1000
0000
,
0100
1000
0100
1000
,
0010
0100
0010
0100
,
0101
0000
0100
0010
0100
0000
0010
1000
,
0010
0000
1000
0001
1000
0001
0001
0000
,
0010
0001
0100
0010
,
1100
0000
1001
0000
1000
0001
0000
0001
,
2000
0010
0100
0010
,
3100
0000
1000
0100
0010
0001
0001
0000
,
0002
1000
0100
1000
,
0103
0000
0001
1000
0100
1000
0001
0000
,
0020
1000
0001
1000
,
0031
0000
1000
0100
0010
0001
0001
0000
,
0200
1000
0001
1000
,
0301
0000
1000
0001
0100
0010
0100
0000
,
0011
0000
1100
0000
0001
0100
0010
1000
,
0001
1000
0100
1000
,
1001
0000
0001
0010
0100
0000
0100
1000
,
0001
0000
1000
0001
1000
0100
0010
0000
,
0011
0000
1100
0000
0001
0100
0010
1000
,
0010
1000
0001
0010
,
0011
0000
1001
0000
1000
0100
0010
0001
,
1000
0000
0001
0100
0000
0010
0100
0000
,
0110
0000
0010
1000
0010
0000
1000
0001
,
1000
0000
0001
0010
0100
1000
1000
0000
,
0100
1000
0010
0100
,
0001
0000
0100
0000
0001
1000
0001
0000
,
0011
0000
0100
0001
0100
0000
0001
1000
,
0001
0000
1000
0100
0010
0100
0100
0000
,
1000
0001
0100
0001
,
1010
0000
0110
0000
0100
0001
0000
0001
,
2000
0001
0100
0001
,
3100
0000
1000
0010
0100
0001
0001
0000
,
0002
1000
0010
1000
,
0013
0000
0001
1000
0100
0010
0010
0000
,
0200
0001
1000
0001
,
1300
0000
0001
0010
0100
0001
0001
0000
,
0200
1000
0001
1000
,
0310
0000
0001
0000
1000
0010
0100
0002
,
0000
0000
0000
0000
,
0003
0000
0000
0000
;

//---------------dance-single - ----------------
#NOTES:
     dance-single:
     :
     Hard:
     12:
     0.000000,0.000000,0.000000,0.000000,0.000000,0.000000,0.000000,0.000000,0.000000,0.000000,0.000000,0.000000,0.000000,0.000000,0.000000,0.000000,0.000000,0.000000,0.000000,0.000000,0.000000,0.000000:
0000
0000
0000
0000
,
0000
0000
0000
0000
,
0000
0000
0000
0000
,
0000
0000
0000
0000
,
0000
0000
0000
0000
,
1000
0000
0000
0000
0010
0000
1000
0000
0020
0000
0000
1000
0000
0000
1030
0000
,
0000
0000
0001
0000
0010
0000
0100
0000
2000
0000
0000
0001
0000
0000
3001
0000
,
1000
0001
0010
1000
,
0010
0010
0001
0010
0001
0010
0001
1000
,
1001
0000
1000
0100
0010
0100
0010
0001
,
1000
0000
0001
0010
0100
1000
1000
0000
,
0001
0000
0100
0000
0001
0000
0100
0000
0010
0000
0000
1000
0000
0000
0010
0000
,
1000
0000
0100
0000
1000
0000
0100
0000
0010
0000
0000
0001
0000
0000
0100
0000
,
1001
1000
0100
0010
0001
0001
0010
0100
,
1000
0000
0000
0000
0001
0000
0100
0000
0001
0000
1000
0001
0000
0000
0010
0000
,
0000
0001
0001
0010
0100
1000
1000
0100
,
0010
0000
0001
0000
0000
0000
1000
0000
0001
0000
0100
0001
0000
0100
0001
0000
,
0000
0010
0010
0001
1000
1000
0100
0010
,
0001
0000
0100
0000
1000
0000
0100
0000
0001
0000
1000
0100
0000
0000
1000
0000
,
0010
0010
1000
0100
1000
1000
0001
0010
,
0100
1000
0100
0010
0100
1000
1000
1000
,
1001
0000
0000
0001
0100
0000
0000
0000
0010
0000
0001
0000
0010
0000
0100
0000
,
0001
0000
1000
0100
0010
0100
0010
0001
,
1000
0000
0001
0010
0100
1000
0010
0100
,
0001
0010
0010
0001
1000
0100
0100
0000
,
1000
0001
1000
0000
0001
0001
0001
0000
,
0010
0001
0010
0001
1000
0100
0100
0000
,
1100
0000
0000
1000
0001
0000
0000
0000
0010
0000
0100
0000
1000
0000
0100
0000
,
0010
0001
0001
1000
0010
0100
0100
0000
,
0001
1000
0100
0010
0001
0100
0010
1000
,
0001
0100
0100
0010
0100
0010
0020
0000
,
1030
0010
1000
0010
0100
0001
0100
0001
,
1000
0001
0000
1000
0001
0000
1000
0000
0100
0000
1000
0000
2000
0000
0000
0000
,
3100
0010
0001
0010
0100
1000
0001
0100
,
0010
1000
1000
0001
1000
0001
0002
0000
,
0013
0001
1000
0001
0010
0001
0100
0010
,
1000
0100
0000
0000
1000
0001
0000
0000
0010
0000
0010
0000
0010
0000
0000
0000
,
0001
1000
1000
0001
0100
0100
0010
0010
,
1000
0000
0000
1000
0100
0000
0010
0000
0001
0000
0010
0000
0010
0000
0000
0000
,
0001
1000
1000
1000
0010
0100
0001
0010
,
0001
0000
1000
0100
0010
0001
1001
0000
,
0000
0010
1000
1000
0100
0010
0001
0010
,
0100
0000
0000
0100
1000
0000
0001
0000
0100
0000
0001
0000
0001
0000
0000
0000
,
1000
0001
0001
0001
0010
0100
1000
0010
,
1000
0100
0000
1000
0100
0000
1000
0000
0001
0000
0010
0000
0010
0000
0000
0000
,
0101
0000
0000
0001
1000
0000
0000
0000
0100
0000
0010
0000
0001
0000
0010
0000
,
0100
0000
1000
0100
0010
0001
0001
0001
,
1001
0000
1000
0100
0001
0100
0010
0001
,
1000
0001
0000
1000
0001
0000
0010
0000
0100
0000
0010
0000
0010
0000
0010
0000
,
0011
0000
0000
0001
1000
0000
0000
0000
0010
0000
0100
0000
0001
0000
0010
0000
,
0100
0000
1000
0001
0010
0001
0001
0001
,
0001
1000
0000
0000
1100
0000
0000
0000
1000
0000
0010
0000
0100
0000
0001
0000
,
1000
0100
0000
0000
1000
0010
0000
0000
0100
0000
0010
0000
0010
0000
0000
0000
,
1000
0001
0010
0100
1000
0010
0100
0001
,
2000
0000
0001
3001
1000
0100
0100
1000
,
0010
0100
0001
0100
0010
1000
0100
0001
,
0100
0000
0000
1000
0100
0000
0000
1000
0001
0000
0010
0000
0010
0000
0000
0000
,
0001
1000
0010
0100
0001
0010
0100
1000
,
0002
0000
1000
1003
0001
0010
0010
0001
,
1000
0100
0010
0001
0100
0010
1000
0001
,
0100
0000
0000
0001
0100
0000
0000
0010
1000
0000
0010
0000
0010
0000
0010
0000
,
1000
0001
0001
1000
0100
0100
0010
0010
,
0001
0000
0000
1000
0001
0000
0000
0100
0010
0000
0100
0000
0100
0000
0100
0000
,
0001
0010
1000
0010
0001
0100
0010
0100
,
0001
1000
0000
0001
1000
0000
0010
0000
0100
0000
0100
0000
0100
0000
0000
0000
,
0001
0100
0100
0100
0010
1000
0100
0010
,
0001
0000
0000
1000
0100
0000
0000
1000
0001
0000
0010
0000
0010
0000
0010
0000
,
0001
1000
0100
0001
0100
1000
0010
0100
,
0001
0100
0000
0000
0001
1000
0000
0000
0010
0100
0010
0100
0010
0000
1000
0002
,
0000
0000
0000
0000
,
0003
0000
0000
0000
;

//---------------dance-single - ----------------
#NOTES:
     dance-single:
     :
     Challenge:
     16:
     0.829556,0.856835,0.029377,0.058754,0.626714,593.000000,590.000000,3.000000,6.000000,0.000000,0.000000,0.829556,0.856835,0.029377,0.058754,0.626714,593.000000,590.000000,3.000000,6.000000,0.000000,0.000000:
// measure 0
0000
0000
0000
0000
,  // measure 1
0000
0000
0000
0000
,  // measure 2
0000
0000
0000
0000
,  // measure 3
0000
0000
0000
0000
,  // measure 4
0000
0000
0000
0000
,  // measure 5
1000
0000
0001
0000
0010
0001
0000
0000
1000
0000
0000
0001
0000
0000
0010
0000
,  // measure 6
0000
0000
0100
0000
1000
0100
0000
0000
0010
0000
0001
1000
0001
1000
0001
0000
,  // measure 7
0100
0010
0010
0010
0010
0010
0010
0010
,  // measure 8
0100
0010
0100
0010
0100
0010
0100
0010
1000
0001
1000
0001
1000
0001
1000
0001
,  // measure 9
1000
0100
0010
0001
0010
0100
0010
0001
,  // measure 10
1000
0000
0000
0001
1000
0000
0100
0000
0010
0000
0100
1000
0100
1000
0100
0000
,  // measure 11
0010
0001
1000
0100
0001
0100
1000
0010
,  // measure 12
0100
0000
0001
0010
0001
0000
1000
0000
0100
0000
0010
0001
0010
0001
0010
0000
,  // measure 13
0100
1000
1000
0001
0010
0010
0100
1000
,  // measure 14
0001
0000
0000
0000
1000
0000
0020
0000
0000
0100
0000
0000
0130
0000
0000
0010
,  // measure 15
0000
0100
0100
0001
1000
1000
0010
0001
,  // measure 16
0010
0000
1000
0000
0100
0000
0010
0000
0100
0000
1000
0001
1000
0000
0001
0100
,  // measure 17
0000
0010
0010
0001
0010
0010
1000
0100
,  // measure 18
1000
0000
0000
0000
0001
0000
0200
0000
0000
0010
0000
0000
0310
0000
0000
0010
,  // measure 19
1000
0100
0100
0010
0100
0100
1000
0001
,  // measure 20
1000
0000
0001
0010
0200
1000
1000
1300
,  // measure 21
1001
0000
0000
1000
0100
0000
0000
0000
0010
0000
0001
0000
1000
0000
0100
0000
,  // measure 22
0001
0000
0000
0000
0100
0000
1000
0000
0010
0000
0100
0010
0100
0010
0100
0010
,  // measure 23
0001
0010
0100
0010
1000
0100
0001
0100
,  // measure 24
1000
0100
1000
0100
1000
0100
1000
0000
0001
0010
0001
0010
0001
0010
0001
0000
,  // measure 25
1000
0001
0001
1000
0100
0001
1000
0010
,  // measure 26
0001
0000
0000
0000
0010
0000
0001
0000
1000
0000
0100
1000
0100
1000
0100
1000
,  // measure 27
0001
0010
1000
0010
0001
0100
0010
1000
,  // measure 28
0100
1000
0100
1000
0100
1000
0001
0000
0010
0001
0010
0001
0010
0001
1000
0000
,  // measure 29
0010
0100
0100
0001
1000
1000
0100
0010
,  // measure 30
0001
0000
1000
0000
1000
0000
1000
0000
0001
0000
1000
0010
1000
0010
1000
0010
,  // measure 31
0100
0100
0001
0010
0010
0010
0001
1000
,  // measure 32
0100
1000
0000
1000
0100
0000
1000
0000
0001
0010
0100
1000
0100
0010
0001
1000
,  // measure 33
0001
0001
1000
0010
0010
1000
0100
0010
,  // measure 34
0001
0000
0010
0000
0010
0000
0010
0000
0001
0000
0100
0001
0100
0001
0100
0001
,  // measure 35
1000
0100
0100
0100
1000
0010
0010
0100
,  // measure 36
0001
0100
0000
0100
0001
0000
1000
0000
0010
1000
0100
1000
0100
0010
0001
0010
,  // measure 37
0001
1000
1000
1000
0010
0010
1000
1000
,  // measure 38
0001
0000
0000
0001
1000
0000
0100
0000
0010
0000
0001
0000
0010
0001
0010
0000
,  // measure 39
0001
0100
0100
1000
0100
0100
0001
0100
,  // measure 40
1000
0000
0000
0000
0100
0000
0001
0000
0100
0000
0010
1000
0010
1000
0010
1000
,  // measure 41
0100
1000
1000
1000
0001
0001
0010
0010
,  // measure 42
0100
0000
0000
0100
1000
0000
0100
0000
0010
0000
0100
0000
1000
0001
1000
0000
,  // measure 43
0001
0010
0010
1000
0010
0010
0001
0010
,  // measure 44
1000
0000
0000
0010
0001
0010
0001
0000
1000
0000
0001
0000
0001
0000
0000
0000
,  // measure 45
0011
0000
0000
0001
1000
0000
0000
0000
0100
0000
0010
0000
0001
0000
0010
0000
,  // measure 46
1000
0000
0000
0000
0010
0000
0001
0010
0000
0010
0001
0000
1000
0000
1000
0000
,  // measure 47
1000
0000
0100
1000
0100
0010
0100
0001
,  // measure 48
0100
1000
0000
1000
0100
0000
1000
0000
0001
0010
0001
0010
0001
1000
0001
1000
,  // measure 49
0100
0000
0000
0100
1000
0000
0000
0000
1000
0000
0100
0000
0010
0000
0100
0000
,  // measure 50
0001
0000
0100
1000
0000
1000
0100
0000
0010
0000
0001
0000
0001
0000
0001
0000
,  // measure 51
1000
0010
0001
0000
0010
1000
0100
0010
,  // measure 52
0100
1000
0000
1000
0001
1000
0001
0000
0010
0000
0100
0000
0100
0000
0000
0000
,  // measure 53
1000
1000
0010
0100
0100
0001
0010
0100
,  // measure 54
1000
0100
0000
0100
1000
0000
0010
0000
0100
0001
0000
0001
1000
0100
1000
0100
,  // measure 55
0010
0010
0001
1000
1000
0001
0100
0010
,  // measure 56
0100
0001
0000
0001
0010
0000
0001
1000
0100
1000
0100
0010
0001
0010
0100
0000
,  // measure 57
1000
1000
0001
0100
0100
0010
1000
0100
,  // measure 58
0010
0001
0000
0001
0010
0000
0001
0000
1000
0100
0000
0100
1000
0100
1000
0001
,  // measure 59
0010
0010
0001
1000
1000
1000
0100
0010
,  // measure 60
0100
1000
0100
1000
0100
0010
0001
0010
0001
0010
0100
1000
0100
0010
0001
0000
,  // measure 61
1000
0001
0001
0001
0010
0010
0100
0100
,  // measure 62
1000
0000
0000
1000
0001
0000
0020
0000
0000
0000
0031
1000
0100
1000
0100
1000
,  // measure 63
0100
1000
1000
0010
0100
0100
0001
0010
,  // measure 64
0010
0001
0000
0001
1000
0000
0100
0000
1000
0100
1000
0100
0010
0001
0010
0000
,  // measure 65
0001
1000
1000
1000
0010
0010
0100
0100
,  // measure 66
0001
0000
0000
0001
1000
0000
0200
0000
0000
0000
1300
0010
0100
0010
0100
0010
,  // measure 67
0100
0001
0001
0001
1000
0100
0010
0001
,  // measure 68
1000
0100
1000
0100
0010
0001
0010
0001
1000
0000
0010
0000
0100
0000
2001
0000
,  // measure 69
0000
0000
0000
0000
,  // measure 70
3000
0000
0000
0000
;
