#VERSION:0.83;
#TITLE:DANCER;
#SUBTITLE:;
#ARTIST:DE VOL;
#TITLETRANSLIT:;
#SUBTITLETRANSLIT:;
#ARTISTTRANSLIT:;
#GENRE:NU SKOOL;
#ORIGIN:;
#TAGS:;
#CREDIT:YonabearCWY;
#BANNER:DANCER.png;
#BACKGROUND:DANCER-bg.png;
#PREVIEWVID:;
#JACKET:DANCER-jacket.png;
#CDIMAGE:;
#DISCIMAGE:;
#LYRICSPATH:;
#CDTITLE:Beatmania IIDX.png;
#MUSIC:DANCER.ogg;
#OFFSET:-1.640000;
#SAMPLESTART:65.277512;
#SAMPLELENGTH:15.000000;
#SELECTABLE:YES;
#BPMS:0.000000=149.000000
;
#STOPS:;
#DELAYS:;
#WARPS:;
#TIMESIGNATURES:0.000000=4=4
;
#TICKCOUNTS:0.000000=4
;
#COMBOS:0.000000=1
;
#SPEEDS:0.000000=1.000000=0.000000=0
;
#SCROLLS:0.000000=1.000000
;
#LABELS:0.000000=Song Start
;
#BGCHANGES:-5.800=DANCER.mp4=1.000=1=0=0=StretchNoLoop==CrossFade==,
259.000=DANCER-bg.png=1.000=0=0=1=====,
99999.000=-nosongbg-=1.000=0=0=0=StretchNoLoop====,
99999=-nosongbg-=1.000=0=0=0 // don't automatically add -songbackground-
;
#KEYSOUNDS:;
#ATTACKS:
;

//---------------dance-single - ----------------
#NOTEDATA:;
#CHARTNAME:BASIC;
#CHARTHASH:308161950;
#STEPSTYPE:dance-single;
#BANNER:;
#DESCRIPTION:;
#CHARTSTYLE:;
#DIFFICULTY:Easy;
#METER:8;
#METERF:8.000000;
#LASTSECONDHINT:105.129929;
#RADARVALUES:0.350703,0.483460,0.319798,0.263363,0.000000,261.000000,227.000000,34.000000,28.000000,0.000000,0.000000,0.000000,0.000000,0.000000,0.350703,0.483460,0.319798,0.263363,0.000000,261.000000,227.000000,34.000000,28.000000,0.000000,0.000000,0.000000,0.000000,0.000000;
#CREDIT:YonabearCWY;
#NOTES:
0000
0000
0000
0000
,
0000
0000
0000
0000
,
0000
0000
0000
0000
,
0000
0000
0000
0000
,
1000
1000
0001
0001
,
1000
1000
0001
0001
,
0010
0010
0100
0100
,
0010
0010
0100
1001
,
0100
0010
0100
0000
0010
0000
0010
0000
,
0100
0010
0100
0000
0010
0000
0010
0000
,
1000
0000
1000
0001
,
0010
0000
0100
1000
,
0001
1000
0001
0000
1000
0000
1000
0000
,
0001
1000
0001
0000
1000
0000
1000
0000
,
0100
0010
0001
0000
,
1100
0000
0101
0000
0010
0010
0010
0000
,
0120
1030
0120
1030
,
0100
0001
0000
0100
0001
0000
0010
0000
,
2001
3100
2001
3100
,
1000
0001
1000
0001
,
0210
0301
0210
0301
,
1000
0010
0000
1000
0010
0000
0100
0000
,
0001
1002
0013
1002
,
0013
0000
1001
0000
0100
0100
0100
0000
,
2000
3000
2000
3000
,
0001
0001
0001
0001
,
0200
0300
0200
0300
,
0010
0010
0010
0010
,
2000
3001
2000
3001
,
0010
0100
1000
0001
,
0200
0301
0200
0301
,
0100
0010
1000
0001
,
1001
0000
0000
0000
,
1100
0000
0000
0000
,
0110
0000
0000
0000
,
0011
0000
0000
0000
,
0001
0001
0101
0000
,
1000
1000
1010
0000
,
0010
0010
0110
0000
,
0000
0000
0000
0000
0000
1000
0001
0000
,
0010
0001
0010
0001
,
1000
0010
1000
0010
,
0100
0001
0100
0001
,
0100
1000
0100
1000
,
0010
0100
0010
0100
,
0001
1000
0100
0010
,
0001
1000
0001
0010
,
0100
0001
0100
0010
,
0001
1200
0301
1200
,
0301
0000
1000
0000
0010
0100
0010
0000
,
0201
1300
0201
1300
,
0010
0000
0100
0000
0001
1000
0001
0000
,
0120
0031
0120
0031
,
1000
0000
0001
0000
0010
0001
0010
0000
,
0201
0310
0201
0310
,
1001
1100
0101
0110
,
2002
0000
0000
3003
,
0001
1000
0010
0100
,
0202
0000
0000
0303
,
0010
0100
1000
0010
,
1000
0000
0100
0000
0010
0001
0010
0000
,
0001
0000
0100
0000
0001
0010
0000
0001
,
0010
0000
0001
0000
1000
0100
1000
0000
,
0010
0100
0001
1000
,
0001
1000
1001
0000
0000
0000
0000
0000
;

//---------------dance-single - ----------------
#NOTEDATA:;
#CHARTNAME:DIFFICULT;
#CHARTHASH:3293334150;
#STEPSTYPE:dance-single;
#BANNER:;
#DESCRIPTION:;
#CHARTSTYLE:;
#DIFFICULTY:Medium;
#METER:10;
#METERF:10.000000;
#LASTSECONDHINT:105.129929;
#RADARVALUES:0.487760,0.574109,0.244552,0.253958,0.000000,363.000000,337.000000,26.000000,27.000000,0.000000,0.000000,0.000000,0.000000,0.000000,0.487760,0.574109,0.244552,0.253958,0.000000,363.000000,337.000000,26.000000,27.000000,0.000000,0.000000,0.000000,0.000000,0.000000;
#CREDIT:YonabearCWY;
#NOTES:
0000
0000
0000
0000
,
0000
0000
0000
0000
,
0000
0000
0000
0000
,
0000
0000
0000
0000
,
0000
1010
0000
0100
0000
0001
0000
0010
,
0000
1100
0000
0001
0000
1000
0001
1000
,
0000
0110
0000
0001
0000
1010
0000
0100
,
0001
0100
0000
0010
1000
0010
1000
0100
,
2000
0001
0010
0001
,
0100
0000
3001
0010
1000
0000
0001
0010
,
2000
0000
3020
0000
0130
1000
0100
0010
,
0001
2000
0000
0000
3010
0010
0010
0000
,
0200
0010
1000
0001
,
0010
0000
0301
0100
1000
0000
0001
0100
,
2000
0000
3200
0000
0301
1000
0100
0010
,
0001
1000
0001
0000
0100
0100
0100
0000
,
0201
0310
1020
0130
,
1000
0001
0000
1000
0001
0000
0010
0100
,
2100
3001
0012
1003
,
0100
0010
0100
0000
0010
0010
0010
0000
,
0120
1030
0210
0301
,
0010
0001
0000
1000
0001
0000
0010
0100
,
1200
0301
0120
0031
,
0100
1000
0100
0000
0001
0001
0001
0000
,
0120
0000
0000
1030
0002
0000
0000
0013
,
0100
1000
0100
0000
1000
0001
1000
0000
,
0201
0000
0000
0310
2000
0000
0000
3100
,
0010
0001
1000
0001
0010
0100
1000
0001
,
1200
0301
1200
0301
,
0100
1000
0001
0010
0100
1000
0001
0010
,
0210
1300
0210
1300
,
0100
0001
1000
0100
0010
0001
1000
0010
,
0110
0000
1000
0010
0000
1000
0010
0000
,
0000
0000
0001
0100
0000
0001
0100
0000
,
0000
0000
0010
0001
0000
0010
0001
0000
,
0000
0000
1000
0001
0000
1000
0001
0000
,
0000
0000
0010
0100
0000
1000
0001
0000
,
0000
0000
1000
0100
0000
0010
0001
0000
,
0000
0000
0001
0100
0000
0010
1000
0000
,
0000
0000
0000
0000
0000
1000
1001
0000
,
0010
0001
0010
0001
1000
0100
1000
0100
,
0010
0001
1000
0001
,
0100
0010
0100
0010
0100
1000
0100
1000
,
0001
0100
0001
0000
0100
0100
0100
0100
,
0010
0100
0010
0100
0001
1000
0001
1000
,
0010
0000
1000
0000
0100
0100
0100
0100
,
0010
0001
0010
0001
1000
0010
1000
0010
,
0100
0000
0001
0000
1000
1000
1000
1000
,
0002
0010
1000
0010
,
0103
0001
0010
0100
1000
1000
1000
1000
,
0200
0010
0001
1000
,
0310
0100
1000
0001
0100
0100
0100
0100
,
0020
1000
0001
1000
,
0130
0010
1000
0001
0010
0010
0010
0010
,
0002
1000
0100
0013
,
0011
0000
1001
0000
0100
0100
0100
0100
,
0110
0000
0010
1000
0010
0000
0100
0001
,
0100
0000
0010
0100
0010
0000
1000
0100
,
0001
0000
1000
0100
0001
0000
0001
0010
,
1000
0000
0001
0010
1000
0000
1000
0100
,
0001
0100
1000
0001
0010
0001
0100
0000
,
0010
1000
0100
0010
0001
1000
0000
0001
,
0010
0100
1000
0001
1000
0010
0100
0000
,
0001
1000
0100
0010
0001
0100
0010
0100
,
1001
1001
1001
0000
0000
0000
0000
0000
;

//---------------dance-single - ----------------
#NOTEDATA:;
#CHARTNAME:EXPERT;
#CHARTHASH:1329436394;
#STEPSTYPE:dance-single;
#BANNER:;
#DESCRIPTION:;
#CHARTSTYLE:;
#DIFFICULTY:Hard;
#METER:14;
#METERF:14.000000;
#LASTSECONDHINT:105.129929;
#RADARVALUES:0.677220,0.725190,0.385639,0.122276,0.315095,504.000000,463.000000,41.000000,13.000000,0.000000,0.000000,0.000000,0.000000,0.000000,0.677220,0.725190,0.385639,0.122276,0.315095,504.000000,463.000000,41.000000,13.000000,0.000000,0.000000,0.000000,0.000000,0.000000;
#CREDIT:YonabearCWY;
#NOTES:
0000
0000
0000
0000
,
0000
0000
0000
0000
,
0000
0000
0000
0000
,
0000
0000
0000
0000
,
0001
0000
1000
0100
0000
0000
0010
0001
0000
0000
1000
0010
0000
0100
0001
0100
,
0000
0000
0010
0100
0000
0000
1000
0001
0000
0000
0100
0000
0010
0000
0100
0000
,
0001
0000
1000
0100
0000
0000
0010
0001
0000
0000
0100
0010
0000
1000
0001
1000
,
0000
0000
0001
0100
0000
0000
0010
1000
0010
0000
1000
0000
0001
0000
1000
0000
,
0100
0010
0001
1000
0001
0010
0100
0001
,
0100
0010
0001
1000
0001
0001
0001
0001
,
1000
0010
0100
0001
0010
1000
0001
0100
,
1000
0000
0100
0010
0000
0000
0001
1000
0000
0000
0100
0001
0000
0001
0010
0000
,
0001
1000
0100
0010
1000
0001
1000
0010
,
0100
1000
0001
0100
1000
0100
0001
1000
,
0010
0100
0010
0001
1000
0001
0010
0100
,
0001
1000
0100
0000
1001
1001
1001
1001
,
0120
1030
0210
0301
,
1000
0001
0000
0001
1000
0000
0100
0000
0001
0000
0000
0000
1000
0000
0100
0000
,
0021
1030
1200
0301
,
0010
0100
0000
0100
0010
0000
0001
0000
0110
0000
0110
0000
1001
0000
0000
0000
,
1020
0130
0201
0310
,
0001
1000
0000
1000
0001
0000
0010
0000
1000
0000
0000
0000
0001
0000
0010
0000
,
1200
0310
0021
0130
,
1000
0001
1000
0000
0010
0100
0010
0000
1001
0000
1001
0000
0120
0000
0000
0000
,
1030
0100
1000
0100
0001
0100
0001
0100
,
1000
0000
0001
0000
0010
0000
1000
0000
0010
0001
0000
0001
0100
0000
1000
0000
,
0100
0001
0100
0001
0100
1000
0100
1000
,
0100
0000
0010
0000
1000
0000
0001
0000
0010
0000
0100
1000
0100
1000
0100
0000
,
0010
0001
0010
0001
1000
0001
1000
0001
,
0010
0000
0100
0000
1000
0000
0001
0000
0100
0010
0000
0010
1000
0010
1000
0000
,
0100
0010
0100
0010
0001
0010
0001
1000
,
0001
0100
0010
1000
1001
1001
1001
1001
,
0000
0000
0000
0000
1000
0100
0001
0000
0000
0000
1000
0100
0001
0000
0000
0000
,
0000
0000
0000
0000
0001
0010
1000
0000
0000
0000
0001
0010
1000
0000
0000
0000
,
0000
0000
0000
0000
0100
0001
0010
0000
0000
0000
0100
0001
0010
0000
0000
0000
,
0000
0000
0000
0000
0001
1000
0100
0000
0000
0000
0001
1000
0100
0000
0000
0000
,
0000
0000
0000
0000
1000
0001
0010
0000
0000
0000
1000
0001
0010
0000
0000
0000
,
0000
0000
0000
0000
0001
0010
0100
0000
0000
0000
0001
0010
0100
0000
0000
0000
,
0000
0000
0000
0000
1000
0100
0010
0000
0000
0000
1000
0100
0010
0000
0000
0000
,
0000
0000
0000
0000
0000
0000
0000
0000
0000
0000
1000
0010
0001
0000
0000
0000
,
1000
0001
1000
0001
0010
0001
0010
0100
,
1000
0001
0001
0001
1000
1000
1000
1000
,
0010
0100
0001
0010
1000
0010
0001
0100
,
0010
0000
1000
0000
1000
0000
1000
0000
1000
0000
0100
0000
0010
0001
0010
0000
,
0100
1000
0001
1000
0010
0100
0001
0010
,
0100
0010
0010
0010
1000
1000
1000
1000
,
0010
0001
0010
0001
1000
0010
1000
0010
,
0100
0000
1001
0000
1001
0000
1001
0000
1001
0000
0010
0100
0010
0000
1001
0000
,
0120
0000
0000
1030
0100
0000
0001
0000
0010
0000
1000
0000
0100
0000
0001
0000
,
0010
0100
0100
0100
0100
1000
0001
1000
,
0210
0000
0000
0301
0010
0000
1000
0000
0100
0000
0001
0000
0010
0000
1000
0000
,
0100
0000
0010
0000
0010
0000
0010
0000
0010
0000
0001
1000
0100
0000
0010
0000
,
2100
0000
3001
0010
0100
0001
0010
0100
,
0010
0001
0001
0001
0001
1000
0100
0010
,
0012
0000
1003
0100
0010
1000
0100
0010
,
0100
1000
0100
0000
0001
0100
0001
0000
0110
0000
0110
0000
0110
0000
0110
0000
,
1001
0000
0000
0100
0010
0000
0001
0000
0000
0100
0010
0000
1000
0000
0001
0000
,
0010
0000
0100
0000
1000
0001
0000
0001
0010
0000
0010
0100
0000
0100
1000
0000
,
0110
0000
0000
0001
1000
0000
0010
0000
0000
0001
1000
0000
0010
0000
0100
0000
,
0101
0000
0000
0000
0010
1000
0000
1000
0100
0000
0010
0000
0001
1000
0001
0000
,
0100
0010
1000
0100
0010
1000
0100
0010
,
0001
0100
0010
0001
0100
0010
1000
0100
,
0010
0000
0000
0001
1000
0000
0100
0000
0010
0000
1000
0000
0001
0000
1000
0000
,
0010
0100
1000
0001
1000
0001
0010
0100
,
1001
1001
1001
0000
0000
0000
0000
0000
;

//---------------dance-single - ----------------
#NOTEDATA:;
#CHARTNAME:BEGINNER;
#CHARTHASH:1266719105;
#STEPSTYPE:dance-single;
#BANNER:;
#DESCRIPTION:;
#CHARTSTYLE:;
#DIFFICULTY:Beginner;
#METER:4;
#METERF:4.000000;
#LASTSECONDHINT:1.640000;
#RADARVALUES:0.184086,0.302162,0.112870,0.075247,0.000000,137.000000,125.000000,12.000000,8.000000,0.000000,0.000000,0.000000,0.000000,0.000000,0.184086,0.302162,0.112870,0.075247,0.000000,137.000000,125.000000,12.000000,8.000000,0.000000,0.000000,0.000000,0.000000,0.000000;
#CREDIT:YonabearCWY;
#NOTES:
// measure 0
0000
0000
0000
0000
,  // measure 1
0000
0000
0000
0000
,  // measure 2
0000
0000
0000
0000
,  // measure 3
0000
0000
0000
0000
,  // measure 4
1000
0000
0000
0000
,  // measure 5
1000
0000
0000
0000
,  // measure 6
0001
0000
0000
0000
,  // measure 7
0001
0000
1001
1001
,  // measure 8
0010
0000
0010
0000
,  // measure 9
0010
0000
0100
0000
,  // measure 10
0100
0000
0100
0000
,  // measure 11
1001
0000
0000
0000
,  // measure 12
1000
0000
1000
0000
,  // measure 13
1000
0000
0001
0000
,  // measure 14
0001
0000
0001
0000
,  // measure 15
0110
0000
1001
1001
,  // measure 16
0100
0000
0100
0000
,  // measure 17
0100
0000
0010
0100
,  // measure 18
0010
0000
0100
0010
,  // measure 19
0100
0000
0001
1000
,  // measure 20
0001
0000
0001
0000
,  // measure 21
0001
0000
1000
0001
,  // measure 22
1000
0000
0001
1000
,  // measure 23
0001
0000
1001
1001
,  // measure 24
0010
0000
0010
0000
,  // measure 25
0020
0000
0030
0000
,  // measure 26
0100
0000
0100
0000
,  // measure 27
0200
0000
0300
0000
,  // measure 28
1000
0000
1000
0000
,  // measure 29
2000
0000
3000
0000
,  // measure 30
0001
0000
0001
0000
,  // measure 31
0002
0000
0003
0000
,  // measure 32
1000
0000
0000
0000
,  // measure 33
1000
0000
0000
0000
,  // measure 34
0001
0000
0000
0000
,  // measure 35
0001
0000
0000
0000
,  // measure 36
0100
0000
0000
0000
,  // measure 37
0100
0000
0000
0000
,  // measure 38
0010
0000
0000
0000
,  // measure 39
0010
0000
0000
0000
,  // measure 40
1000
0010
1000
0000
,  // measure 41
0001
0000
0100
0000
,  // measure 42
0001
0010
0001
0000
,  // measure 43
1000
0000
0100
0000
,  // measure 44
0010
0001
0010
0000
,  // measure 45
0100
0000
0010
0000
,  // measure 46
0100
1000
0100
0000
,  // measure 47
1000
0000
0001
0000
,  // measure 48
1000
1000
1000
1000
,  // measure 49
1000
0000
0000
0000
,  // measure 50
1000
1000
1000
1000
,  // measure 51
1000
0000
0000
0000
,  // measure 52
0001
0001
0001
0001
,  // measure 53
0001
0000
0000
0000
,  // measure 54
0001
0001
0001
0001
,  // measure 55
0001
0000
0110
0110
,  // measure 56
2000
0000
3000
0000
,  // measure 57
0200
0000
0300
0000
,  // measure 58
2000
0000
3000
0000
,  // measure 59
0002
0000
0003
0000
,  // measure 60
0010
0010
0100
0000
,  // measure 61
1000
1000
0001
0000
,  // measure 62
0100
0100
0010
0000
,  // measure 63
0001
0001
1000
0010
,  // measure 64
1001
1001
0000
0000
;
