#TITLE:DA PEOPLE;
#SUBTITLE:;
#ARTIST:長沼英樹;
#TITLETRANSLIT:;
#SUBTITLETRANSLIT:;
#ARTISTTRANSLIT:HIDEKI NAGANUMA;
#GENRE:BOMB RUSH BREAKBEAT;
#CREDIT:YonabearCWY;
#BANNER:DA PEOPLE.png;
#BACKGROUND:DA PEOPLE-bg.png;
#LYRICSPATH:;
#CDTITLE:cdtitle.png;
#MUSIC:DA PEOPLE.ogg;
#OFFSET:-7.670000;
#SAMPLESTART:61.011333;
#SAMPLELENGTH:17.139999;
#SELECTABLE:YES;
#BPMS:0.000000=125.999992
;
#STOPS:
;
#BGCHANGES:0.000=bluey1.mp4=1.000=1=0=1===CrossFade==,
4.000=ring1.mp4=1.000=0=0=1=====,
8.000=bluey1.mp4=1.000=0=0=1=====,
16.000=dance6.mp4=1.600=0=0=1=====,
20.000=rain1.mp4=1.600=0=0=1=====,
24.000=dance6.mp4=1.600=0=0=1=====,
26.000=rain1.mp4=1.600=0=0=1=====,
28.000=dance5.mp4=1.400=0=0=1=====,
32.000=text17.mp4=1.600=0=0=1=====,
40.000=text6.mp4=1.400=0=0=1=====,
48.000=text17r.mp4=1.600=0=1=1=StretchRewind====,
56.000=dance5.mp4=1.400=0=1=1=StretchRewind====,
60.000=dance6.mp4=1.600=0=1=1=StretchRewind====,
64.000=amoeba3.mp4=1.400=0=0=1=====,
68.000=ring4.mp4=1.400=0=0=1=====,
72.000=amoeba3.mp4=1.400=0=0=1=====,
76.000=dance10.mp4=1.800=0=0=1=====,
80.000=arrows1.mp4=1.400=0=0=1=====,
84.000=ring5.mp4=1.400=0=0=1=====,
88.000=arrows1.mp4=1.400=0=0=1=====,
92.000=tunnel4.mp4=1.400=0=0=1=====,
96.000=boy3.mp4=1.400=0=0=1=====,
98.000=boy7.mp4=1.400=0=0=1=====,
100.000=boy4.mp4=0.900=0=0=1=====,
102.000=boy7.mp4=1.400=0=0=1=====,
106.000=boy7.mp4=1.400=0=1=1=StretchRewind====,
107.000=boy7.mp4=1.400=0=1=1=StretchRewind====,
108.000=ring1.mp4=1.000=0=1=1=StretchRewind====,
112.000=circle7.mp4=1.400=0=0=1=====,
120.000=amoeba3.mp4=1.400=0=1=1=StretchRewind====,
124.000=text29.mp4=1.400=0=0=1=====,
128.000=circle7r.mp4=1.400=0=0=1=====,
136.000=amoeba3.mp4=1.400=0=1=1=StretchRewind====,
138.000=amoeba3.mp4=1.400=0=1=1=StretchRewind====,
140.000=dance5.mp4=1.400=0=1=1=StretchRewind====,
142.000=dance5.mp4=1.400=0=1=1=StretchRewind====,
144.000=dance5.mp4=1.400=0=1=1=StretchRewind====,
148.000=ring4.mp4=1.400=0=1=1=StretchRewind====,
156.000=ring5.mp4=1.400=0=1=1=StretchRewind====,
160.000=tunnel4.mp4=1.400=0=1=1=StretchRewind====,
164.000=ring4.mp4=1.400=0=1=1=StretchRewind====,
171.500=text17.mp4=1.600=0=1=1=StretchRewind====,
173.500=text29.mp4=1.400=0=1=1=StretchRewind====,
176.000=bluey1.mp4=1.000=0=1=1=StretchRewind====,
180.000=text17.mp4=1.600=0=1=1=StretchRewind====,
182.000=boy3.mp4=1.400=0=1=1=StretchRewind====,
184.000=text17r.mp4=1.600=0=1=1=StretchRewind====,
186.000=boy7.mp4=1.400=0=1=1=StretchRewind====,
188.000=circle7.mp4=1.400=0=1=1=StretchRewind====,
190.000=boy4.mp4=0.900=0=1=1=StretchRewind====,
192.000=boy4.mp4=0.900=0=1=1=StretchRewind====,
192.750=boy4.mp4=0.900=0=1=1=StretchRewind====,
193.500=boy4.mp4=0.900=0=1=1=StretchRewind====,
194.250=boy4.mp4=0.900=0=1=1=StretchRewind====,
195.000=boy4.mp4=0.900=0=1=1=StretchRewind====,
196.000=boy7.mp4=1.400=0=1=1=StretchRewind====,
198.000=text17.mp4=1.400=0=1=1=StretchRewind====,
200.000=boy7.mp4=1.400=0=0=1=====,
202.000=text17r.mp4=1.400=0=1=1=StretchRewind====,
204.000=boy3.mp4=1.400=0=1=1=StretchRewind====,
206.000=dance6.mp4=1.600=0=1=1=StretchRewind====,
208.000=dance6.mp4=1.600=0=1=1=StretchRewind====,
208.750=dance6.mp4=1.600=0=1=1=StretchRewind====,
209.500=dance6.mp4=1.600=0=1=1=StretchRewind====,
210.250=dance6.mp4=1.600=0=1=1=StretchRewind====,
211.000=dance6.mp4=1.600=0=1=1=StretchRewind====,
212.000=dance5.mp4=1.400=0=1=1=StretchRewind====,
228.000=dance10.mp4=1.800=0=1=1=StretchRewind====,
240.000=ring1.mp4=1.200=0=1=1=StretchRewind====,
244.000=DA PEOPLE-bg.png=1.000=0=0=1=====,
99999.000=-nosongbg-=1.000=0=0=0=StretchNoLoop====,
99999=-nosongbg-=1.000=0=0=0 // don't automatically add -songbackground-
;
#KEYSOUNDS:;
#ATTACKS:;

//---------------dance-single - ----------------
#NOTES:
     dance-single:
     BEGINNER:
     Beginner:
     4:
     0.137675,0.195957,0.080310,0.000000,0.000000,120.000000,110.000000,10.000000,0.000000,0.000000,0.000000,0.137675,0.195957,0.080310,0.000000,0.000000,120.000000,110.000000,10.000000,0.000000,0.000000,0.000000:
1001
0000
0000
0000
,
1001
0000
0000
0000
,
1001
0000
0000
0000
,
0010
0010
0010
0000
,
1000
0000
0000
0000
,
0001
0000
0000
0000
,
1000
0000
0001
0000
,
1001
0000
0000
0000
,
0100
0100
0100
0000
,
0100
0100
0100
0000
,
0010
0010
0010
0000
,
0010
0010
0010
0000
,
0100
0000
0100
0000
,
0010
0000
0010
0000
,
0100
0000
0100
0000
,
0010
0000
0010
0000
,
1000
0000
0000
0000
,
1000
0000
0000
0000
,
0001
0000
0000
0000
,
0001
0000
0000
0000
,
0100
0000
0000
0000
,
0100
0000
0000
0000
,
0010
0000
0000
0000
,
0010
0000
0000
0000
,
1001
0000
0000
0000
,
0110
0000
0000
0000
,
1001
0000
0010
0010
,
0010
0000
0000
0000
,
1000
0000
0000
0000
,
1000
0000
0000
0000
,
0001
0000
0000
0000
,
0001
0000
0000
0000
,
0100
0000
0000
0000
,
0100
0000
0000
0000
,
0010
0000
0000
0000
,
0010
0000
0010
0000
,
0100
0000
0100
0000
,
1000
1000
1000
0000
,
1000
1000
1000
0000
,
0001
0001
0001
0000
,
0001
0001
0001
0001
,
0100
0100
0100
0000
,
0100
0100
0100
0000
,
0010
0010
0010
0000
,
0110
0000
0000
0000
,
1000
0000
0000
0000
,
1000
0000
0000
0000
,
0100
0000
0000
0000
,
0100
0000
0000
0000
,
0010
0000
0000
0000
,
0010
0000
0000
0000
,
0001
0000
0000
0000
,
1001
0000
0000
0000
,
1000
1000
1000
1000
,
1000
0000
1000
0000
,
0001
0001
0001
0001
,
0001
0000
0001
0000
,
1000
0000
1000
0000
,
0001
0000
0001
0000
,
0100
0000
0100
0000
,
0010
0010
0010
0010
,
1001
0000
0000
0000
;

//---------------dance-single - ----------------
#NOTES:
     dance-single:
     BASIC:
     Easy:
     7:
     0.263877,0.391914,0.289117,0.329272,0.000000,230.000000,194.000000,36.000000,41.000000,0.000000,0.000000,0.263877,0.391914,0.289117,0.329272,0.000000,230.000000,194.000000,36.000000,41.000000,0.000000,0.000000:
2002
0000
3003
0000
,
0220
0000
0330
0000
,
2002
0000
3003
0000
,
0010
0010
0100
0100
,
1001
0000
0100
0010
,
1001
0000
0010
0100
,
1001
0000
0110
0000
,
2002
0000
0000
3003
,
0010
1000
1000
0000
,
0001
0100
0100
0000
,
0001
1000
1000
0100
,
0010
0001
0001
1001
,
0010
0100
0100
0000
,
0001
1000
1000
0000
,
0100
0010
0010
0001
,
1000
1000
1000
1001
,
0020
0000
0030
0020
0000
0030
0100
0000
,
0001
1000
0100
0001
,
0200
0000
0300
0200
0000
0300
1000
0000
,
0001
0010
1000
0010
,
0002
0000
0003
2000
0000
3000
0001
0100
,
0002
0000
0003
0020
0000
0030
1001
0000
,
0200
0000
0300
0020
0000
0030
1000
0010
,
1000
0001
0100
0010
,
1010
1010
0100
0100
,
0011
0011
0100
0100
,
1001
1001
0110
0110
,
1001
0000
0000
0000
,
2000
0000
0000
3001
0100
0000
0000
0000
,
2000
0000
0000
3001
0100
0000
0000
0000
,
0002
0000
0000
1003
0010
0000
0000
0000
,
0100
0001
0010
0001
,
0020
0000
0000
0031
1000
0000
0000
0000
,
0020
0000
0000
0031
1000
0000
0000
0000
,
0200
0000
0000
1300
0001
0000
0110
0000
,
1001
0001
0010
0100
,
1000
0100
0010
1001
,
0120
0000
0000
0130
0000
0001
1000
0000
,
0100
0001
0010
1000
,
0102
0000
0000
0103
0000
0001
0010
0000
,
1000
0100
0001
0010
,
2001
0000
0000
3001
0000
0010
0100
0000
,
1000
0000
0001
0000
0010
0000
0001
0010
,
0000
0001
0000
1000
0000
0010
0000
0100
,
0010
0000
0000
0000
,
1000
0001
0202
0303
,
0001
1000
2020
3030
,
0100
0010
2002
3003
,
0001
0001
0001
0001
,
0022
0033
1000
0010
,
2200
3300
0001
0100
,
2002
3003
0010
0100
,
0010
0010
0010
0010
,
2001
0000
0001
0000
,
0001
0000
0001
3001
,
1002
0000
1000
0000
,
1000
0000
1000
1003
,
1001
0000
0010
0000
,
0010
0000
0100
0000
,
0100
0000
0010
0000
,
0010
0010
0010
0010
,
1001
0000
0000
0000
;

//---------------dance-single - ----------------
#NOTES:
     dance-single:
     DIFFICULT:
     Medium:
     11:
     0.454327,0.441807,0.337303,0.136528,0.156605,396.000000,354.000000,42.000000,17.000000,0.000000,0.000000,0.454327,0.441807,0.337303,0.136528,0.156605,396.000000,354.000000,42.000000,17.000000,0.000000,0.000000:
0202
0000
0000
0000
0000
0000
0303
0000
0000
0000
0010
0000
0000
0010
0000
0000
,
2002
0000
0000
0000
0000
0000
3003
0000
0000
0000
0010
1000
0000
0100
0000
0000
,
0220
0000
0000
0000
0000
0000
0330
0000
0001
0000
1000
0000
0000
0001
0000
0000
,
0100
0001
0010
0000
0100
0100
1001
0000
,
0010
1000
0010
1000
0100
1000
0001
0000
,
0010
0001
0010
0001
1000
0010
0100
0000
,
0001
0001
0011
0000
1000
1000
1010
0000
,
0110
1000
0001
0000
0010
0010
1001
0000
,
0100
0000
0001
0000
0100
0000
0001
0000
0010
0000
0000
0001
0100
0000
0010
0000
,
1000
0001
1000
0001
0010
0010
1001
0000
,
0010
0000
0100
0000
0010
0000
0100
0000
1000
0000
1000
0000
0000
0001
0010
0000
,
1000
0010
0100
0010
0100
1000
0001
0000
,
1000
0000
0010
0000
1000
0000
0001
0000
0100
0000
0000
0001
0010
0000
0001
0000
,
1000
0100
0010
0100
0010
0001
1010
0000
,
0100
0000
0001
0000
0010
0000
0001
0000
1000
0000
1000
0000
0000
0010
0100
0000
,
0002
1000
0010
1003
,
0001
0000
0000
0010
0000
0000
0100
0000
0000
0000
1000
0000
0101
0000
0000
0000
,
0010
0000
0000
1000
0000
0000
0100
0000
0000
0010
0000
0001
0100
0000
0000
0000
,
0010
0000
0000
1000
0000
0000
0001
0000
0000
0000
0100
0000
1001
0000
0000
0000
,
0010
1000
0010
0000
0100
0100
1001
0000
,
0100
0000
0000
0010
0000
0000
0001
0000
0000
0000
0010
0000
1100
0000
0000
0000
,
0001
0000
0000
1000
0000
0000
0010
0000
0000
1000
0000
0010
0100
0000
0000
0000
,
0010
0000
0000
0100
0000
0000
0001
0000
0000
0000
0010
0000
1001
0000
0000
0000
,
0010
0001
0010
0000
0001
0001
1000
1000
,
0020
0001
2030
0100
,
3001
1000
0010
0000
0100
0001
1000
0000
,
0010
0100
0001
0100
1000
0100
0010
0100
,
1001
0000
0000
0000
,
0001
0000
0000
0001
0000
0000
1000
0000
0100
0000
1000
0000
0101
0000
0000
0000
,
1000
0000
0000
1000
0000
0000
0001
0000
0100
0000
0001
0000
0100
0010
0000
0000
,
1000
0000
0000
1000
0000
0000
0001
0000
0010
0000
0001
0000
0110
0000
0000
0000
,
1000
0000
0001
0000
0010
0100
1001
0000
,
0100
0010
1000
0010
1000
1000
0101
0000
,
0010
0000
0001
0000
0010
0000
0001
0000
1000
0000
1000
0000
0010
1000
0000
0000
,
0001
0100
1010
0000
0100
0001
0110
0000
,
1001
0010
0101
1000
,
0220
0000
0000
0330
,
1000
0000
0001
0010
0000
0000
1000
0000
0001
0010
0000
0000
0001
0000
1000
0000
,
0001
0000
1000
0100
0000
0000
0001
0000
1000
0000
0000
0000
0110
0000
0000
0000
,
0001
0000
0100
0010
0000
0000
0001
0000
0100
0010
0000
0000
1000
0000
0001
0000
,
0010
0000
0001
0100
0000
0000
0010
0000
0001
0000
0001
0000
1001
0000
0000
0000
,
0100
0000
0010
1000
0000
0000
0100
0000
0010
1000
0000
0000
0001
0000
0100
0000
,
0010
0000
1000
0001
0000
0001
1000
0000
0000
0000
0100
0000
0010
0000
0100
0000
,
0000
1000
0010
0001
0000
0001
0010
1000
,
1001
1001
0000
0000
0000
0000
0000
0000
,
0100
0000
0001
0000
1000
0010
0101
0000
,
0010
0000
1000
0000
0001
0100
1010
0000
,
0001
0001
1000
0000
0100
0010
0100
0010
,
0001
0000
0000
1000
0000
0000
0001
0000
0000
1000
0000
0000
0110
0000
0000
0000
,
1000
0000
0010
0000
1000
0010
0101
0000
,
0001
0000
0100
0000
0001
0100
1010
0000
,
0100
0001
0001
0000
0010
1000
0010
1000
,
0010
0000
0001
1000
0000
0001
1000
0000
0001
1000
0000
0001
2000
0000
0000
0000
,
3002
1000
0000
1000
,
0203
0010
0310
0110
,
1002
1000
1003
0210
,
0001
0000
0001
0000
0301
0000
0110
0110
,
0000
1000
0001
0000
0010
0100
0010
0000
,
0100
1000
0100
0000
0100
0001
0100
0000
,
1000
0001
1000
0000
0001
1000
0001
0000
,
0210
0001
1000
0301
,
1001
1001
0000
0000
0000
0000
0000
0000
;

//---------------dance-single - ----------------
#NOTES:
     dance-single:
     EXPERT:
     Hard:
     15:
     0.667723,0.638166,0.465800,0.256993,0.630436,582.000000,524.000000,58.000000,32.000000,0.000000,0.000000,0.667723,0.638166,0.465800,0.256993,0.630436,582.000000,524.000000,58.000000,32.000000,0.000000,0.000000:
// measure 0
2002
0000
0000
0000
0000
0000
3003
0000
0000
0000
1100
0000
0000
0110
0000
0000
,  // measure 1
0202
0000
0000
0000
0000
0000
0303
0000
0000
0000
0001
1000
0000
0010
0000
0000
,  // measure 2
0220
0000
0000
0000
0000
0000
0330
0000
0000
0000
0011
0000
0001
0100
0000
0100
,  // measure 3
0010
1000
0100
0001
0100
0010
1001
0000
,  // measure 4
0110
0000
0000
1000
0010
0000
1000
0010
0000
0000
0100
0000
0001
0000
0010
0000
,  // measure 5
0100
0000
1000
0001
0000
0001
0010
0000
0100
0000
0010
0000
0001
0000
1000
0000
,  // measure 6
0101
0000
0000
0001
1000
0000
0001
1000
0100
0000
0010
0001
0000
0001
1000
0000
,  // measure 7
0110
0001
0011
1000
1010
0100
1001
1001
,  // measure 8
0110
0000
0000
0001
1000
0000
0100
0010
0100
0000
0010
0001
0000
1000
0010
1000
,  // measure 9
0001
0000
0000
0010
0100
0000
1000
0001
1000
0000
0001
0000
0010
0001
0010
0000
,  // measure 10
0001
0000
0000
0100
0001
0000
0010
0100
0010
0000
0001
1000
0000
0010
0100
0010
,  // measure 11
0001
0000
0000
0010
1000
0000
0001
0100
0000
0100
0010
0000
1000
0000
0100
0000
,  // measure 12
0011
0000
0000
1000
0010
0000
0010
0100
0000
0100
0001
0000
1000
0000
0001
0000
,  // measure 13
1010
0000
0000
0001
0010
0000
0100
1000
0100
1000
0100
0000
0010
0000
0001
0000
,  // measure 14
1010
0100
0101
0101
0010
0010
1001
1001
,  // measure 15
0120
1000
0001
1030
,  // measure 16
0010
0100
0000
0010
0100
0000
0010
0100
0000
0010
0100
0000
0002
0000
1000
0000
,  // measure 17
1003
0100
0000
0100
0010
0000
0010
0001
0000
0001
1000
0010
0200
0000
0001
0000
,  // measure 18
0301
0010
0000
0001
0010
0000
0001
0010
0000
0001
0010
0000
0002
0000
1000
0000
,  // measure 19
1003
0000
0001
0100
0000
0001
0000
1000
0000
0100
0010
0000
0210
0000
0000
0000
,  // measure 20
1300
0001
0000
1000
0001
0000
1000
0001
0000
1000
0001
0000
0020
0000
0100
0000
,  // measure 21
0130
1000
0000
1000
0001
0000
0001
0010
0000
0010
0100
0010
0002
0000
1000
0000
,  // measure 22
1003
0010
0000
1000
0010
0000
1000
0010
0000
1000
0010
0000
0100
0000
0001
0000
,  // measure 23
0010
0000
0100
0000
1000
0000
0001
0010
0000
0001
0000
1000
0000
1020
0000
0000
,  // measure 24
0130
0001
0000
0001
0020
0000
0000
0000
0130
1000
0000
1000
0001
0100
0001
0000
,  // measure 25
0010
0100
0000
0100
2000
0000
0000
0000
3001
0000
1000
0100
0001
0100
1000
0000
,  // measure 26
0001
0010
0000
0010
0200
0000
0000
0000
1300
0001
0000
0010
0100
0010
0000
0001
,  // measure 27
1001
0000
0000
0000
,  // measure 28
1010
0000
0001
0000
0010
0000
0100
0000
1000
0000
1001
0000
0001
0100
0000
0000
,  // measure 29
0011
0000
1000
0000
0010
0000
0100
0000
0001
0000
1000
0100
1000
0001
0000
0000
,  // measure 30
0110
0000
0010
0000
1000
0000
0100
0000
0001
0000
0110
0000
0100
1000
0000
1000
,  // measure 31
0001
0000
0010
0000
1000
0000
0010
0000
0001
0000
0100
0001
1000
0001
0010
0000
,  // measure 32
0011
0000
1000
0000
0001
0000
0010
0000
0100
0000
1100
0000
1000
0001
0000
0000
,  // measure 33
0110
0000
0010
0000
1000
0000
0100
0000
0001
0000
0100
1000
0010
1000
0000
0000
,  // measure 34
0101
0000
0010
0000
1000
0000
0001
0000
0100
0010
0000
0010
1000
0100
1000
0000
,  // measure 35
0101
1000
0010
0100
0011
0100
1000
0001
,  // measure 36
0210
0000
1000
0000
0301
0001
0110
0000
,  // measure 37
1000
0001
0000
0001
0010
0000
0010
0100
0000
0100
1000
0000
0001
0010
0001
0000
,  // measure 38
1000
0100
0000
0100
0010
0000
0010
0001
0000
0001
1000
0001
1000
0000
0010
0000
,  // measure 39
0100
0010
0000
0010
1000
0000
1000
0100
0000
0100
0001
0000
0100
1000
0100
0000
,  // measure 40
1000
0001
0000
0001
0010
0100
0010
0000
0001
0000
1000
0000
0110
0000
0000
0000
,  // measure 41
0001
0100
0000
0100
0010
0000
0010
1000
0000
1000
0100
0000
0010
0001
0010
0000
,  // measure 42
0100
1000
0000
1000
0001
0000
0100
0010
0000
0010
1000
0000
0001
0000
0101
0000
,  // measure 43
1000
0010
0100
1001
0100
0010
0001
1010
,  // measure 44
1001
1001
0000
0000
0000
0000
0000
0000
,  // measure 45
0001
1000
0000
1000
0100
0010
0100
0000
0020
0000
0001
0000
0001
0000
0031
0000
,  // measure 46
1000
0000
0010
0100
0000
0100
0001
1000
0002
0000
1000
0000
1000
0000
1003
0000
,  // measure 47
0010
0000
0100
0001
0010
0001
0010
0001
0020
0000
0100
0000
0100
0000
0130
0000
,  // measure 48
1000
0001
0000
1000
0001
0000
1000
0001
0000
1000
0001
0000
0020
0000
0000
0000
,  // measure 49
0130
0000
1000
0100
0001
0100
1000
0000
0001
0010
0000
0010
1000
0000
1001
0000
,  // measure 50
0010
0000
0001
0100
0000
0100
1000
0000
0120
0000
0000
0000
1030
0000
0001
0000
,  // measure 51
0010
0000
0001
0010
1000
0010
0001
0000
1000
0100
0000
0100
0001
0000
1001
0000
,  // measure 52
1000
0010
0000
0010
0100
0000
0100
0001
0000
0001
0010
0100
1000
0001
1000
0100
,  // measure 53
0020
0001
0001
0000
1000
1000
0032
0000
,  // measure 54
2003
0010
0010
0000
0001
0100
3200
0000
,  // measure 55
0310
0001
2000
0000
3001
0100
0020
0000
,  // measure 56
1030
0001
0200
0000
0310
1000
0101
0102
,  // measure 57
0000
1003
0001
0010
1001
0100
0010
0001
,  // measure 58
0110
0000
1000
0000
0001
0000
0010
0000
1100
0000
0010
0000
0100
0001
0100
0000
,  // measure 59
0011
0000
1000
0000
0001
0010
0100
0000
1100
0000
1000
0000
0001
0100
0010
0000
,  // measure 60
0210
0001
1000
0301
,  // measure 61
1001
1001
0000
0000
0000
0000
0000
0000
;
