#VERSION:0.83;
#TITLE:Cornman;
#SUBTITLE:;
#ARTIST:KINKY;
#TITLETRANSLIT:;
#SUBTITLETRANSLIT:;
#ARTISTTRANSLIT:;
#GENRE:BREAKBEAT MEXICANO;
#ORIGIN:;
#TAGS:;
#CREDIT:YonabearCWY;
#BANNER:Cornman.png;
#BACKGROUND:Cornman-bg.png;
#PREVIEWVID:;
#JACKET:Cornman-jacket.png;
#CDIMAGE:Cornman-jacket2.png;
#DISCIMAGE:;
#LYRICSPATH:;
#CDTITLE:cdtitle.png;
#MUSIC:Cornman.ogg;
#OFFSET:-10.050000;
#SAMPLESTART:27.962509;
#SAMPLELENGTH:15.915119;
#SELECTABLE:YES;
#BPMS:0.000000=120.639999
;
#STOPS:;
#DELAYS:;
#WARPS:;
#TIMESIGNATURES:0.000000=4=4
;
#TICKCOUNTS:0.000000=4
;
#COMBOS:0.000000=1
;
#SPEEDS:0.000000=1.000000=0.000000=0
;
#SCROLLS:0.000000=1.000000
;
#LABELS:0.000000=Song Start
;
#BGCHANGES:-20.500=Cornman.mp4=1.000=1=0=0=StretchNoLoop==CrossFade==,
296.000=Cornman-bg.png=1.000=1=0=1===CrossFade==,
99999.000=-nosongbg-=1.000=0=0=0=StretchNoLoop====,
99999=-nosongbg-=1.000=0=0=0 // don't automatically add -songbackground-
;
#KEYSOUNDS:;
#ATTACKS:
;

//---------------dance-single - ----------------
#NOTEDATA:;
#CHARTNAME:BASIC;
#CHARTHASH:2318413068;
#STEPSTYPE:dance-single;
#BANNER:;
#DESCRIPTION:;
#CHARTSTYLE:;
#DIFFICULTY:Easy;
#METER:6;
#METERF:6.000000;
#LASTSECONDHINT:155.275467;
#RADARVALUES:0.270588,0.322059,0.411765,0.211765,0.000000,322.000000,252.000000,70.000000,36.000000,0.000000,0.000000,0.000000,0.000000,0.000000,0.270588,0.322059,0.411765,0.211765,0.000000,322.000000,252.000000,70.000000,36.000000,0.000000,0.000000,0.000000,0.000000,0.000000;
#CREDIT:YonabearCWY;
#NOTES:
0000
0000
0000
0000
,
1000
0001
1000
0001
,
0110
0000
0110
0000
0001
0000
1000
0001
,
0000
0010
0000
0010
,
0100
0010
0100
0010
,
1000
0001
1000
0001
,
0110
0000
1001
0000
0000
0000
0010
0100
,
0000
0010
1000
0010
,
1001
1001
0100
1001
,
1001
0000
1001
0000
,
0010
0100
0001
1000
,
0110
0000
0110
0000
,
0100
0001
0010
0100
,
1010
0000
1010
0000
,
0100
0010
0001
1000
,
0101
0000
0101
0000
,
1001
0000
1001
0000
,
1000
0000
1000
0000
1000
0000
1000
0010
,
0000
0000
0100
0000
0100
0000
0100
0001
,
0000
0000
0010
0000
0010
0000
0010
0100
,
0000
0000
1000
0000
1000
0000
1000
0001
,
0000
0000
0110
0000
0110
0000
0100
0001
,
0000
0000
1001
0000
1001
0000
0010
0100
,
0000
0000
1100
0000
1100
0000
1000
0001
,
0000
0011
0011
0011
,
0011
1000
0001
1000
,
1001
0000
1001
0000
0010
0000
0100
0010
,
0000
1000
0000
1000
,
0000
0001
0100
0010
,
1000
0001
1000
0001
,
0110
0000
1001
0000
0000
0000
1000
0100
,
0000
0010
0001
1000
,
0101
0101
0010
1010
,
1010
0000
0000
1000
0010
0000
0100
0000
,
0001
0001
1000
1000
,
0110
0000
0000
0100
0001
0000
0010
0000
,
0100
0100
1000
1000
,
0011
0000
0000
1000
0010
0000
0100
0000
,
0001
0001
0010
0010
,
0100
1100
0100
0101
,
0100
0110
0100
1001
,
0220
0330
0220
0330
,
2002
0000
0000
3003
,
2200
3300
2200
3300
,
2002
0000
0000
3003
,
0022
0033
0022
0033
,
2002
0000
0000
3003
,
2020
3030
2020
3030
,
1000
1000
0001
1001
,
0010
0010
0100
0100
,
0010
1000
0001
1000
,
0010
0000
0010
0100
,
0001
0000
0001
1000
,
0100
0100
0010
0010
,
0001
1000
0001
0010
,
0100
0000
0100
0000
,
1000
0001
1000
1001
,
0210
0001
1000
0001
,
1300
0000
0100
0000
0010
0001
0010
0000
,
0102
1000
0010
1000
,
0013
0000
0001
1000
0001
0000
0110
0000
,
2010
0100
0001
0100
,
3001
0000
0100
0000
0001
1000
0001
0000
,
0120
0001
1000
0001
,
1030
0000
0010
0100
0010
0000
1001
0000
,
1000
1000
0100
0100
,
0011
0011
1000
1000
,
0202
0303
2020
3030
,
0100
0001
0100
0001
,
0010
0010
0100
0100
,
1100
1100
0001
1000
,
0220
0330
2020
3030
,
0202
0303
1000
1000
,
1001
0000
0000
0000
;

//---------------dance-single - ----------------
#NOTEDATA:;
#CHARTNAME:DIFFICULT;
#CHARTHASH:235117400;
#STEPSTYPE:dance-single;
#BANNER:;
#DESCRIPTION:;
#CHARTSTYLE:;
#DIFFICULTY:Medium;
#METER:10;
#METERF:10.000000;
#LASTSECONDHINT:155.275467;
#RADARVALUES:0.418487,0.386471,0.411765,0.223529,0.070588,498.000000,428.000000,70.000000,38.000000,0.000000,0.000000,0.000000,0.000000,0.000000,0.418487,0.386471,0.411765,0.223529,0.070588,498.000000,428.000000,70.000000,38.000000,0.000000,0.000000,0.000000,0.000000,0.000000;
#CREDIT:YonabearCWY;
#NOTES:
0000
0000
0000
0000
,
1000
0001
1000
0001
0010
0000
0100
1000
,
0101
0000
1010
0000
0001
0000
1000
0010
,
0000
0100
0001
0010
0001
0010
0100
0000
,
1000
0100
0001
0000
0110
0000
1001
0000
,
0010
1000
0010
1000
0001
0000
0100
0010
,
1100
0100
1001
0000
0100
0000
0010
0001
,
0000
1000
0010
0100
0010
0100
0001
0000
,
1000
0000
1000
0000
0001
0100
0000
0000
0110
0000
0000
0000
1000
0000
0001
0000
,
2100
3010
2010
3001
,
1000
0000
0010
0000
1000
0000
1001
0000
0000
0000
0010
0000
0100
1000
0000
0000
,
0012
1003
0102
1003
,
0001
0000
0010
0000
0100
0000
1001
0000
0000
0000
0100
0000
0010
0001
0000
0000
,
2100
3001
2010
3100
,
1000
0000
0001
0000
0010
0000
1100
0000
0000
0000
0010
0000
1000
0001
0000
0000
,
0201
0000
0000
0301
0000
0000
0000
0000
0012
0000
0000
0013
0000
0000
0000
0000
,
2001
0000
0000
3001
0000
0000
0110
0000
0000
0000
1000
0000
0001
0010
0000
0000
,
0100
1000
0100
0001
0100
1000
0010
1001
,
0000
0001
0010
1000
0010
0001
1000
0101
,
0000
1000
0001
0010
0100
0001
1000
0110
,
0000
1000
0001
0010
0100
0001
0100
1010
,
2001
0000
0001
0000
3001
0100
1000
0200
,
0010
0000
0010
0000
0310
0100
0001
0020
,
0100
0000
0100
0000
0130
0010
0001
2000
,
0001
0000
0001
0000
3001
1000
1001
0000
,
0100
0010
1000
0010
1000
0000
0001
0100
,
0011
0000
1010
0000
0001
0000
0100
0010
,
0000
1000
0001
0010
0100
1000
0100
0000
,
0010
0001
0010
0000
1100
0000
0101
0000
,
1000
0010
1000
0010
0100
0000
0001
1000
,
0110
0010
1001
0000
0100
0000
0001
0010
,
0000
0100
1000
0100
0001
0100
1000
0000
,
0010
0000
0010
0000
0100
0010
0000
0000
1000
0000
1000
0000
0001
1000
0001
0000
,
1000
0010
0200
0000
0301
1000
0020
0000
,
0130
0000
0001
0000
0010
0000
0100
0000
1000
0000
0001
0000
0001
0020
0000
0000
,
0130
1000
0002
0000
1003
0100
0020
0000
,
0031
0000
0100
0000
0010
0000
1000
0000
0000
0000
0001
0000
1000
0100
0000
0000
,
0010
0001
2000
0000
3010
0100
0002
0000
,
0103
0000
0010
0000
1000
0000
0010
0000
0100
0000
0001
0000
0010
0100
0000
0000
,
1200
0000
0000
1300
0000
0000
0000
0000
0210
0000
0000
0310
0000
0000
0000
0000
,
1002
0000
0000
1003
0000
0000
0110
0000
1000
0000
0001
0000
0010
0001
0000
0000
,
2010
3001
2010
3001
,
0120
0000
0000
0000
0001
0000
0000
0000
1030
0001
0000
0001
1000
0000
0000
0000
,
0012
1003
0012
1003
,
0210
0000
1000
0000
0310
0100
0010
0000
,
0102
1003
0102
1003
,
2001
0000
0000
0000
0010
0000
0000
0000
3001
0100
0000
0100
0001
0000
0000
0000
,
1200
0310
1200
0310
,
1000
0001
1000
0000
0010
0010
1001
0000
,
0100
0001
0100
0001
1000
0010
1000
0010
,
0100
0000
0001
0000
0010
0100
1001
0000
,
0100
0010
0001
0010
0001
1000
0100
1000
,
0000
0001
0010
0100
1000
1000
0101
0000
,
1000
0010
1000
0010
0100
0001
0010
0001
,
0010
0000
0100
0000
1000
0001
0110
1000
,
0001
0000
1000
0000
0100
0010
0001
1000
,
0000
0000
0010
0000
0100
0000
0001
0000
0000
0010
0000
0000
0100
0000
0000
0100
0000
0000
1001
0000
0000
0000
0000
0000
,
1010
0000
0101
0000
0110
0000
0001
0100
,
1000
0000
0101
0000
1000
1000
0110
0000
,
0011
0000
1100
0000
0101
0000
1000
0010
,
0001
0010
1000
0100
0110
0000
1001
0000
,
1100
0000
0101
0000
0001
0010
0100
1000
,
0001
0000
0100
0010
0100
0100
1001
0000
,
0010
0100
1000
0001
0010
0100
0010
0001
,
0000
1000
0001
0001
1000
0010
0110
0000
,
0201
1000
0010
1000
,
0301
0100
0000
0001
0100
0000
0110
0000
,
1000
0010
1000
0000
0010
1000
0010
0000
,
0100
0000
0100
0000
0010
0000
0100
0000
0000
0000
0001
0000
1000
0100
0000
0000
,
0021
1000
0001
1000
,
0130
0010
0000
0100
0010
0000
1000
0000
,
0001
0100
0001
0000
0100
0001
0100
0000
,
0010
1000
0001
2002
0000
0000
0000
0000
,
3003
0000
0000
0000
;

//---------------dance-single - ----------------
#NOTEDATA:;
#CHARTNAME:EXPERT;
#CHARTHASH:4241566262;
#STEPSTYPE:dance-single;
#BANNER:;
#DESCRIPTION:;
#CHARTSTYLE:;
#DIFFICULTY:Hard;
#METER:15;
#METERF:15.000000;
#LASTSECONDHINT:155.275467;
#RADARVALUES:0.595798,0.536765,0.288235,0.076471,0.670588,709.000000,660.000000,49.000000,13.000000,0.000000,0.000000,0.000000,0.000000,0.000000,0.595798,0.536765,0.288235,0.076471,0.670588,709.000000,660.000000,49.000000,13.000000,0.000000,0.000000,0.000000,0.000000,0.000000;
#CREDIT:YonabearCWY;
#NOTES:
0000
0000
0000
0000
0000
0000
0000
0000
0000
0000
1000
0001
1000
0000
0010
0100
,
0000
0010
0000
1000
0001
0000
0001
1000
0000
0100
0000
1000
0100
0000
0010
0000
,
0001
1000
0000
0000
0001
1000
0000
0000
0100
0010
0000
0010
0100
0000
0010
0000
,
1000
0000
0100
0010
0100
0000
0010
0000
0001
0100
0000
0100
0001
0000
1000
0000
,
0010
1000
0000
1000
0100
1000
0100
0000
0010
0000
0001
1000
0001
0000
0100
0010
,
0000
1000
0000
0010
0100
0000
0001
1000
0000
0100
0000
1000
0100
0010
0001
0000
,
0010
0100
0000
0000
1001
0000
0000
0000
0100
0010
0000
0010
0100
0000
0001
0000
,
0010
0000
0100
1000
0100
0000
0010
0000
0100
1000
0000
1000
0001
0000
0100
0000
,
1100
0000
1100
0000
0001
1000
0000
0000
0100
0001
0000
0001
0100
0000
0110
0000
,
0010
1000
0010
1000
0000
0000
0000
0000
0100
0001
0100
0001
0000
0000
0000
0000
,
0010
0100
0010
0100
0000
1000
0001
1000
0000
0000
0010
0000
0100
0001
0000
0000
,
0010
0100
0010
0100
0000
0000
0000
0000
1000
0001
1000
0001
0000
0000
0000
0000
,
0010
1000
0010
1000
0000
0001
0100
0001
0000
0000
1000
0000
0100
0010
0000
0010
,
0001
1000
0001
1000
0000
0000
0000
0000
0010
0001
0010
0001
0000
0000
0000
0000
,
0100
1000
0100
1000
0000
0010
0100
0001
0100
0000
0010
0000
1000
0001
0000
0000
,
0001
0010
0000
0010
0100
0000
1000
0000
0010
1000
0000
1000
0001
0000
0100
0000
,
0010
0000
0000
0000
1000
0000
0000
0000
0010
0000
0000
0000
0100
0000
0000
0000
0000
0000
0001
0000
0000
0000
0000
0000
1000
0000
0000
0000
0100
0000
0000
0000
0010
0000
0000
0000
0001
0000
0000
1000
0000
0000
0000
0000
0000
0000
0000
0000
,
1000
0000
0000
0001
0000
0000
1000
0000
0000
0001
0000
0000
0010
0000
0100
1000
0000
0100
1000
0000
0000
1001
0000
0000
,
0100
0000
0000
0001
0000
0000
0010
0000
0000
0001
0000
0000
1000
0000
0001
0100
0000
0001
0100
0000
0000
0110
0000
0000
,
1000
0000
0000
0100
0000
0000
0010
0000
0000
0100
0000
0000
0010
0000
0001
1000
0000
0001
1000
0000
0100
0010
0000
0000
,
0001
0000
0000
0100
0000
0000
0010
0000
0000
1000
0000
0000
0100
0000
1000
0001
0000
1000
0001
0000
0010
0100
0000
0000
,
1000
0000
0010
1000
0010
1000
0010
0000
0100
0000
0001
0010
0000
0010
0001
0000
,
0100
0000
0010
0100
0010
0100
0010
0000
1000
0100
0000
0100
0010
0000
0001
0000
,
0100
0000
0001
1000
0001
1000
0001
0000
0010
0100
0000
0100
1000
0000
0010
0000
,
0100
0000
0001
1000
0001
1000
0001
1000
0100
0000
0010
0001
0010
0000
0100
1000
,
0000
0001
0000
1000
0010
0000
0100
0010
0000
0100
0000
0001
1000
0000
0010
0000
,
0100
0010
0000
0000
0100
0010
0000
0000
0001
1000
0000
1000
0001
0000
0110
0000
,
1000
0000
0001
0010
0001
0000
0100
0000
0010
1000
0000
1000
0100
0000
0010
0000
,
0001
0100
0000
0100
0010
0000
1000
0000
0001
0000
0010
0100
0010
0000
0100
1000
,
0000
0100
0000
0010
0001
0000
1000
0001
0000
0010
0000
0001
0100
0000
0010
0000
,
1000
0001
0000
0000
0110
0000
0000
0000
0001
1000
0000
1000
0100
0000
1000
0000
,
0010
0000
0100
0001
0100
0000
0001
0000
0010
0100
0000
0100
1000
0100
1000
0000
,
1001
0000
1001
0000
0100
0010
0000
0010
0100
0000
1001
0000
0010
0100
0010
0000
,
1000
0000
0001
0000
0010
0000
0001
0000
0100
0001
0100
0001
0100
1000
0100
0000
,
0010
0000
1000
0000
0001
0010
1000
0000
0000
0000
0100
0000
0001
1000
0000
0000
,
0100
0000
0010
0000
1000
0000
0100
0000
0010
0001
0010
0001
0010
1000
0010
0000
,
0001
0000
1000
0000
0001
0100
1000
0000
0000
0000
0010
0000
0001
1000
0000
0000
,
0100
0010
0000
0010
0001
0000
0000
0000
1000
0100
1000
0100
0001
0100
0001
0000
,
0100
1000
0000
1000
0010
0000
0000
0000
0001
1000
0001
0000
0100
0010
0000
0000
,
1000
0001
1000
0001
0000
0000
0010
0000
0100
1000
0100
1000
0000
0100
0010
0000
,
0001
1000
0000
1000
0001
0000
0100
0001
0010
0000
0001
0000
1000
0001
0000
0000
,
2100
0000
3001
0100
1200
0000
0301
0010
,
0210
0000
0000
0000
0001
0000
0000
0000
1300
0001
0000
0001
1000
0000
0000
0000
,
0012
0000
1003
0010
0021
0000
0130
0010
,
1020
0000
0000
0000
0130
0000
0001
0000
1000
0001
0000
0001
0010
0001
0000
0000
,
2100
0000
3001
0100
1200
0000
1300
0100
,
0010
0000
0100
0000
0100
0000
0001
1000
0001
1000
0000
0100
0010
0000
0000
0000
,
0012
0000
1003
0010
0021
0000
0130
0010
,
1000
0000
1000
0000
1000
0000
0000
0001
0100
0001
0100
0000
0120
0000
0000
0000
,
1030
0000
0100
0000
1000
0000
0100
0000
0010
0000
0100
1000
0000
1000
0001
0000
,
0001
0000
0000
0010
0000
0000
0000
0000
0000
0010
0000
0000
0100
0000
0000
0000
0000
0000
0100
0000
0000
0000
1000
0000
0000
0000
0100
0000
0000
0000
0010
0000
0000
0001
0000
0000
0010
0000
0000
0001
0000
0000
0010
0000
0000
0001
0000
0000
,
1000
0000
0101
0000
0010
1000
0100
0001
,
0100
0000
1010
0100
0001
0110
1001
0000
,
0010
0000
0100
0000
0010
0000
0100
0000
1000
0000
0001
0010
0000
0010
0100
0000
,
0100
0000
0000
1000
0000
0000
0000
0000
0000
1000
0000
0000
0001
0000
0000
0000
0000
0000
1000
0000
0000
0000
0010
0000
0000
0000
0100
0000
0000
0000
0001
0000
0000
0010
0000
0000
0001
0000
0000
0010
0000
0000
0001
0000
0000
0010
0000
0000
,
0100
0000
1000
0000
0001
0000
1000
0000
0100
0000
0010
0000
0001
0000
1000
0010
,
0100
0000
0010
0000
0100
0000
0001
0000
0000
0100
0000
0000
0010
0000
0000
0010
0000
0000
1001
0000
0000
0000
0000
0000
,
0101
0000
1010
0000
0110
0001
1000
0110
,
1001
0000
0010
0100
1100
1100
1001
0000
,
0011
0000
0110
0000
1000
0100
0010
0101
,
0110
0000
1000
1000
0110
0110
1001
0000
,
0001
0010
0000
0010
0100
0000
0000
1000
0000
0100
0010
0000
0001
0000
1000
0000
,
0010
0000
0100
0001
0110
0110
1002
0000
,
1003
0010
0000
0010
0100
0000
0000
0001
0000
1000
0010
0000
0100
0000
0001
0010
,
0001
1000
0100
0001
0100
1000
0210
0000
,
0301
0100
0000
0100
0001
0000
0001
0010
0000
0010
0100
0000
1000
0000
0001
0000
,
1000
0100
0000
0000
1000
0100
0000
0000
0001
0100
0000
0100
0001
0000
1000
0000
,
0010
1000
0010
1000
0000
0000
0000
0000
0010
0001
0010
0001
0000
0000
0100
0001
,
0000
0010
0000
0001
1000
0000
0010
0100
0010
0000
1000
0000
1001
0000
0000
0000
,
1000
0100
0000
0100
0010
0000
0010
0001
0000
0001
1000
0000
0100
0000
0010
0000
,
0100
1000
0000
0000
0100
1000
0000
0000
0001
1000
0000
1000
0001
0000
0010
0000
,
0100
1000
0100
1000
0000
0000
0000
0000
0100
0001
0100
0001
0000
0000
1000
0100
,
0000
1000
0000
0001
0100
0000
0010
0000
1000
0000
1000
0000
0110
0000
0000
0000
,
1001
0000
0000
0000
;

//---------------dance-single - ----------------
#NOTEDATA:;
#CHARTNAME:BEGINNER;
#CHARTHASH:861142550;
#STEPSTYPE:dance-single;
#BANNER:;
#DESCRIPTION:;
#CHARTSTYLE:;
#DIFFICULTY:Beginner;
#METER:3;
#METERF:3.000000;
#LASTSECONDHINT:10.050000;
#RADARVALUES:0.146218,0.190588,0.176471,0.000000,0.000000,174.000000,144.000000,30.000000,0.000000,0.000000,0.000000,0.000000,0.000000,0.000000,0.146218,0.190588,0.176471,0.000000,0.000000,174.000000,144.000000,30.000000,0.000000,0.000000,0.000000,0.000000,0.000000,0.000000;
#CREDIT:YonabearCWY;
#NOTES:
// measure 0
0000
0000
0000
0000
,  // measure 1
1000
0000
1000
0000
,  // measure 2
0001
0000
0000
0000
,  // measure 3
0001
0000
0001
0000
,  // measure 4
1000
0000
0000
0000
,  // measure 5
1000
0000
1000
0000
,  // measure 6
0001
0000
0000
0000
,  // measure 7
0001
0000
0001
0000
,  // measure 8
1001
0000
0000
0100
,  // measure 9
0110
0000
0110
0000
,  // measure 10
1001
0000
0000
0000
,  // measure 11
1001
0000
1001
0000
,  // measure 12
0110
0000
0000
0000
,  // measure 13
1100
0000
1100
0000
,  // measure 14
0011
0000
0000
0000
,  // measure 15
0011
0000
0011
0000
,  // measure 16
1100
0000
0000
0000
,  // measure 17
0001
0001
0001
0000
,  // measure 18
0010
0010
0010
0000
,  // measure 19
0100
0100
0100
0000
,  // measure 20
1000
1000
1000
0000
,  // measure 21
0100
0100
0100
0000
,  // measure 22
0010
0010
0010
0000
,  // measure 23
0001
0001
0001
0000
,  // measure 24
1000
1000
1000
0000
,  // measure 25
0001
0000
0001
0000
,  // measure 26
1000
0000
0000
0000
,  // measure 27
0100
0000
0100
0000
,  // measure 28
0010
0000
0000
0000
,  // measure 29
1000
0000
1000
0000
,  // measure 30
0001
0000
0000
0000
,  // measure 31
0010
0000
0010
0000
,  // measure 32
0100
0000
0000
0000
,  // measure 33
1000
0010
1000
0000
,  // measure 34
0001
0000
0000
0000
,  // measure 35
0001
0100
0001
0000
,  // measure 36
1000
0000
0000
0000
,  // measure 37
0100
0010
0100
0000
,  // measure 38
0010
0000
0000
0000
,  // measure 39
0010
0100
0010
0000
,  // measure 40
0100
0000
0000
0000
,  // measure 41
1001
0000
1001
0000
,  // measure 42
0110
0000
0000
0000
,  // measure 43
0110
0000
0110
0000
,  // measure 44
1001
0000
0000
0000
,  // measure 45
1100
0000
1100
0000
,  // measure 46
0011
0000
0000
0000
,  // measure 47
0011
0000
0011
0000
,  // measure 48
1100
0000
0000
0010
,  // measure 49
1001
0010
0100
0000
,  // measure 50
0100
0000
0100
0000
,  // measure 51
1001
0100
0010
0000
,  // measure 52
0010
0000
0010
0000
,  // measure 53
0110
1000
0001
0000
,  // measure 54
0001
0000
0001
0000
,  // measure 55
0110
0001
1000
0000
,  // measure 56
1000
0000
1000
0000
,  // measure 57
0001
0001
0001
0000
,  // measure 58
0001
0000
0000
0000
,  // measure 59
1000
1000
1000
0000
,  // measure 60
1000
0000
0000
0000
,  // measure 61
0010
0010
0010
0000
,  // measure 62
0010
0000
0000
0000
,  // measure 63
0100
0100
0100
0000
,  // measure 64
0100
0000
0000
0000
,  // measure 65
0010
0010
0010
0010
,  // measure 66
0010
0000
0010
0000
,  // measure 67
0010
0000
0010
0000
,  // measure 68
0100
0000
0000
0000
,  // measure 69
0100
0100
0100
0100
,  // measure 70
0100
0000
0100
0000
,  // measure 71
0100
0000
0100
0000
,  // measure 72
1001
0000
0000
0000
;
