#TITLE:Click Again;
#SUBTITLE:;
#ARTIST:dj REMO-CON;
#TITLETRANSLIT:;
#SUBTITLETRANSLIT:;
#ARTISTTRANSLIT:;
#GENRE:CLICK HOUSE;
#CREDIT:YonabearCWY;
#BANNER:Click Again.png;
#BACKGROUND:Click Again-bg.png;
#LYRICSPATH:;
#CDTITLE:Beatmania IIDX.png;
#MUSIC:Click Again.ogg;
#OFFSET:-0.080000;
#SAMPLESTART:28.097460;
#SAMPLELENGTH:15.000000;
#SELECTABLE:YES;
#BPMS:0.000000=137.000000
;
#STOPS:2.750000=0.440000,
5.750000=0.440000,
8.750000=0.440000,
12.000000=0.424000,
26.000000=0.424000,
56.500000=0.440000,
140.750000=0.440000,
143.750000=0.440000,
146.750000=0.440000,
182.000000=0.440000,
188.750000=0.440000,
195.750000=0.440000
;
#BGCHANGES:-0.500=Click Again.mp4=1.000=1=0=0=StretchNoLoop==CrossFade==,
245.000=Click Again-bg.png=1.000=0=0=1=====,
99999.000=-nosongbg-=1.000=0=0=0=StretchNoLoop====,
99999=-nosongbg-=1.000=0=0=0 // don't automatically add -songbackground-
;
#KEYSOUNDS:;
#ATTACKS:;

//---------------dance-single - ----------------
#NOTES:
     dance-single:
     BASIC:
     Easy:
     7:
     0.290951,0.378110,0.380767,0.212521,0.004428,230.000000,187.000000,43.000000,24.000000,0.000000,0.000000,0.290951,0.378110,0.380767,0.212521,0.004428,230.000000,187.000000,43.000000,24.000000,0.000000,0.000000:
0000
0000
0000
0000
,
0000
0000
0000
0000
,
0000
0000
0000
0000
,
0000
1001
0010
0010
,
0000
0110
0200
0301
,
0000
1001
0100
0100
,
0000
0110
1001
0000
,
1001
1000
1000
0000
,
1001
0002
0103
0000
,
0110
0010
0010
0000
,
0110
0100
0100
0001
,
0010
0100
1000
0000
,
0001
1000
0100
0010
,
0001
1000
0010
0000
,
0220
0000
0000
0000
0000
0000
0000
0000
0000
0000
0000
0000
0000
0000
0000
0000
0000
0000
0000
0000
0000
0000
0000
0000
0000
0330
0000
0000
0000
0000
0000
0000
0000
0000
0000
0000
0000
0000
0000
0000
0000
0000
0000
0000
0000
0000
0000
0000
0000
0000
0000
0000
0000
0000
0000
0000
0000
0000
0000
0000
0000
0000
0000
0000
0000
0000
0000
0000
0000
0000
0000
0000
0000
0000
0000
0000
0000
0000
0000
0000
0000
0000
0000
0000
0000
0000
0000
0000
0000
0000
0000
0000
0000
0000
0000
0000
0001
0000
0000
0000
0000
0000
0000
0000
0000
0000
0000
0000
0000
0000
0000
0000
0000
0000
0000
0000
0000
0000
0000
0000
0000
0000
0000
0000
0000
0000
0000
0000
0000
0000
0000
0000
0000
0000
0000
0000
0000
0000
0000
0000
0000
0000
0000
0000
1100
0000
0000
0000
0000
0000
0000
0000
0000
0000
0000
0000
0000
0000
0000
0000
0000
0000
0000
0000
0000
0000
0000
0000
0000
0000
0000
0000
0000
0000
0000
0000
0000
0000
0000
0000
0000
0000
0000
0000
0000
0000
0000
0000
0000
0000
0000
0000
,
0010
0001
1000
0101
,
0010
0100
1000
0101
,
0010
1000
0001
1100
,
0010
0100
0001
0001
,
0001
0001
0000
1000
,
1000
1000
0010
0010
,
0010
0010
0000
0100
,
0100
0100
2001
0000
,
3010
0010
0000
1000
,
1001
1001
0120
0000
,
1030
1000
0000
0100
,
0110
1001
0010
0010
,
0010
0110
0100
0100
,
0100
0110
0001
0001
,
0001
1001
1000
1000
,
1000
1001
0220
0000
,
0330
0000
2002
0000
,
3003
0000
2200
0000
,
3300
0000
0022
0000
,
0033
0000
1001
0010
,
0100
1001
0100
0010
,
1001
0100
0010
1001
,
0110
1001
0000
0100
,
0100
0200
0300
0010
,
0010
0020
0030
1000
,
1000
2000
3000
0001
,
0001
0002
0003
1000
,
1000
1000
1010
0001
,
0001
0001
0011
0100
,
0100
0100
0110
1000
,
0001
2000
3000
0002
,
1003
0010
1000
0200
,
0320
0030
0100
1000
,
0001
0100
0020
2030
,
3000
0001
0001
0001
,
0000
1000
1000
1000
,
0000
0010
0010
0010
,
0000
0100
0100
0100
,
0110
0000
0010
0000
,
0010
0000
1000
0000
,
1000
0000
0001
0000
,
0001
0110
0110
0110
,
0110
1000
0001
0010
,
1000
0010
0001
1000
,
0100
0001
0100
1000
,
0001
0100
0010
1000
,
1001
0000
0000
0000
;

//---------------dance-single - ----------------
#NOTES:
     dance-single:
     DIFFICULT:
     Medium:
     11:
     0.504737,0.594173,0.389622,0.256796,0.221376,399.000000,355.000000,44.000000,29.000000,0.000000,0.000000,0.504737,0.594173,0.389622,0.256796,0.221376,399.000000,355.000000,44.000000,29.000000,0.000000,0.000000:
0000
0000
0000
0000
,
0000
0000
0000
0000
,
0000
0000
0000
0000
,
0000
0000
1001
0000
0010
0100
0010
0000
,
1000
0001
0011
0000
0100
0100
0100
0000
,
0010
0000
1001
0000
0100
0010
0100
0000
,
1000
0010
0100
1000
0110
0000
0001
0000
,
1010
0000
0100
0001
0100
0000
0001
1000
,
1100
0000
0010
0010
0010
0000
0001
0000
,
0110
0000
1000
0001
1000
0000
0001
0010
,
0110
0000
1000
0001
2001
0000
3100
1000
,
0100
0000
1000
0000
0101
0000
0010
0100
,
0010
0100
0001
0000
1010
0000
0100
0001
,
0100
0000
0010
0000
1001
0000
0100
0010
,
2002
0000
0000
0000
0000
0000
0000
0000
0000
0000
0000
0000
0000
0000
0000
0000
0000
0000
0000
0000
0000
0000
0000
0000
0000
3003
0000
0000
0000
0000
0000
0000
0000
0000
0000
0000
0000
0000
0000
0000
0000
0000
0000
0000
0000
0000
0000
0000
0000
0000
0000
0000
0000
0000
0000
0000
0000
0000
0000
0000
0000
0000
0000
0000
0000
0000
0000
0000
0000
0000
0000
0000
0000
0000
0000
0000
0000
0000
0000
0000
0000
0000
0000
0000
0000
0000
0000
0000
0000
0000
0000
0000
0000
0000
0000
0000
0001
0000
0000
0000
0000
0000
0000
0000
0000
0000
0000
0000
0000
0000
0000
0000
0000
0000
0000
0000
0000
0000
0000
0000
1000
0000
0000
0000
0000
0000
0000
0000
0000
0000
0000
0000
0000
0000
0000
0000
0000
0000
0000
0000
0000
0000
0000
0000
0100
0000
0000
0000
0000
0000
0000
0000
0000
0000
0000
0000
0000
0000
0000
0000
0000
0000
0000
0000
0000
0000
0000
0000
1000
0000
0000
0000
0000
0000
0000
0000
0000
0000
0000
0000
0000
0000
0000
0000
0000
0000
0000
0000
0000
0000
0000
0000
,
0100
0000
0011
0000
0010
0100
0010
0100
,
1000
1000
1000
0000
0001
0100
0001
0100
,
0010
0000
1100
0000
0010
0001
0010
0001
,
1000
1000
2000
0000
3001
1000
0100
0001
,
0100
0001
0100
1000
0001
0010
1000
0010
,
1000
0010
0001
0000
1000
0001
0010
0100
,
0010
0100
0010
0001
1000
0100
0010
0100
,
0010
0100
2000
0000
3010
0000
1001
0000
,
0010
0010
0010
0000
0001
1000
0100
0000
,
0010
0010
0010
0000
0001
0010
0100
1000
,
0001
0001
0001
0000
1000
0100
0001
0100
,
1000
0001
0010
0001
0000
0000
0110
0000
0000
1000
0000
0000
,
0110
0000
0000
0001
0000
0000
1000
0000
0100
0000
0000
0000
0011
0000
0000
0000
,
0100
0000
0000
1000
0000
0000
0001
0000
1000
0000
0000
0000
0110
0000
0000
0000
,
0001
0000
0000
0100
0000
0000
0010
0000
1000
0000
0000
0000
0101
0000
0000
0000
,
1000
0100
0010
0001
2000
0000
0001
0000
,
0010
0000
0000
0001
0000
3002
0000
0000
0023
0000
0000
0000
0001
0000
0000
0000
,
0100
0000
0000
0001
0000
0032
0000
0000
0203
0000
0000
0000
0001
0000
0000
0000
,
1000
0000
0000
0010
0000
0320
0000
0000
1030
0000
0001
0000
1000
0000
0000
0000
,
0001
0100
1000
0000
0100
0000
1001
0000
,
1000
0020
1030
0000
0101
0000
0001
2000
,
3001
0000
1010
0000
0100
0020
0031
0000
,
1001
0000
0110
0000
1000
0001
1000
1000
,
1000
0000
0000
0000
0000
0000
0001
0000
0010
0000
0100
0000
1000
0000
0100
0000
0010
0000
0001
0000
0000
0001
0000
0000
,
0001
0000
0000
0000
0000
0000
1000
0000
0100
0000
0010
0000
0001
0000
0010
0000
0100
0000
1000
0000
0000
1000
0000
0000
,
1010
0000
0000
0000
0000
0000
0010
0000
0100
0000
0001
0000
0100
0000
0000
0001
0000
0000
0010
0000
0000
0010
0000
0000
,
0011
0000
0000
0000
0000
0000
0001
0000
1000
0000
0100
0000
1000
0000
0000
0100
0000
0000
0010
0000
0000
0001
0000
0000
,
1001
0000
0000
0000
0000
0000
0001
0000
1000
0000
0100
0000
0010
0000
0001
0000
0100
0000
0010
0000
0000
1000
0000
0000
,
1001
0000
0000
0000
0000
0000
0001
0000
1000
0000
0100
0000
1000
0000
0010
0000
0100
0000
0010
0000
0000
1000
0000
0000
,
1100
0000
0000
0000
0000
0000
0010
0000
1000
0000
0100
0000
0010
0000
0001
0000
0100
0000
0010
0000
0000
0100
0000
0000
,
0101
0000
0001
1000
2001
0000
3020
0000
,
1030
1000
0100
0100
0012
0000
2003
0000
,
3001
0102
2003
0000
3020
0000
0130
0100
,
0001
1000
0210
0000
0302
0000
1003
2001
,
3001
0000
0000
1000
0010
0000
0000
0000
0100
0000
0001
0000
0100
0000
0010
0000
,
1000
0000
0000
0001
0010
0000
0000
0000
0100
0000
1000
0000
0100
0000
0010
0000
,
0001
0000
0000
1000
0010
0000
0000
0000
0100
0000
0001
0000
0100
0000
0001
0000
,
0010
0000
0000
0000
0000
0000
0000
0000
0000
0100
0000
0000
1000
0000
0000
0000
0000
0000
0000
0000
0000
0000
0000
0000
0001
0000
0000
0000
1000
0000
0000
0000
0001
0000
0000
0000
0010
0000
0000
0000
0000
0000
0100
0000
0000
0000
0000
0000
,
2100
0000
0000
0000
0000
0100
0000
0000
0000
0000
0000
0000
0000
0001
0000
0000
,
3002
0000
0000
0000
0000
1000
0000
0000
0000
0000
0000
0000
0000
0100
0000
0000
,
0023
0001
1000
0001
,
0230
1000
0020
0330
,
1001
0000
0010
0100
1000
0000
0100
0000
,
0011
0000
1000
0100
0001
0000
1100
0000
,
0101
0000
0010
1000
0001
0000
0110
0000
,
1001
0000
0000
0000
0000
0000
1000
0000
0000
0100
0000
0000
0010
0000
0001
0000
1000
0000
0001
0000
0010
0000
0100
0000
,
1000
0000
0000
0000
;

//---------------dance-single - ----------------
#NOTES:
     dance-single:
     EXPERT:
     Hard:
     13:
     0.599613,0.702205,0.141681,0.185956,0.624281,474.000000,458.000000,16.000000,21.000000,0.000000,0.000000,0.599613,0.702205,0.141681,0.185956,0.624281,474.000000,458.000000,16.000000,21.000000,0.000000,0.000000:
0000
0000
0000
0000
,
0000
0000
0000
0000
,
0000
0000
0000
0000
,
0000
0000
0000
1000
0001
0000
0000
0000
0100
0000
0001
0000
0010
0000
0000
0000
,
0100
0000
1000
0000
0001
0000
0010
0000
0000
0001
1000
0000
0020
0000
0000
0000
,
0130
0000
0001
0000
1000
0000
0000
0000
0001
0000
1000
0020
0000
0000
0000
0000
,
0130
0000
0001
0000
0010
0000
0100
0000
1001
0000
0000
0000
0010
0000
0000
1000
,
0001
0000
0010
0100
1000
0000
0001
0100
,
0001
0000
1000
0000
0010
0000
0100
0010
0100
0000
0000
0000
0001
0000
1000
0000
,
0010
0000
0000
0000
0100
0000
0001
0010
0100
0000
1000
0000
0001
0000
1000
0000
,
0100
0000
0010
0000
0001
0000
1000
0010
1000
0000
0001
0000
0101
0000
0000
0001
,
1000
0000
0010
1000
0100
0000
0010
0001
,
1000
0000
0010
0000
0100
0001
1000
0000
0010
0000
0000
0000
1000
0000
0001
0000
,
0010
0000
0000
0000
0100
0000
1000
0001
0000
0000
0010
0000
0100
0000
1000
0000
,
2002
0000
0000
0000
0000
0000
0000
0000
0000
0000
0000
0000
0000
0000
0000
0000
0000
0000
0000
0000
0000
0000
0000
0000
0000
3003
0000
0000
0000
0000
0000
0000
0000
0000
0000
0000
0000
0000
0000
0000
0000
0000
0000
0000
0000
0000
0000
0000
0000
0000
0000
0000
0000
0000
0000
0000
0000
0000
0000
0000
0000
0000
0000
0000
0000
0000
0000
0000
0000
0000
0000
0000
0000
0000
0000
0000
0000
0000
0000
0000
0000
0000
0000
0000
0000
0000
0000
0000
0000
0000
0000
0000
0000
0000
0000
0000
0010
0000
0000
0000
0000
0000
0000
0000
0000
0000
0000
0000
0000
0000
0000
0000
0000
0000
0000
0000
0000
0000
0000
0000
1000
0000
0000
0000
0000
0000
0000
0000
0000
0000
0000
0000
0000
0000
0000
0000
0000
0000
0000
0000
0000
0000
0000
0000
0000
0000
0000
0000
0000
0000
0000
0000
0000
0000
0000
0000
0000
0000
0000
0000
0000
0000
0000
0000
0000
0000
0000
0000
0100
0000
0000
0000
0000
0000
0000
0000
0000
0000
0000
0000
0000
0000
0000
0000
0000
0000
0000
0000
0000
0000
0000
0000
,
0010
0001
1000
0010
0000
0100
0001
0000
,
0010
0000
0001
1000
0001
0000
0100
0000
0010
0000
0100
0000
0000
0000
0001
0000
,
1000
0100
1000
0010
0000
0100
0001
0010
,
0100
0000
1000
0100
1000
0200
0000
0000
0310
0000
0001
0000
1000
0000
0010
0000
,
0001
0010
1000
0001
0100
1000
0001
0010
,
1000
0010
1001
0000
0100
0010
0001
1000
,
0001
0010
0100
0001
0100
0010
1000
0010
,
0100
0001
1002
0000
0103
0010
0010
0100
,
0010
0000
0000
0100
0001
0000
0000
0000
0001
0000
1000
0010
1000
0000
0001
0000
,
1000
0000
1000
0000
0001
1000
0000
0000
0100
0010
0000
0010
0100
0000
1000
0000
,
0001
0000
1000
0002
0000
0000
0000
0000
0003
0001
1000
0001
1000
0000
0010
0000
,
1000
0000
0100
0000
0010
0000
1002
0000
0000
0000
0000
0000
0013
0000
0000
0001
0000
0000
1000
0000
0000
0001
0000
0000
,
0010
0000
0100
2000
0000
0000
0000
0000
3100
0000
0010
0000
0001
0000
0010
0000
,
1000
0000
0010
0002
0000
0000
0000
0000
0013
0000
1000
0000
0001
0000
0100
0000
,
1000
0000
0001
0100
0002
0000
0000
0000
0103
0000
1000
0000
0100
0000
0010
0000
,
0100
0000
0001
1000
0001
1000
0001
1000
0200
0000
0000
0000
0001
0000
0000
0000
,
1000
0000
0000
0010
0000
0320
0000
0000
0032
0000
0000
0000
1000
0000
0000
0000
,
0010
0000
0000
0100
0000
0203
0000
0000
0320
0000
0000
0000
0001
0000
0000
0000
,
0100
0000
0000
1000
0000
2030
0000
0000
3002
0000
0000
0000
1000
0000
0000
0000
,
0103
0000
0100
0001
0000
0002
0000
0000
0013
0000
0100
0000
1000
0000
0001
0000
,
0010
0000
0001
1000
0100
0000
1000
0000
0010
0000
0001
0000
0010
0000
0100
0010
,
1000
0000
0010
0000
0001
0000
0010
0000
0100
0000
0001
1000
0100
0000
0000
0010
,
0001
0000
0000
1000
0001
0000
0000
0100
0001
0100
0000
0001
1000
0000
1000
0000
,
1000
0000
0000
0000
0000
0000
0100
0000
0001
0000
0100
0000
0010
0000
0001
0000
0010
0000
0100
0000
0000
1000
0000
0000
,
0001
0000
0000
0010
0000
0000
0001
0000
0010
0000
0100
0000
1000
0000
0001
0000
0010
0000
0100
0000
0000
0100
0000
0000
,
0100
0000
0000
0000
0000
0000
0000
0000
0000
0000
0000
0000
1000
0000
0000
0000
0010
0000
0000
0000
0001
0000
0000
0000
0010
0000
0000
0000
0100
0000
0000
0000
0010
0000
0000
0000
1000
0000
0000
0000
0000
0000
0000
0000
0000
0001
0000
0000
,
0100
0000
0000
0000
0000
0000
0010
0000
1000
0000
0100
0000
0010
0000
0000
0010
0000
0000
0001
0000
0000
1000
0000
0000
,
0100
0000
0000
0010
0000
0000
0100
0000
1000
0000
0001
0000
1000
0000
0100
0000
0010
0000
0100
0000
0000
1000
0000
0000
,
0001
0000
0000
0010
0000
0000
0001
0000
0010
0000
1000
0000
0010
0000
0001
0000
0100
0000
0010
0000
0000
0100
0000
0000
,
0001
0000
0000
0000
0000
0000
0010
0000
0000
0000
0000
0000
0100
0000
0000
0000
1000
0000
0000
0000
0100
0000
0000
0000
0001
0000
0000
0000
0100
0000
0000
0000
0010
0000
0000
0000
0001
0000
0000
0000
0000
0000
0000
0000
0000
0001
0000
0000
,
1000
0000
0001
0010
0001
0000
1000
0100
0010
0000
0000
0001
0100
0001
0100
0001
,
0100
0000
0000
0000
0010
0000
0000
0000
1000
0000
0000
0000
0010
0000
0000
0000
0100
0000
0000
0000
0001
0000
0000
0000
1001
0000
0000
0000
0000
0000
0000
0000
0000
1000
0000
0000
0100
0000
0000
1000
0000
0000
0100
0000
0000
1000
0000
0000
,
0100
0000
0000
0000
0000
0000
0010
0000
0000
0001
0000
0000
0000
0000
0000
0000
0000
0000
0000
0000
0000
1000
0000
0000
0001
0000
0000
1000
0000
0000
0001
0000
0000
1000
0000
0000
0001
0000
0000
0000
0100
0000
0000
0000
0010
0000
0000
0000
,
0100
0000
0000
0000
0001
0000
0000
0000
1000
0000
0000
0000
1100
0000
0000
0000
0000
0000
0000
0000
0000
0001
0000
0000
0100
0000
0000
0001
0000
0000
0100
0000
0000
0001
0000
0000
0100
0000
0000
0000
0000
0000
1000
0000
0000
0001
0000
0000
,
1000
0000
0000
0001
0100
0000
0010
0000
1000
0000
0100
0000
0010
0000
0001
0000
,
1000
0000
0000
0010
0100
0000
0001
0000
1000
0000
0100
0010
0001
0000
1000
0000
,
0001
0000
0000
0000
0000
0000
0000
0000
0000
0010
0000
0000
0100
0000
0000
0000
0000
0000
1000
0000
0000
0100
0000
0000
0010
0000
0000
0000
0000
0000
0001
0000
0000
1000
0000
0000
0001
0000
0000
0000
0010
0000
0000
0000
0100
0000
0000
0000
,
1000
0000
0000
0000
0000
0000
0000
0000
0000
0001
0000
0000
0010
0000
0000
0000
0000
0000
0001
0000
0000
1000
0000
0000
0001
0000
0000
0000
1000
0000
0000
0000
0010
0000
0000
0000
0100
0000
0000
0000
0001
0000
0000
0000
0010
0000
0000
0000
,
0200
0000
0000
0000
0000
1000
0000
0000
0000
0000
0000
0000
0000
0001
0000
0000
,
0000
0000
0000
0000
0000
1000
0000
0000
0000
0000
0000
0000
0000
0001
0000
0000
,
0320
0000
0000
0000
0000
0001
0000
0000
0000
0000
0000
0000
0000
1000
0000
0000
,
0000
0000
0000
0000
0000
0000
0000
0000
0000
0000
0000
0000
0000
0000
0000
0001
0000
0000
0000
0000
0000
0000
0000
0000
0130
0000
0000
0000
0100
0000
0000
0000
0100
0000
0000
0000
0100
0000
0000
0000
0100
0000
0000
0000
0100
0000
0000
0000
,
1001
0000
0000
1000
0010
1000
0000
0000
0110
0000
0000
0001
0010
0001
0000
0000
,
0101
0000
0000
0010
0100
0010
0000
0000
1010
0000
0000
1000
0100
1000
0000
0000
,
0101
0000
0000
0010
1000
0001
0000
0000
0110
0000
0000
1000
0100
0010
0000
0000
,
0011
0000
0000
0000
0000
0000
0000
0000
0000
0001
0000
0000
0100
0000
0000
0010
0000
0000
0000
0000
0000
0000
0000
0000
1000
0000
0000
0000
0001
0000
0000
0000
0010
0000
0000
0000
0100
0000
0000
0000
1000
0000
0000
0000
0001
0000
0000
0000
,
1001
0000
0000
0000
;

//---------------dance-single - ----------------
#NOTES:
     dance-single:
     BEGINNER:
     Beginner:
     4:
     0.156861,0.216063,0.079695,0.000000,0.000000,124.000000,115.000000,9.000000,0.000000,0.000000,0.000000,0.156861,0.216063,0.079695,0.000000,0.000000,124.000000,115.000000,9.000000,0.000000,0.000000,0.000000:
// measure 0
0000
0000
0000
0000
,  // measure 1
0000
0000
0000
0000
,  // measure 2
0000
0000
0000
0000
,  // measure 3
0000
1000
0000
0000
,  // measure 4
0000
0001
0000
1000
,  // measure 5
0000
1000
0000
0000
,  // measure 6
0000
0010
0110
0000
,  // measure 7
0100
0000
0000
0000
,  // measure 8
0001
0000
0001
0000
,  // measure 9
1000
0000
0000
0000
,  // measure 10
1000
0000
0010
0010
,  // measure 11
0010
0000
0000
0100
,  // measure 12
0100
0000
0000
0001
,  // measure 13
0001
0000
0000
1000
,  // measure 14
1001
0000
0010
0010
,  // measure 15
0010
0000
0010
0000
,  // measure 16
0000
0000
0100
0100
,  // measure 17
0100
0000
0100
0000
,  // measure 18
0000
0000
0001
0001
,  // measure 19
0001
0001
0001
0000
,  // measure 20
0000
0000
1000
1000
,  // measure 21
1000
1000
1000
0000
,  // measure 22
0000
0000
0010
0000
,  // measure 23
0010
0000
1000
0000
,  // measure 24
0000
0000
0001
0000
,  // measure 25
0001
0000
0100
0000
,  // measure 26
0000
0000
0010
0010
,  // measure 27
0010
0000
1000
1000
,  // measure 28
1000
0000
0100
0100
,  // measure 29
0100
0000
0010
0010
,  // measure 30
0010
0000
1001
0000
,  // measure 31
0000
0000
1001
0000
,  // measure 32
0000
0000
0110
0000
,  // measure 33
0000
0000
0110
0000
,  // measure 34
0000
0000
1000
0000
,  // measure 35
1000
0000
0001
0000
,  // measure 36
0000
1000
0000
0000
,  // measure 37
0010
0010
0010
0110
,  // measure 38
0000
0100
0100
0000
,  // measure 39
0000
0100
0100
0000
,  // measure 40
0000
0010
0010
0000
,  // measure 41
0000
0010
0010
0000
,  // measure 42
0000
1000
0100
0000
,  // measure 43
0000
0010
0001
0000
,  // measure 44
0000
0010
0100
0000
,  // measure 45
0000
0000
1001
0000
,  // measure 46
0100
0010
0000
0000
,  // measure 47
0100
0000
0000
1000
,  // measure 48
0010
0000
0000
0100
,  // measure 49
0000
0000
0001
0001
,  // measure 50
0001
0000
1000
1000
,  // measure 51
1000
0000
0010
0010
,  // measure 52
0010
0000
0100
0100
,  // measure 53
0100
0000
0000
0000
,  // measure 54
0010
0000
0000
0000
,  // measure 55
0100
0000
0000
0000
,  // measure 56
0010
0000
0000
0000
,  // measure 57
1000
1000
1000
1000
,  // measure 58
1000
0000
0000
0000
,  // measure 59
0001
0001
0001
0001
,  // measure 60
0001
0000
0000
0000
,  // measure 61
1001
0000
0000
0000
;
