#VERSION:0.83;
#TITLE:Chicken;
#SUBTITLE:;
#ARTIST:The Eighties Matchbox B-Line Disaster;
#TITLETRANSLIT:;
#SUBTITLETRANSLIT:;
#ARTISTTRANSLIT:;
#GENRE:PSYCHOBILLY;
#ORIGIN:;
#TAGS:;
#CREDIT:YonabearCWY;
#BANNER:Chicken.png;
#BACKGROUND:Chicken-bg.png;
#PREVIEWVID:;
#JACKET:Chicken-jacket.png;
#CDIMAGE:Chicken-jacket2.png;
#DISCIMAGE:;
#LYRICSPATH:;
#CDTITLE:Hörse Of the Dög.png;
#MUSIC:Chicken.ogg;
#OFFSET:-0.013000;
#SAMPLESTART:19.160000;
#SAMPLELENGTH:15.000000;
#SELECTABLE:YES;
#DISPLAYBPM:190.000000;
#BPMS:0.000000=185.184998
,4.000000=189.423996
,8.000000=189.639008
,12.000000=192.970993
,16.000000=193.350006
,20.000000=191.587997
,24.000000=185.759003
,25.000000=185.138000
,26.000000=182.695007
,27.000000=177.164993
,28.000000=190.880005
,29.000000=195.759003
,30.000000=180.264999
,30.666666=182.007996
,32.000000=182.393997
,33.000000=188.828003
,34.000000=192.591003
,35.000000=190.035995
,36.000000=191.362000
,37.000000=185.160995
,38.000000=196.828995
,39.000000=192.796997
,40.000000=198.414993
,41.000000=197.666000
,42.000000=198.606995
,43.000000=195.281006
,44.000000=189.175003
,45.000000=192.539001
,46.000000=200.794998
,47.000000=195.240997
,48.000000=187.171005
,49.000000=195.108994
,50.000000=203.145996
,51.000000=188.272003
,52.000000=189.647995
,53.000000=192.128006
,54.000000=195.731995
,55.000000=186.697998
,56.000000=189.522995
,57.000000=195.824997
,58.000000=193.809006
,59.000000=197.477005
,60.000000=187.317001
,61.000000=191.783005
,62.000000=194.542007
,63.000000=188.975998
,64.000000=182.128998
,65.000000=198.770996
,66.000000=188.481995
,67.000000=192.860992
,68.000000=180.973007
,69.000000=201.582001
,70.000000=190.350006
,71.000000=194.253006
,72.000000=182.001999
,73.000000=200.949005
,74.000000=185.184998
,75.000000=194.766006
,76.000000=182.925995
,77.000000=194.804993
,78.000000=184.912003
,79.000000=192.063995
,80.000000=182.938004
,81.000000=191.871994
,82.000000=194.332001
,83.000000=196.520004
,84.000000=182.705994
,85.000000=193.951996
,86.000000=188.039993
,87.000000=195.188004
,88.000000=187.561005
,89.000000=205.113998
,90.000000=181.600006
,91.000000=203.031006
,92.000000=183.160004
,93.000000=187.867004
,94.000000=191.095001
,95.000000=189.710999
,96.000000=175.033005
,97.000000=179.160004
,98.000000=191.210007
,99.000000=188.716003
,100.000000=190.388000
,101.000000=185.889999
,102.000000=194.817993
,103.000000=199.563004
,103.666664=167.421997
,104.000000=174.419006
,105.000000=197.653000
,106.000000=192.615997
,107.000000=195.209000
,108.000000=188.149002
,109.000000=192.244003
,110.000000=194.660004
,111.000000=187.037003
,112.000000=187.572998
,113.000000=191.121002
,114.000000=188.630005
,115.000000=189.673004
,116.000000=196.292007
,117.000000=188.248001
,118.000000=186.033997
,119.000000=189.162994
,120.000000=184.876007
,121.000000=187.048996
,122.000000=186.552994
,123.000000=193.574005
,124.000000=188.505997
,125.000000=185.686996
,126.000000=191.667999
,127.000000=190.716003
,128.000000=186.263000
,129.000000=199.417999
,130.000000=182.985001
,131.000000=194.345001
,132.000000=188.556000
,133.000000=196.735001
,134.000000=190.917999
,135.000000=190.841995
,136.000000=189.860992
,137.000000=186.154999
,138.000000=186.263000
,139.000000=196.440002
,140.000000=185.089996
,141.000000=196.306000
,142.000000=190.011002
,143.000000=198.264999
,144.000000=181.817993
,145.000000=193.158997
,146.000000=193.731003
,147.000000=183.960999
,147.666672=206.766998
,149.000000=185.459000
,150.000000=189.610992
,151.000000=180.994995
,152.000000=184.591995
,153.000000=182.255005
,154.000000=185.962006
,155.000000=192.332993
,156.000000=185.304001
,157.000000=178.393997
,158.000000=197.477005
,159.000000=182.186005
,160.000000=175.119003
,161.000000=195.904999
,162.000000=192.281998
,163.000000=185.817993
,164.000000=188.753006
,165.000000=182.417007
,166.000000=181.600006
,167.000000=190.313004
,168.000000=187.158997
,169.000000=189.835999
,170.000000=183.544998
,171.000000=190.123993
,172.000000=178.063995
,173.000000=189.311996
,174.000000=188.938995
,175.000000=179.462006
,176.000000=170.945007
,178.000000=185.710999
,180.000000=186.046997
,181.000000=179.910004
,182.000000=170.934998
,184.000000=179.876007
,186.000000=180.886993
,188.000000=183.983994
,190.000000=179.149002
,191.000000=177.634995
,192.000000=173.244003
,193.000000=179.238007
,194.000000=191.285995
,195.000000=187.610001
,196.000000=205.084000
,197.000000=189.561005
,198.000000=203.764008
,199.000000=174.514008
,200.000000=187.682999
,201.000000=171.910004
,202.000000=179.787003
,203.000000=188.654999
,204.000000=197.408997
,205.000000=187.500000
,206.000000=206.837006
,207.000000=185.089996
,208.000000=177.231003
,209.000000=195.917999
,210.000000=181.302994
,211.000000=195.227997
,212.000000=189.854996
,214.000000=203.822006
,215.000000=192.796997
,216.000000=185.800003
,218.000000=184.130997
,219.000000=184.615005
,220.000000=193.626007
,221.000000=210.126999
,222.000000=187.658005
,223.000000=185.854004
,224.000000=178.570999
,225.000000=180.281006
,226.000000=177.832993
,227.000000=189.535995
,227.666672=195.488998
,229.000000=182.904007
,230.000000=190.727997
,231.000000=182.220993
,232.000000=175.932007
,233.000000=195.360001
,234.000000=192.358994
,235.000000=185.376007
,236.000000=181.783997
,237.000000=193.966003
,238.000000=184.947006
,239.000000=188.815002
,240.000000=181.623001
,241.000000=184.970993
,242.000000=189.610992
,243.000000=183.580002
,244.000000=186.770004
,245.000000=187.585007
,246.000000=196.707993
,247.000000=194.884003
,248.000000=168.184998
,249.000000=188.778000
,250.000000=181.807007
,251.000000=181.783997
,252.000000=181.725998
,253.000000=184.343994
,254.000000=180.100998
,255.000000=184.912003
,256.000000=190.677994
,257.000000=186.214996
,258.000000=191.425995
,259.000000=191.311005
,260.000000=179.104004
,261.000000=184.072998
,262.000000=186.070999
,263.000000=193.016998
,264.000000=184.970993
,265.000000=189.761002
,266.000000=183.194000
,267.000000=180.973007
,268.000000=187.891006
,269.000000=186.951996
,270.000000=185.781998
,271.000000=199.473999
,272.000000=186.589005
,273.000000=192.250000
,274.000000=184.959000
,275.000000=193.431000
,276.000000=185.065994
,277.000000=192.951996
,278.000000=198.621002
,279.000000=190.867996
,280.000000=165.574005
,281.000000=186.660995
,282.000000=176.649002
,282.666656=190.014008
,284.000000=186.322998
,285.000000=174.408005
,286.000000=188.593002
,287.000000=184.548996
,288.000000=181.279999
,289.000000=182.682999
,290.000000=192.925995
,291.000000=186.733994
,292.000000=178.548996
,293.000000=182.796005
,294.000000=194.785004
,294.666656=182.466003
,296.000000=171.714996
,297.000000=188.371002
,298.000000=172.475998
,299.000000=183.873001
,300.000000=185.759003
,301.000000=184.048996
,302.000000=199.688004
,302.666656=177.645996
,303.000000=193.352997
,303.666656=160.160004
,304.000000=184.615005
,305.000000=173.462997
,306.000000=196.720993
,307.000000=189.585999
,308.000000=173.108002
,309.000000=189.822998
,310.000000=180.113007
,311.000000=180.610001
,312.000000=185.878006
,313.000000=176.664993
,314.000000=189.723007
,315.000000=194.371002
,316.000000=183.621994
,318.666656=185.662994
,319.666656=175.078995
,321.000000=181.429001
,322.000000=185.257004
,323.000000=183.416000
,324.000000=195.466003
,325.000000=187.891006
,326.000000=182.289993
,327.000000=202.559998
,328.000000=190.000000
;
#STOPS:;
#DELAYS:;
#WARPS:;
#TIMESIGNATURES:0.000000=4=4
;
#TICKCOUNTS:0.000000=4
;
#COMBOS:0.000000=1
;
#SPEEDS:0.000000=1.000000=0.000000=0
;
#SCROLLS:0.000000=1.000000
;
#LABELS:0.000000=Song Start
;
#BGCHANGES:0.000=Chicken 1.mp4=1.000=1=0=0=StretchNoLoop==CrossFade==,
191.000=Chicken 2.mp4=1.000=0=0=0=StretchNoLoop====,
332.000=Chicken-bg.png=1.000=1=0=1===CrossFade==,
99999.000=-nosongbg-=1.000=0=0=0=StretchNoLoop====,
99999=-nosongbg-=1.000=0=0=0 // don't automatically add -songbackground-
;
#KEYSOUNDS:;
#ATTACKS:
;

//---------------dance-single - ----------------
#NOTEDATA:;
#CHARTNAME:BEGINNER;
#CHARTHASH:2147483647;
#STEPSTYPE:dance-single;
#BANNER:;
#DESCRIPTION:;
#CHARTSTYLE:;
#DIFFICULTY:Beginner;
#METER:5;
#METERF:0.000000;
#LASTSECONDHINT:104.916100;
#RADARVALUES:0.180161,0.342174,0.055638,0.064911,0.000000,136.000000,130.000000,6.000000,7.000000,0.000000,0.000000,0.000000,0.000000,0.000000,0.180161,0.342174,0.055638,0.064911,0.000000,136.000000,130.000000,6.000000,7.000000,0.000000,0.000000,0.000000,0.000000,0.000000;
#CREDIT:YonabearCWY;
#DISPLAYBPM:190.000000;
#NOTES:
0000
0000
0000
0000
,
0000
0000
0000
0000
,
0000
0000
0000
0000
,
0000
0000
0000
0000
,
0000
0000
0000
0000
,
0000
0000
0000
0000
,
1000
0000
1000
0000
,
1000
0000
0001
0000
,
0001
0000
0000
0000
,
0100
0000
0000
0000
,
0010
0000
0000
0000
,
1000
0000
0000
0000
,
0010
0000
0000
0000
,
1000
0000
0000
0000
,
0100
0000
0000
0000
,
1000
0000
0000
0000
,
0001
0000
0001
0000
,
0001
0000
0000
0000
,
1000
0000
1000
0000
,
1000
0000
0000
0000
,
0100
0000
0100
0000
,
0100
0000
0000
0000
,
0010
0000
0010
0000
,
0010
0000
1001
0000
,
0110
0100
0100
0100
,
0100
0000
0010
0000
,
0110
0000
0000
0000
,
1000
0000
0000
0000
,
0001
0000
0000
0000
,
0010
0000
0000
0000
,
1000
0000
1000
0000
,
0010
0000
0010
0000
,
0001
0000
0000
0000
,
0001
0000
0001
0000
,
1000
0000
0000
0000
,
1000
0000
1000
0000
,
0001
0000
0000
0000
,
0100
0000
0100
0000
,
0110
0010
0010
0010
,
0010
0000
0100
0000
,
0010
0000
1000
0000
,
0010
0000
0100
0000
,
0001
0000
1000
0000
,
0100
0000
0001
0000
,
0100
0000
1000
0000
,
0020
0000
0030
0000
,
0100
0000
0001
0000
,
2000
0000
3000
0000
,
0001
0000
0001
0000
,
1000
1000
1000
1000
,
1000
0000
0010
0000
,
0010
0010
0010
0010
,
0010
0000
0100
0000
,
0010
0000
0100
0000
,
0001
0000
1000
0000
,
0010
0000
0100
0000
,
0001
0000
0000
0000
,
1000
0000
0000
0000
,
0001
0000
0000
0000
,
1000
0000
0000
0000
,
0010
0000
0000
0000
,
0100
0000
0000
0000
,
0020
0000
0000
0000
,
1030
0000
1000
0000
,
2000
0000
0000
0000
,
3001
0000
0001
0000
,
0002
0000
0000
0000
,
0013
0000
0010
0000
,
0020
0000
0000
0000
,
0031
0000
0001
0000
,
1001
0000
0000
0000
,
0001
0100
0001
0000
,
1000
0000
1000
0000
,
1000
0010
1000
0000
,
0010
0000
0010
0000
,
0010
0100
0010
0000
,
0100
0000
0001
0000
,
1000
0000
0001
0000
,
0100
0000
0010
0000
,
0100
0000
0010
0000
,
0200
0000
0000
0000
,
0300
0000
0000
0000
,
1001
0000
0000
0000
;

//---------------dance-single - ----------------
#NOTEDATA:;
#CHARTNAME:BASIC;
#CHARTHASH:291274877;
#STEPSTYPE:dance-single;
#BANNER:;
#DESCRIPTION:;
#CHARTSTYLE:;
#DIFFICULTY:Easy;
#METER:8;
#METERF:0.000000;
#LASTSECONDHINT:106.179260;
#RADARVALUES:0.404038,0.538761,0.389466,0.315282,0.092730,305.000000,263.000000,42.000000,34.000000,0.000000,0.000000,0.000000,0.000000,0.000000,0.404038,0.538761,0.389466,0.315282,0.092730,305.000000,263.000000,42.000000,34.000000,0.000000,0.000000,0.000000,0.000000,0.000000;
#CREDIT:YonabearCWY;
#DISPLAYBPM:190.000000;
#NOTES:
0000
0000
0000
0000
,
0000
0000
0000
0000
,
0000
0000
0000
0000
,
0000
0000
0000
0000
,
0000
0000
0000
0000
,
0000
0000
0000
0000
,
1000
1000
1000
0100
,
0001
0001
0001
1001
,
1000
0000
0000
0010
0000
0010
0000
0000
0000
0100
0000
0000
,
0001
0010
1000
0001
,
0100
0000
0000
0010
0000
0010
0000
0000
0000
0010
0000
0000
,
0001
1000
0100
0001
,
0100
0000
0000
1000
0000
1000
0000
0000
0000
0010
0000
0000
,
0100
0010
0001
1000
,
0100
0000
0000
0010
0000
0010
0000
0000
0000
1000
0000
0000
,
0001
0000
0000
1000
0000
1000
0000
0000
0000
0101
0000
0000
,
1010
1000
1000
1000
,
1100
1000
1010
1000
,
1001
0001
0001
0001
,
0101
0001
0011
0001
,
1001
0010
0010
0010
,
1010
0010
0110
0010
,
1010
0100
0100
0100
,
0101
0100
0110
0100
,
2001
0001
0100
0001
,
3200
0000
2300
0000
,
3010
0000
0000
1000
0000
1000
0000
0000
0000
0010
0000
0000
,
0100
0000
0000
0001
0000
0001
0000
0000
0000
1000
0000
0000
,
0010
0000
0000
0100
0000
0100
0000
0000
0000
0001
0000
0000
,
1000
0000
0000
0100
0000
0100
0000
0000
0000
1000
0000
0000
,
1001
0010
0010
0010
,
0011
0001
0101
0100
,
0110
0010
0010
0010
,
1010
1000
1100
0100
,
1100
1000
1001
1000
,
1010
1000
1000
1000
,
1100
0100
0110
0010
,
0011
0001
0100
0010
,
1020
1000
0100
1000
,
0230
0000
0001
0000
,
0310
0000
0000
0100
0000
0100
0000
0000
0000
0010
0000
0000
,
1000
0000
0000
0001
0000
0001
0000
0000
0000
0100
0000
0000
,
0001
0000
0000
0010
0000
0010
0000
0000
0000
0001
0000
0000
,
1000
0010
1000
0100
,
2002
3003
2200
3300
,
2010
0000
3100
0000
,
2002
3003
0220
0330
,
0102
0000
0013
0010
,
1001
0000
0000
0001
0000
0000
0100
0000
0000
0010
0000
0010
,
1000
0100
1000
0100
,
1000
1010
0100
1100
,
1000
1001
0001
0101
,
0100
0000
1000
0000
,
0100
0010
0010
0010
,
1000
0000
0001
0000
,
1000
0000
0001
0000
,
0100
0010
0100
0010
,
1000
0100
1000
0100
,
1000
0000
0000
0000
0000
0010
0000
0000
0000
0100
0000
0000
,
0001
0000
0000
0000
0000
0010
0000
0000
0000
0001
0000
0000
,
1000
0000
0000
0000
0000
0001
0000
0000
0000
0100
0000
0000
,
0010
0000
0000
0000
0000
1000
0000
0000
0000
0001
0000
0000
,
0200
0000
0000
0000
,
0320
0000
0000
0000
,
2030
0000
0000
0000
,
3002
0000
0000
0000
,
0203
0000
0302
0000
,
0203
0000
0320
0000
,
2030
3020
2030
3200
,
2300
3002
0203
0301
,
1001
0010
0010
0000
,
0100
0100
1001
0000
,
1000
0000
0000
0010
0000
0000
0100
0000
0000
0001
0000
0001
,
1000
0001
0100
0000
,
1000
0010
1000
0000
,
0001
0000
0000
0100
0000
0100
0000
0000
0000
0001
0000
0000
,
1000
0010
0001
0010
,
1000
0000
0000
0100
0000
0100
0000
0000
0000
1000
0000
0000
,
0010
0010
1000
0010
,
0010
0000
0100
0000
,
0020
1000
1030
0000
,
2000
0001
3001
1000
,
2002
0000
0000
0000
,
3003
0000
0000
0000
;

//---------------dance-single - ----------------
#NOTEDATA:;
#CHARTNAME:DIFFICULT;
#CHARTHASH:1024570865;
#STEPSTYPE:dance-single;
#BANNER:;
#DESCRIPTION:;
#CHARTSTYLE:;
#DIFFICULTY:Medium;
#METER:11;
#METERF:11.000000;
#LASTSECONDHINT:106.179260;
#RADARVALUES:0.500742,0.654210,0.547107,0.482196,0.278190,378.000000,319.000000,59.000000,52.000000,0.000000,0.000000,0.000000,0.000000,0.000000,0.500742,0.654210,0.547107,0.482196,0.278190,378.000000,319.000000,59.000000,52.000000,0.000000,0.000000,0.000000,0.000000,0.000000;
#CREDIT:YonabearCWY;
#DISPLAYBPM:190.000000;
#NOTES:
0000
0000
0000
0000
,
0000
0000
0000
0000
,
0000
0000
0000
0000
,
0000
0000
0000
0000
,
0000
0000
0000
0000
,
0000
0000
0000
0000
,
1000
0001
1000
0001
,
0010
0100
0010
1001
,
0210
0000
0000
0001
0000
0302
0000
0000
0000
0103
0000
0000
,
1010
0100
0101
0010
,
0120
0000
0000
1000
0000
2030
0000
0000
0000
3100
0000
0000
,
0010
0000
0000
0011
0000
0000
1000
0000
0001
0100
0000
0000
,
2010
0000
0000
0001
0000
3002
0000
0000
0000
0103
0000
0000
,
0011
0010
1100
0100
,
2001
0000
0000
0100
0000
3200
0000
0000
0000
1300
0000
0000
,
0020
0000
0000
0100
0000
0130
0000
0000
0000
1001
0000
0000
,
0110
0001
0100
0001
,
1000
0000
0000
0010
0000
0000
1000
0000
0000
0100
0000
1000
,
0010
0100
0001
0010
,
1000
0000
0000
0010
0000
0000
0001
0000
0000
0100
0000
0010
,
1000
0001
0100
0001
,
0010
0000
0000
0001
0000
0000
1000
0000
0000
0010
0000
1000
,
0001
1000
0100
0010
,
0001
1000
0100
0001
,
0110
0000
1000
0001
0000
1000
0001
0000
1000
0001
0000
1000
,
0002
0010
0100
1003
,
0102
0000
0000
1000
0000
2003
0000
0000
0000
3100
0000
0000
,
0010
0001
1000
0010
,
0210
0000
0000
0001
0000
0302
0000
0000
0000
0013
0000
0000
,
0100
0001
0100
0010
,
1001
0000
0000
0100
0000
0010
1000
0000
0000
0100
0000
0000
,
0010
0001
1000
0001
,
0100
0000
0000
0001
0000
0010
0100
0000
0000
1000
0000
0000
,
0001
1000
0010
0100
,
0001
0000
0000
1000
0000
0100
0001
0000
0000
0100
0000
0000
,
1000
0010
0100
0001
,
0010
0000
0000
1000
0000
0010
0001
0000
0000
0010
0000
0000
,
0100
0010
0001
1000
,
1001
0000
0010
0100
0000
0010
0100
0000
0010
0100
0000
0020
,
0200
0000
0000
0330
,
2001
0000
0000
0010
0000
3010
0000
0000
0001
0100
0000
0000
,
1020
0000
0000
0100
0000
0130
0000
0000
1000
0001
0000
0000
,
0120
0000
0000
1000
0000
1030
0000
0000
0100
0001
0000
0000
,
0010
0000
0001
1000
0000
0000
0010
0000
1000
0001
0000
0000
,
0220
0330
2020
3030
,
0202
0000
0303
0000
,
0022
0033
2200
3300
,
2002
0000
3003
0000
,
1000
1000
0010
0010
,
0001
0001
0010
0010
,
1100
1100
0101
0101
,
0110
0110
1001
1001
,
0001
0010
0100
1000
,
0001
0001
1000
1000
,
0110
0110
1001
1001
,
0220
0330
0202
0303
,
2010
0001
0100
0001
,
3020
0001
1000
0001
,
2030
0000
0000
0000
0000
0100
0000
0000
0000
0100
0000
0000
,
3002
0000
0000
0000
0000
1000
0000
0000
0000
1000
0000
0000
,
0023
0000
0000
0001
0000
0001
0000
0000
0000
0001
0000
0000
,
2030
0000
0000
0010
0000
0000
0010
0000
0000
0010
0000
3020
,
0000
0000
0000
0031
0000
0002
0000
0000
1003
0010
0000
1000
,
0010
0000
0000
0100
0000
0000
0001
0000
0000
0010
0000
0020
,
0000
0000
0000
1030
0000
2000
0000
0000
3010
0100
0000
0010
,
0100
0000
0000
1000
0000
0000
0001
0000
0000
0100
0000
0100
,
0000
0000
0000
0001
0000
0001
0000
0000
0010
0100
0000
1000
,
0001
0000
0000
0100
0000
0000
0010
0000
0000
1000
0000
1000
,
0000
0000
0000
0001
0000
0001
0000
0000
0000
0110
0000
0110
,
0000
0000
0000
1001
0000
2002
0000
0000
0000
3003
0000
0000
,
0110
0110
1001
1001
,
0100
0000
0010
0001
0000
0010
0001
0000
1000
0001
0000
0000
,
0010
0010
0012
0000
,
1000
0000
1003
0000
0000
0010
0100
0000
0010
0100
0000
0000
,
0010
0010
2001
0000
,
3100
0000
0100
1000
0000
0100
1000
0000
0000
1001
0000
0000
,
0100
0010
1000
0010
,
0001
0010
1000
0010
,
0011
0011
1001
0000
,
1100
1100
1002
0000
,
0103
0010
1000
0001
,
0100
0000
0010
1000
0000
0000
0100
0000
0010
0001
0000
0000
,
2002
0000
0000
0000
,
3003
0000
0000
0000
;

//---------------dance-single - ----------------
#NOTEDATA:;
#CHARTNAME:EXPERT;
#CHARTHASH:2147483647;
#STEPSTYPE:dance-single;
#BANNER:;
#DESCRIPTION:;
#CHARTSTYLE:;
#DIFFICULTY:Hard;
#METER:13;
#METERF:13.000000;
#LASTSECONDHINT:106.179260;
#RADARVALUES:0.637187,0.808142,0.482196,0.491469,0.755749,481.000000,429.000000,52.000000,53.000000,0.000000,0.000000,0.000000,0.000000,0.000000,0.637187,0.808142,0.482196,0.491469,0.755749,481.000000,429.000000,52.000000,53.000000,0.000000,0.000000,0.000000,0.000000,0.000000;
#CREDIT:YonabearCWY;
#DISPLAYBPM:190.000000;
#NOTES:
0000
0000
0000
0000
,
0000
0000
0000
0000
,
0000
0000
0000
0000
,
0000
0000
0000
0000
,
0000
0000
0000
0000
,
0000
0000
0000
0000
,
1000
1010
0001
0101
,
0010
0000
0000
0110
0000
0000
1000
0000
0010
0100
0000
0000
,
0001
0000
1000
0100
0000
1000
0100
0000
1000
0100
0000
0010
,
0100
0000
0000
1000
0000
0001
0100
0000
0001
1000
0000
0000
,
0010
0000
0100
0001
0000
0100
0001
0000
0100
0001
0000
0010
,
0100
0000
0000
1000
0000
0001
1000
0000
0100
1000
0000
0000
,
0100
0000
0010
0001
0000
0010
0001
0000
1000
0001
1000
0001
,
0010
0000
0000
0100
0000
1000
0001
0000
1000
0010
0000
0000
,
0100
0000
0001
1000
0000
0001
1000
0000
0010
1000
0010
1000
,
0001
0000
0000
0010
0000
0101
0000
0000
0000
1001
0000
0000
,
0210
0001
1000
0301
,
0100
0000
0010
1000
0000
0010
1000
0000
0000
0001
0000
0021
,
0000
0000
1000
0000
0000
0001
0000
0000
1030
0000
0000
0011
,
0000
0000
1001
0000
0000
0110
0000
0000
0001
1000
0000
0001
,
2000
0010
0100
3001
,
1000
0000
0010
0100
0000
0001
0100
0000
0000
0010
0000
1000
,
0002
0000
0100
0000
0000
0010
0000
0000
0100
0000
0000
1003
,
0000
0000
0001
0010
0000
0010
0100
0000
0100
1000
0000
1000
,
0201
1000
0010
1000
,
0310
0100
0010
0100
0000
0001
1000
0100
0010
0002
0000
0000
,
1003
0000
0001
0010
0000
0001
0010
0000
0001
0100
0000
0000
,
0010
0000
1000
0100
0000
0100
0010
0000
0010
0001
0000
0000
,
1000
0000
0010
0100
0000
0010
0100
0000
0001
1000
0000
0000
,
0100
0000
0100
0010
0000
0010
0001
0000
0001
1000
0000
0000
,
0120
1000
0001
1030
,
0010
0000
0100
0001
0000
0001
1000
0000
1000
0010
0000
0000
,
1200
0001
1000
0310
,
0100
0000
0100
1000
0000
1000
0001
0000
0010
0000
0000
0011
,
0000
0000
1001
0000
0000
0110
0000
0000
1010
0000
0000
1001
,
0000
0000
0001
0100
0000
0100
0010
0000
0010
1000
0000
1000
,
0200
0010
0001
1300
,
0100
0000
1000
0001
0000
0001
1000
0000
1000
0010
0000
0010
,
1200
0001
1000
0010
,
1300
0001
1000
0001
0000
0010
0100
1000
0001
0200
0000
0000
,
0320
0000
0000
1000
0000
1000
0000
0000
0000
0001
0000
0000
,
2030
0000
0000
0010
0000
0010
0000
0000
0000
0100
0000
0000
,
3020
0000
0000
0100
0000
0100
0000
0000
0000
0001
0000
0000
,
0130
0000
0000
0000
0100
0000
0010
0000
0000
1000
0000
0000
0001
0000
0000
0010
0000
0000
0100
0000
0000
1000
0000
0000
,
0220
0330
2020
3030
,
0001
1000
0100
0010
0001
0200
0020
0000
0000
0330
0000
0000
,
2002
3003
0022
0033
,
0001
1000
0100
0001
0100
0020
0200
0000
0000
0330
0000
0000
,
1010
1001
0011
0101
,
0001
0000
0011
0000
0000
1001
0000
0000
1010
0000
0000
1000
,
0010
0000
1000
0001
0000
0000
0110
0000
0000
0101
0000
0000
,
1001
0000
0000
0110
0000
0000
0010
0000
1000
0010
0000
0010
,
0200
0001
1000
0001
,
0310
0000
0100
0001
0000
0001
0010
0000
0010
0100
0000
0100
,
2000
0001
0100
0001
,
3100
0000
1000
0010
0000
0010
0100
0000
0100
0001
0000
0000
,
0011
1001
0110
1010
,
0100
0000
0001
0010
0000
0010
1000
0000
1000
0010
0000
0010
,
0002
0000
0000
0000
0000
1000
0000
0000
0000
2003
0000
0000
,
3020
0000
0000
0000
0000
0100
0000
0000
0000
0230
0000
0000
,
0302
1000
0010
2003
,
3200
0000
0000
0010
0000
0000
0001
0000
0000
0010
0000
0010
,
0000
0000
0000
1000
0000
1000
0000
0000
0000
0320
0000
0000
,
0032
0000
0000
2003
0000
0000
3020
0000
0000
0100
0000
0100
,
0000
0000
0000
0001
0000
0001
0000
0000
0000
2030
0000
0000
,
3200
0302
2003
3020
,
0031
0000
0001
0100
0000
0100
0010
0000
0010
1000
0000
1000
,
0100
0000
0100
0010
0000
0010
0001
0000
0001
1000
0000
1000
,
0001
0000
0001
0010
0000
0010
0100
0000
0100
1000
0000
1000
,
0100
0000
0100
0010
0100
0010
0001
0010
0001
1000
0001
1000
,
1010
1100
1001
1010
,
1000
0000
0001
0100
0000
0001
0100
0000
0000
0011
0000
0000
,
1002
0100
0100
0000
,
0010
0000
0013
0000
0000
2002
0000
0000
0000
3003
0000
0000
,
0120
1000
0001
0100
,
1030
0000
0010
0100
0000
0001
1000
0000
0100
0010
0000
0000
,
0001
0000
1000
0100
0000
1000
0100
0000
0010
0001
0000
0010
,
0001
0000
0010
0100
0000
0010
0100
0000
1000
0001
0000
1000
,
0101
0011
1001
1010
,
1000
0000
1000
0100
0000
0100
0001
0000
0001
0100
0000
0100
,
2100
0010
0001
3020
,
0230
1000
0001
0310
,
2002
0000
0000
0000
,
3003
0000
0000
0000
;

//---------------dance-single - ----------------
#NOTEDATA:;
#CHARTNAME:CHALLENGE;
#CHARTHASH:1427892287;
#STEPSTYPE:dance-single;
#BANNER:;
#DESCRIPTION:;
#CHARTSTYLE:;
#DIFFICULTY:Challenge;
#METER:15;
#METERF:15.000000;
#LASTSECONDHINT:106.179260;
#RADARVALUES:0.767009,1.000556,0.472923,0.361647,1.173034,579.000000,528.000000,51.000000,39.000000,0.000000,0.000000,0.000000,0.000000,0.000000,0.767009,1.000556,0.472923,0.361647,1.173034,579.000000,528.000000,51.000000,39.000000,0.000000,0.000000,0.000000,0.000000,0.000000;
#CREDIT:YonabearCWY;
#DISPLAYBPM:190.000000;
#NOTES:
0000
0000
0000
0000
,
0000
0000
0000
0000
,
0000
0000
0000
0000
,
0000
0000
0000
0000
,
0000
0000
0000
0000
,
0000
0000
0000
0000
,
1001
0000
0100
0010
0000
0000
1001
0000
0010
0100
0000
0000
,
1000
0000
0001
0100
0000
0010
1000
0000
0100
2001
0000
0000
,
3100
0000
0010
0001
0000
0010
0001
0000
1000
0010
1000
0010
,
0100
0000
0100
0001
0000
0001
1000
0000
1000
0100
0000
0100
,
0010
0000
0001
0100
0000
0001
0100
0000
0010
1000
0010
1000
,
0100
0000
0010
0001
0000
0001
1000
0000
1000
0100
0000
0100
,
1000
0000
0001
0100
0000
0001
0100
0000
0010
1000
0100
0010
,
0100
0000
0010
0001
0000
0001
1000
0000
1000
0001
0000
0001
,
0010
0000
0100
1000
0000
0100
1000
0000
0100
0010
0100
0010
,
0001
0000
0000
1000
0000
1001
0000
0000
0100
0110
0000
0000
,
1002
0000
0000
0010
0000
0010
0000
0000
1003
0010
0000
1000
,
0002
0000
0000
0013
0000
0100
2000
0000
0000
3100
0000
0010
,
0002
0000
0000
0100
0000
0103
0000
0000
0011
0000
0000
1000
,
0001
0000
1000
0001
0000
0100
0010
0000
0100
0001
0000
0100
,
1000
0000
0100
0001
0000
0002
0000
0000
1003
0100
0000
0100
,
0010
0000
0000
0001
0000
1000
0010
0000
0000
0100
0000
0001
,
0020
0000
0000
0100
0000
0130
0000
0000
1001
0000
0000
0100
,
0010
0000
0100
0010
0000
0100
1000
0000
0100
0001
0000
0100
,
0210
0000
0000
0001
0000
0000
1000
0000
0000
0301
0000
0010
,
0010
0001
1000
0010
0000
0100
0010
0100
0001
1000
0000
0000
,
0010
0000
0100
1000
0000
0100
1000
0000
0100
0001
0100
0001
,
0010
0000
0001
1000
0000
1000
0001
0000
0001
0010
0000
0010
,
0100
0000
1000
0010
0000
1000
0010
0000
0100
1000
0100
0010
,
0100
0000
0100
0001
0000
0001
1000
0000
1000
0100
0000
0100
,
2001
0000
0000
0010
0000
0010
0000
0000
0000
0100
0000
0000
,
3002
0000
0000
0100
0000
0000
0010
0000
0000
1003
0000
0001
,
0200
0000
0000
0010
0000
0010
0000
0000
0000
0310
0000
0000
,
1001
0000
0000
0100
0000
0000
1000
0000
1001
0000
0000
0011
,
0000
0000
1001
0000
0000
1100
0000
0000
0110
0000
0000
0011
,
0000
0000
0001
1000
0000
0100
0010
0000
0001
0010
0000
0010
,
0200
0001
1000
0001
,
1300
0000
0010
0100
0000
0010
1000
0000
0010
0001
0000
0010
,
2001
0000
0000
0100
0000
0000
0001
0000
0000
3100
0000
1000
,
0001
0010
0001
0010
0100
1000
0100
1000
0100
0001
0000
0000
,
2001
0000
0000
0010
0000
0010
0000
0000
3001
0010
0100
1000
,
0020
0000
0000
1000
0000
1000
0000
0000
0130
0010
0000
0100
,
0002
0000
0000
1000
0000
1000
0000
0000
0013
0100
1000
0100
,
0001
0000
0000
0000
0100
0000
1000
0000
0000
0001
0000
0000
0010
0000
0000
0100
0000
0000
1000
0000
0000
0001
0000
0000
,
0202
0303
2020
3030
,
0001
0010
1000
0010
0001
0200
0020
0000
0000
0330
0000
0000
,
2200
3300
2002
3003
,
1000
0100
0010
0001
0100
0010
1000
0000
0000
0010
0000
0000
,
0201
0010
1000
0010
,
0301
0000
1001
0000
0000
1100
0000
0000
0110
0000
0000
0001
,
1020
0001
0100
0001
,
0130
0000
0010
1000
0100
1000
0100
0010
0100
0010
0001
1000
,
0001
0000
0001
0010
0000
0010
0100
0000
0100
1000
0000
1000
,
0100
0010
0100
0010
0100
1000
0100
1000
0001
0010
0001
0100
,
0110
0000
0000
1100
0000
0000
0101
0000
0000
0010
0000
1000
,
0201
1300
0120
0031
,
1001
0000
0000
0101
0000
0000
1001
0000
0000
1000
0000
0010
,
1001
0000
0000
0100
0000
0001
0010
0000
0100
1000
0000
0010
,
0102
0000
0000
1000
0000
1000
0000
0000
0010
0010
0000
0000
,
2003
0000
0000
0001
0000
0001
0000
0000
0100
0100
0000
0000
,
3020
0000
0000
0001
0000
0001
0000
0000
1000
1000
0000
0000
,
0230
0000
0000
1000
0000
1000
0000
0000
0001
0001
0000
0310
,
0100
0000
0100
1000
0000
1000
0001
0000
0001
0010
0000
0010
,
1000
0000
1000
0010
0000
0010
0001
0000
0001
1000
0000
1000
,
0100
0000
0100
0001
0000
0001
0100
0000
0100
1000
0000
1000
,
0001
0000
0001
0010
0000
0010
0100
0000
0100
1000
0000
1000
,
0001
0010
0001
0010
1000
0010
1000
0010
0001
0010
0001
1000
,
0100
1000
0100
0001
0100
0001
0100
1000
0100
1000
0001
0100
,
0010
1000
0001
0010
0100
1000
0001
1000
0100
0010
0100
1000
,
0001
0100
0001
1000
0010
0001
0010
0100
0010
1000
0100
0010
,
1001
0101
1001
1010
,
0100
0000
0001
0010
0000
0010
0100
0000
0100
0001
0000
0000
,
1100
1001
0012
0000
,
0100
0000
0203
0000
0000
0301
1000
0100
0010
0100
0000
0000
,
1001
1100
0210
0000
,
1300
0000
1000
0001
0000
1000
0001
0000
0001
0010
0000
0010
,
0001
0000
1000
0100
0000
0100
0010
0000
0010
0001
0000
0001
,
0010
0000
0010
0100
0000
0100
0010
0000
0010
1000
0000
0010
,
0001
0000
0010
0100
0000
0100
1000
0000
0000
0101
0000
1000
,
0100
0000
0100
0001
0000
0100
1000
0000
0100
0010
0001
0010
,
1100
0000
0001
0100
0000
1000
0100
0000
0010
0001
0010
0100
,
0010
0000
1000
0001
0000
0001
1000
0000
1000
0010
0000
0010
,
2002
0000
0000
0000
,
3003
0000
0000
0000
;
