#TITLE:Catch it!;
#SUBTITLE:;
#ARTIST:TOTAL SCIENCE;
#TITLETRANSLIT:;
#SUBTITLETRANSLIT:;
#ARTISTTRANSLIT:;
#GENRE:DRUM'N'BASS;
#CREDIT:YonabearCWY/KONAMI;
#BANNER:Catch it!.png;
#BACKGROUND:Catch it!-bg.png;
#LYRICSPATH:;
#CDTITLE:beatmania.png;
#MUSIC:Catch it!.ogg;
#OFFSET:-5.560000;
#SAMPLESTART:16.550070;
#SAMPLELENGTH:15.000000;
#SELECTABLE:YES;
#BPMS:0.000000=174.000000
;
#STOPS:
;
#BGCHANGES:0.000=Catch it!.mp4=1.000=1=0=0=StretchNoLoop==CrossFade==,
228.000=Catch it!-bg.png=1.000=0=0=1=====,
99999.000=-nosongbg-=1.000=0=0=0=StretchNoLoop====,
99999=-nosongbg-=1.000=0=0=0 // don't automatically add -songbackground-
;
#KEYSOUNDS:;
#ATTACKS:;

//---------------dance-single - ----------------
#NOTES:
     dance-single:
     BASIC:
     Easy:
     7:
     0.334350,0.495599,0.279456,0.046576,0.000000,201.000000,177.000000,24.000000,4.000000,0.000000,0.000000,0.334350,0.495599,0.279456,0.046576,0.000000,201.000000,177.000000,24.000000,4.000000,0.000000,0.000000:
1001
0000
0000
0000
,
1001
0000
0000
0000
,
0100
0000
0001
0000
,
0100
0000
1000
0000
,
1001
0000
0000
0000
,
0010
0000
1000
0000
,
0100
0000
0001
0000
,
0100
0001
0000
0010
,
0000
0100
0000
1000
,
0000
1000
0000
0100
,
0000
0001
0000
1000
,
0000
0010
0000
0001
,
0010
1000
0001
0100
,
0001
0100
1000
0010
,
0100
0010
0001
0100
,
1000
0001
1000
0001
,
0100
0010
0100
0010
,
1000
1000
0001
0001
,
0010
1000
0100
0001
,
0001
0100
1000
0010
,
1000
0100
1000
0001
,
0100
0001
0100
1000
,
0001
0001
0010
0010
,
1000
1000
0100
0100
,
0011
1000
1000
0011
,
1010
0001
0001
1100
,
0010
0010
0101
1100
,
0001
1000
0001
1001
,
0001
0100
1000
0001
,
0010
0100
1000
0010
,
0001
0100
0100
0010
,
1000
0001
1100
0001
,
0101
0010
0100
1100
,
0101
0001
0001
1100
,
0010
0010
1000
0001
,
0100
0100
1000
1000
,
0001
0100
0001
0010
,
0001
0100
1000
1000
,
0010
0100
1000
1000
,
0001
1000
0010
0100
,
0101
1100
0101
1100
,
0010
0010
0101
1100
,
0100
0100
0011
1010
,
0010
0010
1000
0001
,
2000
0001
0000
0010
,
0000
0001
0000
3100
,
0010
0002
0000
0010
,
0000
1000
0000
0100
,
0000
1000
0000
0013
,
0000
1000
0000
0001
,
0000
0100
0000
0010
,
0000
0001
0000
0001
,
0000
1000
0000
1000
,
0000
0001
1000
0001
,
0000
0100
0000
0010
,
0000
0010
0000
2002
,
0000
0000
0000
3003
;

//---------------dance-single - ----------------
#NOTES:
     dance-single:
     EXPERT:
     Hard:
     12:
     0.567230,0.627758,0.349321,0.186304,0.093152,341.000000,311.000000,30.000000,16.000000,0.000000,0.000000,0.567230,0.627758,0.349321,0.186304,0.093152,341.000000,311.000000,30.000000,16.000000,0.000000,0.000000:
0020
0000
0000
1030
0000
0000
0002
0000
,
0000
1003
0000
0000
1100
0000
0000
0000
,
0020
0000
0000
0031
0000
0000
2000
0000
,
0000
3001
0000
0000
0101
0000
0000
0000
,
0010
0100
0001
0000
0000
1000
0001
0000
,
0010
0100
1000
0000
0000
0001
1000
0000
,
0100
1000
0001
0000
0000
1000
0010
0000
,
0100
0001
1000
0000
0000
0001
0010
0000
,
0100
0000
0001
0010
0100
0000
0000
0100
,
1000
0010
0000
0000
0010
0100
0001
0000
,
0000
0001
0100
1000
0000
0000
0010
1000
,
0100
0000
0000
0001
0010
0100
0000
0000
,
1000
0001
0010
1000
0000
0100
1000
0100
,
0010
0100
0001
0100
0000
1000
0010
1000
,
0001
1000
0100
1000
0000
0001
0010
0001
,
1000
0001
0100
0001
0000
0010
0100
1000
,
0010
0000
1000
0010
0000
0010
0100
0001
,
0010
0000
0001
0010
0000
1000
0001
0010
,
1000
0000
0010
1000
0000
0001
1000
0010
,
0001
0000
0010
0001
0000
0100
0001
0010
,
1100
0000
0000
0101
0000
0000
0011
0000
,
0000
1100
0000
0000
2002
0000
3003
0000
,
0101
0000
0000
1100
0000
0000
1010
0000
,
0000
0101
0000
0000
2002
0000
3003
0000
,
0010
0000
0100
0010
0100
0010
0100
0001
,
1000
0000
0100
0000
1000
0000
0100
0000
0000
0010
0000
0000
1100
0000
0000
0000
,
0010
0000
0010
0100
0010
0100
0010
1000
,
0001
0000
0100
0000
0001
0000
0100
0000
0010
0000
0000
0100
0010
0000
0100
0000
,
0001
0000
1000
0100
1000
0100
1000
0010
,
0100
0000
0001
0000
0100
0000
0001
0000
0000
0100
0000
0000
1010
0000
0000
0000
,
0100
0000
0001
0100
0001
0100
0001
0010
,
0100
0000
1000
0000
0100
0000
1000
0000
0010
0000
0000
0100
0010
0000
0100
0000
,
0110
0000
0100
0000
0001
0000
0000
0000
0010
0001
0010
0000
0100
0000
0000
0000
,
1000
0000
0100
0000
0010
0000
0000
0000
0001
1000
0001
0000
0100
0000
0000
0000
,
0010
0000
0100
0000
0001
0000
0000
0000
1000
0010
1000
0000
0001
0000
0000
0000
,
0010
0000
0100
0000
1000
0000
0000
0000
0001
0010
0001
0000
1000
0000
0000
0000
,
0100
0000
2000
0100
0000
3001
0010
0000
,
0100
0000
0002
0100
0000
1003
0010
0000
,
0100
0000
0010
1010
0000
0001
0101
0000
,
1000
0000
0010
0011
0000
1000
1100
0000
,
0010
0000
0002
0000
0000
0103
1000
0000
,
0010
0000
2000
0000
0000
3100
0001
0000
,
1001
0000
0200
0000
0000
0310
0001
0000
,
1001
0000
0200
0000
0000
0310
1000
0000
,
0001
0010
0100
0001
0100
1000
0100
0000
,
0001
0100
0010
0001
0100
1000
0100
0000
,
0001
1000
0100
0010
0100
1000
0010
0000
,
1000
0001
0100
0010
1000
0010
0001
0000
,
1000
0000
0001
0000
0100
0000
0000
0010
0000
1000
0001
0000
1000
0000
0000
0000
,
0001
0000
1000
0000
0100
0000
0000
0010
0000
0001
1000
0000
0001
0000
0000
0000
,
1000
0000
0010
0000
0100
0000
0000
0001
0000
1000
0100
0000
0010
0000
0000
0000
,
0001
0000
0010
0000
0100
0000
0000
1000
0000
0001
0100
0000
0010
0000
0000
0000
,
1010
0000
0100
0001
1000
0000
1001
0000
,
0011
0000
0010
0001
0100
0000
0101
0000
,
1010
0100
0001
1000
0100
0001
1010
0000
,
0011
0100
1000
0001
0000
1000
0011
0000
,
2002
0000
0000
3003
;

//---------------dance-single - ----------------
#NOTES:
     dance-single:
     BEGINNER:
     Beginner:
     4:
     0.204602,0.259662,0.163016,0.000000,0.000000,123.000000,109.000000,14.000000,0.000000,0.000000,0.000000,0.204602,0.259662,0.163016,0.000000,0.000000,123.000000,109.000000,14.000000,0.000000,0.000000,0.000000:
1001
0000
0000
0000
,
1001
0000
0000
0000
,
0100
0000
0001
0000
,
0100
0000
1000
0000
,
1001
0000
0000
0000
,
0010
0000
1000
0000
,
0100
0000
0001
0000
,
0100
0000
0000
0010
,
0000
0100
0000
1000
,
0000
1000
0000
0100
,
0000
0001
0000
1000
,
0000
0010
0000
0001
,
0000
1000
0000
0100
,
0000
0100
0000
0010
,
0000
0010
0000
0100
,
0000
0001
0000
0001
,
0000
0010
0000
0010
,
0000
1000
0000
0001
,
0000
1000
0000
0001
,
0000
0100
0000
0010
,
0000
0100
0000
0001
,
0000
0001
0000
1000
,
0000
0001
0000
0010
,
0000
1000
0000
0100
,
0000
1000
0000
1001
,
0000
0001
0000
0110
,
0000
0010
0000
0110
,
0000
1000
0000
1001
,
0000
0100
0000
0001
,
0000
0100
0000
0010
,
0000
0100
0000
0010
,
0000
0001
0000
0001
,
0000
0010
0000
0110
,
0000
0001
0000
0110
,
0000
0010
0000
0001
,
0000
0100
0000
1000
,
0000
0100
0000
0010
,
0000
0100
0000
1000
,
0000
0100
0000
1000
,
0000
1000
0000
0100
,
0000
0110
0000
0110
,
0000
0010
0000
0110
,
0000
0100
0000
1001
,
0000
0010
0000
0001
,
0000
0001
0000
0010
,
0000
0001
0000
0100
,
0000
0001
0000
0010
,
0000
1000
0000
0100
,
0000
1000
0000
0010
,
0000
1000
0000
0001
,
0000
0100
0000
0010
,
0000
0001
0000
0001
,
0000
1000
0000
1000
,
0000
0001
0000
0001
,
0000
0100
0000
0010
,
0000
0010
0000
1001
;

//---------------dance-single - ----------------
#NOTES:
     dance-single:
     DIFFICULT:
     Medium:
     9:
     0.427502,0.594718,0.535625,0.244524,0.000000,257.000000,211.000000,46.000000,21.000000,0.000000,0.000000,0.427502,0.594718,0.535625,0.244524,0.000000,257.000000,211.000000,46.000000,21.000000,0.000000,0.000000:
0010
0000
0000
0020
0000
0000
0001
0000
,
0000
0001
0000
0000
0031
0000
0000
0000
,
0100
0000
0000
0100
0000
0000
0200
0000
,
0000
1000
0000
0000
1300
0000
0000
0000
,
0010
0000
0000
0020
0000
0000
0001
0000
,
0000
0001
0000
0000
0031
0000
0000
0000
,
0100
0000
0000
0100
0000
0000
0200
0000
,
0000
1000
0000
0000
1300
0000
0000
0000
,
1010
0000
0000
0001
0000
0000
1010
0000
,
0000
0100
0000
0000
0101
0000
0000
0000
,
0011
0000
0000
1000
0000
0000
0011
0000
,
0000
0100
0000
0000
1100
0000
0000
0000
,
0100
0000
0000
0010
0000
0000
1001
0000
,
0000
1000
0000
0000
0010
0000
0000
0000
,
0010
0000
0000
0100
0000
0000
1001
0000
,
0000
0001
0000
0000
0010
0000
0000
0000
,
0100
0000
0001
1000
0000
0000
0200
0000
,
0000
0310
0001
0000
2000
0000
0000
0000
,
3010
0000
0100
0001
0000
0000
2000
0000
,
3000
0010
0100
0000
0002
0000
0000
0000
,
0103
0000
0001
1000
0000
0000
0200
0000
,
0000
0310
0001
0000
2000
0000
0000
0000
,
3010
0000
0100
0001
0000
0000
2000
0000
,
3000
0010
0100
0000
2002
0000
3003
0000
,
0100
0000
0010
1000
0010
0000
1000
0000
,
0001
0000
0001
0100
0001
0000
0001
0000
,
1000
0000
0100
0010
0100
0000
0010
0000
,
0001
0000
0001
1000
0001
0000
0001
0000
,
1000
0000
0010
1000
0010
0000
0100
0000
,
0001
0000
0001
0010
0001
0000
0001
0000
,
0010
0000
0100
1000
0100
0000
0010
0000
,
0100
0000
0100
0001
0100
0000
0100
0000
,
0110
0110
1001
1010
,
0101
0101
0101
0101
,
1001
0110
0110
0011
,
1100
1100
1100
1100
,
0110
0011
0011
1001
,
1100
1100
1100
1100
,
0011
0101
1100
1010
,
1100
0101
0011
1001
,
0001
0010
1000
0100
,
0001
0100
1000
0010
,
0001
0010
0100
0001
,
0100
1000
0010
0001
,
0001
1000
0001
0000
1000
0001
1000
0000
,
0001
0100
0010
0000
0001
0100
0010
0000
,
1000
0100
0010
0000
1000
0100
0010
0000
,
1000
0010
0001
0000
1000
0010
0001
0000
,
1000
0002
1003
0002
,
0103
0020
0130
0020
,
1030
0020
1030
0002
,
0103
0002
0103
1001
,
0010
0011
0010
0000
,
0100
0110
0100
0000
,
1000
1100
1000
0000
,
0001
0000
1001
0000
1000
0001
0100
0020
,
0000
0000
0000
0030
;

//---------------dance-single - ----------------
#NOTES:
     dance-single:
     CHALLENGE:
     Challenge:
     14:
     0.715275,0.763265,0.314389,0.710285,0.314389,430.000000,403.000000,27.000000,61.000000,0.000000,0.000000,0.715275,0.763265,0.314389,0.710285,0.314389,430.000000,403.000000,27.000000,61.000000,0.000000,0.000000:
1020
0000
0130
0002
0000
0013
0200
0000
,
1300
0002
0000
0103
0020
2000
0000
3030
,
0012
0000
1003
0200
0000
0310
0002
0000
,
0013
0200
0000
1300
0002
0020
0000
0033
,
1001
0000
0001
0000
0200
0000
0010
0000
0000
0000
0010
0000
0310
0000
0000
1000
,
0001
0000
0010
0000
0100
0000
0010
0000
0000
0000
1000
0000
0001
0000
0000
0010
,
0100
0000
1000
0000
0002
0000
0010
0000
0000
0000
0010
0000
0013
0000
0000
0100
,
0001
0010
0100
1000
0000
0100
0010
0000
,
1002
0000
0010
0010
0000
0100
0100
0000
,
0013
0000
0010
0000
0001
1000
0100
0010
0100
0000
0010
0000
0002
0000
0000
0000
,
0103
0010
0100
0000
0010
0000
0001
0000
0010
0000
0100
0000
0001
0000
1000
0000
,
0010
0100
0010
0000
0100
0000
0100
0000
0000
0000
0010
0000
1002
0000
0000
0000
,
1003
0010
1000
0000
0010
0000
0100
0000
0001
0000
0010
0001
0020
0000
0000
0000
,
0130
0000
1000
0000
0001
0000
0010
0001
0010
0000
0001
0000
2000
0000
0000
0000
,
3010
0100
0010
0000
0100
0000
0001
0000
0010
0000
0100
1000
0200
0000
0000
0000
,
1300
0001
1000
0000
0010
0000
0100
0000
0001
0010
0001
0000
1000
0000
0000
0000
,
0120
0000
1000
1000
0000
0001
0001
0000
,
1030
0000
1000
0000
0010
0100
0010
0001
0010
0000
0100
0000
0010
0000
1000
0000
,
0001
0100
0001
0000
0100
0000
0010
0000
0001
0000
0010
0000
0100
0000
0001
0000
,
1000
0001
1000
0000
0100
0000
0010
0000
0000
0000
0001
0000
0110
0000
0000
0000
,
1000
0000
0010
0100
0010
0000
0100
0000
0001
0010
0001
0000
0020
0000
0000
0000
,
0130
0000
1000
0001
1000
0000
0010
0000
0100
0000
0001
0000
2000
0000
0000
0000
,
3100
0000
1000
0001
1000
0000
0100
0000
0010
0001
0010
0000
0200
0000
0000
0000
,
0310
0001
1000
0010
0001
0010
0110
0000
,
1020
0000
0100
0230
0010
0320
1000
2030
,
0001
0000
3002
0000
0000
0000
0013
0000
0000
0100
0000
0001
1000
0000
0001
0000
,
0201
0000
0010
0320
1000
2030
0001
3002
,
0100
0000
0203
0000
0000
0000
0310
0000
0100
0000
0000
0001
1000
0000
0100
0000
,
0021
0000
0001
0032
1000
2003
0100
3200
,
0001
0000
0302
0000
0000
0000
1003
0000
0000
0010
0000
0001
0100
0000
0010
0000
,
1200
0000
0010
0320
0001
0032
1000
2003
,
0100
0000
3200
0000
0000
0000
0301
0000
0100
1000
0000
0100
1000
0000
0001
0000
,
0102
0100
0100
0100
0100
0100
0100
0100
,
0103
0000
0020
0000
0000
0000
1030
0001
1000
0001
0000
1000
0001
0000
0100
0000
,
2010
0010
0010
0010
0010
0010
0010
0010
,
3010
0000
0200
0000
0000
0000
0301
1000
0001
0000
0000
0100
0010
0000
0001
0000
,
0010
0001
0100
0100
1000
1000
0100
0001
,
0010
0000
1000
0000
0100
0000
0001
0000
0000
0010
0100
0000
2001
0000
0000
0000
,
3100
1000
0001
0001
0010
0010
1000
1000
,
0001
0100
1000
0010
0001
1000
0010
0100
,
0002
0010
0000
0023
0100
0000
0230
1000
,
0000
0000
1300
0000
0001
0000
1000
0000
0010
1000
0000
0010
1000
0000
0100
0000
,
0020
0001
0000
2030
0010
0000
3002
0100
,
0000
0000
1003
0000
0200
0000
0000
0000
0310
0000
0000
0001
1000
0000
0010
0000
,
1000
1000
0000
0101
0000
0010
0000
0011
,
0000
0000
1000
0000
0000
0000
1010
0000
0010
0100
0000
0010
0100
0000
0001
0000
,
0000
0011
0000
1000
0000
1001
0000
0100
,
0000
0000
0110
0000
0000
0000
0001
0000
1000
0000
0001
0010
0001
0000
1000
0000
,
2002
0000
0000
3003
,
1000
0000
0010
0000
0100
0000
0100
0000
0000
0001
0010
0000
1100
0000
0000
0000
,
0100
0000
0010
0000
0001
0000
0001
0000
0000
1000
0010
0000
0101
0000
0000
0000
,
0010
0000
0100
0000
1000
0000
0001
0000
0001
0000
0000
1000
0010
0000
0210
0000
,
0000
0000
0001
0001
0000
1000
1000
0000
,
0301
0000
0001
0000
1000
0001
1000
0001
1000
0001
1000
0001
1000
0001
1000
0001
,
1000
0000
0010
0000
0100
0000
0001
0000
0000
0010
0100
0000
1001
0000
0000
0000
,
0100
0000
0010
0000
1000
0000
0010
0000
0100
0001
0000
0001
0100
0000
2002
0000
,
0000
0000
0000
0000
,
3003
0000
0000
0000
;

//---------------dance-double - ----------------
#NOTES:
     dance-double:
     BASIC:
     Easy:
     8:
     0.286110,0.330399,0.139728,0.384253,0.000000,172.000000,160.000000,12.000000,33.000000,0.000000,0.000000,0.286110,0.330399,0.139728,0.384253,0.000000,172.000000,160.000000,12.000000,33.000000,0.000000,0.000000:
00010000
00000000
00000000
10000000
00000000
00000000
00010000
00000000
,
00000000
10000000
00000000
00000000
10010000
00000000
00000000
00000000
,
10000000
00000000
00000000
01000000
00000000
00000000
00010000
00000000
,
00000000
00001000
00000000
00000000
00011000
00000000
00000000
00000000
,
00010000
00000000
00000000
00001000
00000000
00000000
00000100
00000000
,
00000000
00000001
00000000
00000000
00001001
00000000
00000000
00000000
,
00001000
00000000
00000000
00000001
00000000
00000000
00001000
00000000
,
00000000
00000001
00000000
00000000
00001001
00000000
00000000
00000000
,
00000001
00001000
00000001
00000010
,
00000100
00000010
00000100
00000000
,
00001000
00010000
00001000
00010000
,
00100000
01000000
00100000
00000000
,
10000000
00100000
01000000
00010000
,
00100000
01000000
10000000
00000000
,
10000000
00100000
00010000
00100000
,
10000000
01000000
00010000
00000000
,
00100000
00001000
00010000
00000000
,
00001000
01000000
00010000
00000000
,
00100000
00010000
00001000
00000000
,
00010000
00001000
00010000
00000000
,
00001000
00010000
00001000
00000000
,
00010000
00000100
00001000
00000000
,
00010000
00000010
00001000
00000000
,
00001000
00000010
00000001
00000000
,
00000020
00000000
00000000
00000032
00000000
00000000
00000203
00000000
,
00000000
00000310
00000000
00001000
00000000
00000000
00000000
00000000
,
00002000
00000000
00000000
00003020
00000000
00000000
00000230
00000000
,
00000000
00001300
00000000
00010000
00000000
00000000
00000000
00000000
,
00020000
00000000
00000000
00032000
00000000
00000000
00023000
00000000
,
00000000
01030000
00000000
00100000
00000000
00000000
00000000
00000000
,
00200000
00000000
00000000
20300000
00000000
00000000
32000000
00000000
,
00000000
03100000
00000000
00010000
00000000
00000000
00000000
00000000
,
20000000
00000000
00000000
30020000
00000000
00000000
20030000
00000000
,
00000000
31000000
00000000
00010000
00000000
00000000
00000000
00000000
,
00020000
00000000
00000000
00032000
00000000
00000000
00023000
00000000
,
00000000
00031000
00000000
00010000
00000000
00000000
00000000
00000000
,
00002000
00000000
00000000
00023000
00000000
00000000
00032000
00000000
,
00000000
00003100
00000000
00000001
00000000
00000000
00000000
00000000
,
00000002
00000000
00000000
00002003
00000000
00000000
00003002
00000000
,
00000000
00000103
00000000
00001000
00000000
00000000
00000000
00000000
,
00000010
00000010
00000000
00001000
,
00010000
00010000
00000000
00001000
,
00010000
00010000
00000000
01000000
,
10000000
10000000
00000000
01000000
,
10000000
10000000
00000000
00100000
,
00010000
00010000
00000000
00100000
,
00010000
00010000
00000000
00001000
,
00010000
00010000
00000000
00001000
,
00012000
00000000
00000100
00003100
,
00001200
00000000
00000001
00000301
,
00000102
00000000
00000010
00000013
,
00000021
00000000
00001000
00001030
,
00002010
00000000
00010000
00013000
,
00021000
00000000
01000000
01030000
,
02010000
00000000
10000000
13000000
,
21000000
00000000
00010000
30020000
,
00000000
00000000
00000000
00030000
;

//---------------dance-double - ----------------
#NOTES:
     dance-double:
     DIFFICULT:
     Medium:
     9:
     0.394233,0.363439,0.000000,0.011644,0.000000,237.000000,237.000000,0.000000,1.000000,0.000000,0.000000,0.394233,0.363439,0.000000,0.011644,0.000000,237.000000,237.000000,0.000000,1.000000,0.000000,0.000000:
10000000
00000000
00000000
01000000
00000000
00000000
00010000
00000000
,
00000000
00001000
00000000
00000000
00010000
00000000
00000000
00000000
,
00001000
00000000
00000000
00000100
00000000
00000000
00000001
00000000
,
00000000
00001000
00000000
00000000
00000001
00000000
00000000
00000000
,
00000001
00000000
00000000
00000010
00000000
00000000
00001000
00000000
,
00000000
00010000
00000000
00000000
00001000
00000000
00000000
00000000
,
00010000
00000000
00000000
00100000
00000000
00000000
10000000
00000000
,
00000000
00010000
00000000
00000000
10000000
00000000
00000000
00000000
,
10000000
00010000
01000000
00000000
00000000
01000000
00010000
00000000
,
00010000
10000000
00100000
00000000
00000000
00100000
10000000
00000000
,
00010000
00100000
00010000
00000000
00000000
00100000
00001000
00000000
,
00010000
00001000
00010000
00000000
00000000
00001000
00010000
00000000
,
00000010
00010000
00000010
00000000
00000000
00001000
00000010
00000000
,
00010000
00001000
00010000
00000000
00000000
00001000
00010000
00000000
,
00001000
01000000
00001000
00000000
00000000
00010000
00001000
00000000
,
00010000
00000100
00010000
00000000
00000000
00001000
00010000
00000000
,
00001000
00000010
00001000
00000000
00000000
00000010
00000001
00000000
,
00000001
00000100
00000001
00000000
00000000
00000100
00001000
00000000
,
00001000
00000100
00001000
00000000
00000000
00001000
00010000
00000000
,
00010000
00001000
00010000
00000000
00000000
00001000
00010000
00000000
,
00010000
00100000
00010000
00000000
00000000
00100000
10000000
00000000
,
10000000
01000000
10000000
00000000
00000000
01000000
00010000
00000000
,
00010000
01000000
00010000
00000000
00000000
00010000
00001000
00000000
,
00001000
00010000
00001000
00000000
00000000
00010000
00001000
00000000
,
00010000
00000000
00010000
00001000
00000000
00001000
00010000
00000000
,
00010000
00100000
00000000
10000000
00000000
00100000
00000000
00000000
,
00100000
00000000
00100000
10000000
00000000
10000000
00100000
00000000
,
00100000
10000000
00000000
01000000
00000000
10000000
00000000
00000000
,
10000000
00000000
10000000
01000000
00000000
01000000
10000000
00000000
,
10000000
01000000
00000000
00010000
00000000
01000000
00000000
00000000
,
01000000
00000000
01000000
00010000
00000000
00010000
01000000
00000000
,
01000000
00010000
00000000
00001000
00000000
00010000
00000000
00000000
,
00001000
00000000
00001000
00010000
00000000
00010000
00001000
00000000
,
00001000
00000100
00000000
00000001
00000000
00000100
00000000
00000000
,
00000100
00000000
00000100
00000001
00000000
00000001
00000100
00000000
,
00000100
00000001
00000000
00000010
00000000
00000001
00000000
00000000
,
00000001
00000000
00000001
00000010
00000000
00000010
00000001
00000000
,
00000001
00000010
00000000
00001000
00000000
00000010
00000000
00000000
,
00000010
00000000
00000010
00001000
00000000
00001000
00000010
00000000
,
00000010
00001000
00000000
00010000
00000000
00001000
00000000
00000000
,
00010000
00001000
00010000
00100000
,
00010000
00100000
10000000
00100000
,
10000000
01000000
10000000
01000000
,
00010000
01000000
00010000
00001000
,
00010000
00001000
00000100
00001000
,
00000100
00000001
00000100
00000001
,
00000010
00000001
00000010
00001000
,
00000010
00001000
00010000
00001000
,
00001000
00010000
00001000
00000000
00000000
00000000
00000010
00000000
,
00001000
00010000
00001000
00000000
00000000
00000000
00100000
00000000
,
00010000
00001000
00010000
00000000
00000000
00000000
00000100
00000000
,
00010000
00001000
00010000
00000000
00000000
00000000
01000000
00000000
,
00001000
00000100
00001000
00010000
,
01000000
00010000
00001000
00000010
,
00001000
00010000
00100000
00010000
,
00001000
00000000
00010000
00000000
00001000
00000000
00010000
00002000
,
00000000
00000000
00000000
00003000
;

//---------------dance-double - ----------------
#NOTES:
     dance-double:
     EXPERT:
     Hard:
     11:
     0.455780,0.429519,0.034932,0.023288,0.000000,274.000000,271.000000,3.000000,2.000000,0.000000,0.000000,0.455780,0.429519,0.034932,0.023288,0.000000,274.000000,271.000000,3.000000,2.000000,0.000000,0.000000:
00010000
00000000
00000000
00001000
00000000
00000000
00000010
00000000
,
00000000
00000001
00000000
00000000
00001001
00000000
00000000
00000000
,
00000100
00000000
00000000
00000001
00000000
00000000
00000010
00000000
,
00000000
00001000
00000000
00000000
00000110
00000000
00000000
00000000
,
00000010
00001000
00000001
00000000
00000000
00000100
00000010
00000000
,
00001000
00000001
00000100
00000000
00000000
00000100
00001000
00000000
,
00000100
00001000
00010000
00000000
00000000
00001000
00010000
00000000
,
00001000
00010000
01000000
00000000
00000000
00010000
01000000
00000000
,
00010000
01000000
10000000
00000000
01000000
10000000
00100000
00000000
,
10000000
00100000
00010000
00000000
00100000
00010000
00001000
00000000
,
00010000
00001000
00000010
00000000
00001000
00000010
00000001
00000000
,
00000010
00000001
00000100
00000000
00000001
00000100
00001000
00000000
,
00000100
00001000
00010000
00000000
00001000
00010000
01000000
00000000
,
00010000
01000000
10000000
00000000
01000000
10000000
00100000
00000000
,
10000000
00100000
00010000
00000000
00100000
00010000
00001000
00000000
,
00010000
00001000
00000010
00000000
00001000
00010000
00100000
00000000
,
00010000
00100000
01000000
00000000
01000000
00010000
00100000
00000000
,
00100000
01000000
00010000
00000000
00010000
00001000
00000010
00000000
,
00001000
00000010
00000100
00000000
00000100
00001000
00000010
00000000
,
00000010
00000100
00001000
00000000
00001000
00010000
00100000
00000000
,
00100000
10000000
00100000
00000000
10000000
01000000
00010000
00000000
,
00010000
00001000
00010000
00000000
00010000
00001000
00000010
00000000
,
00000010
00000001
00000010
00000000
00000001
00000100
00001000
00000000
,
00001000
00010000
00001000
00000000
00001000
00010000
00100000
00000000
,
00010000
00000000
00010000
00100000
00000000
00100000
10000000
00000000
,
10000000
01000000
00000000
01000000
00000000
00010000
00000000
00000000
,
00010000
00000000
00010000
01000000
00000000
01000000
10000000
00000000
,
10000000
00010000
00000000
10000000
00000000
01000000
00000000
00000000
,
00010000
00000000
00010000
00001000
00000000
00001000
00000100
00000000
,
00000100
00000001
00000000
00000100
00000000
00001000
00000000
00000000
,
00001000
00000000
00001000
00000100
00000000
00000100
00000001
00000000
,
00000001
00000010
00000000
00000010
00000000
00001000
00000000
00000000
,
00001000
00000000
00001000
00000010
00000000
00000010
00000001
00000000
,
00000001
00001000
00000000
00000001
00000000
00000010
00000000
00000000
,
00001000
00000000
00001000
00010000
00000000
00010000
00100000
00000000
,
00100000
10000000
00000000
00100000
00000000
00010000
00000000
00000000
,
00010000
00000000
00010000
00001000
00000000
00001000
00000010
00000000
,
00000010
00001000
00000000
00010000
00000000
00001000
00000000
00000000
,
00001000
00000000
00001000
00010000
00000000
00010000
00100000
00000000
,
00100000
00010000
00000000
00001000
00000000
00010000
00000000
00000000
,
00001000
00000010
00000001
00001000
,
00000010
00000100
00001000
00010000
,
00010000
00100000
10000000
00010000
,
00100000
01000000
00010000
00001000
,
00010000
01000000
00100000
00010000
,
10000000
01000000
00010000
00001000
,
00001000
00000100
00000010
00001000
,
00000001
00000100
00001000
00010000
,
00010000
01000000
10000000
00000000
00000000
00010000
01000000
00000000
,
00100000
10000000
01000000
00000000
00000000
01000000
00010000
00000000
,
00010000
00001000
00000100
00000000
00000000
00000100
00000001
00000000
,
00000100
00000001
00000010
00000000
00000000
00001000
00000010
00000000
,
00001000
00000010
00000001
00000000
00000000
00001000
00000010
00000000
,
00000100
00000001
00000010
00000000
00000000
00000010
00001000
00000000
,
00001000
00010000
00100000
00000000
00000000
00100000
10000000
00000000
,
00100000
10000000
01000000
00000000
00000000
00010000
01000000
00000000
,
20020000
00000000
00000000
30030000
;

//---------------dance-double - ----------------
#NOTES:
     dance-double:
     CHALLENGE:
     Challenge:
     14:
     0.700305,0.630524,0.232880,0.395897,0.314389,421.000000,401.000000,20.000000,34.000000,0.000000,0.000000,0.700305,0.630524,0.232880,0.395897,0.314389,421.000000,401.000000,20.000000,34.000000,0.000000,0.000000:
// measure 0
20000000
00010000
00000000
30020000
01000000
00000000
02030000
00001000
,  // measure 1
00000000
03002000
00010000
00000000
00013000
00000010
00000200
00000000
,  // measure 2
00000302
00000100
00000000
00000203
00000010
00000000
00000320
00010000
,  // measure 3
00000000
00020030
00001000
00000000
00031000
00010000
02000000
00000000
,  // measure 4
03100000
00000000
00010000
00000000
10000000
00000000
00100000
00000000
00000000
01000000
00010000
00000000
00100000
00000000
00000000
01000000
,  // measure 5
10000000
00000000
01000000
00000000
00100000
00000000
00001000
00000000
00000000
00010000
00001000
00000000
00010000
00000000
00000000
00000010
,  // measure 6
00001000
00000000
00000100
00000000
00001000
00000000
00000001
00000000
00000000
00000100
00000010
00000000
00001000
00000000
00000000
00000010
,  // measure 7
00010000
00000000
00000100
00000000
00010000
00000000
00001000
00000000
00000000
00010000
00001000
00000000
00100000
00000000
00000000
00000000
,  // measure 8
01000000
10000000
02000000
00020000
03000000
02030000
20000000
03000000
,  // measure 9
30010000
00000000
01000000
00000000
00100000
10000000
00100000
10000000
00100000
00000000
01000000
00000000
00001000
00000000
00000000
00100000
,  // measure 10
00001000
00010000
00000100
00010000
00000000
00000100
00001000
00000000
,  // measure 11
00001000
00000001
00000000
00000010
00000100
00000000
00001001
00000000
,  // measure 12
00000010
00000000
00000001
00000000
00001000
00000000
00000010
00001000
00000010
00000000
00001000
00000000
00000001
00000000
00000000
00000010
,  // measure 13
00000100
00000000
00001000
00000000
00000010
00000000
00001000
00000100
00001000
00000000
00000100
00000000
00010000
00000000
00000000
01000000
,  // measure 14
00100000
00000000
00010000
00000000
10000000
00000000
00100000
01000000
00100000
00000000
01000000
00000000
00010000
00000000
00000000
00100000
,  // measure 15
01000000
00000000
10000000
00000000
00010000
00000000
01000000
00010000
01000000
00000000
00001000
00000000
00010000
00000000
00000000
00000000
,  // measure 16
00000100
00010000
00000020
00000200
00000030
00000302
00002000
00000003
,  // measure 17
00003100
00000000
00000010
00000000
00000001
00001000
00000001
00001000
00000001
00000000
00000100
00000000
00001000
00000000
00000000
00100000
,  // measure 18
00001000
00010000
00001000
01000000
00000000
00010000
10000000
00000000
,  // measure 19
01000000
00100000
00000000
00010000
00100000
00000000
01100000
00000000
,  // measure 20
10000000
00000000
00010000
00000000
00100000
00000000
01000000
00000000
10000000
01000000
10000000
00000000
00010000
00000000
00000000
01000000
,  // measure 21
00010000
00000000
00100000
00000000
00001000
00000000
00010000
00001000
00010000
00000000
00000010
00000000
00000100
00000000
00000000
00000001
,  // measure 22
00001000
00000000
00000100
00000000
00000010
00000000
00000001
00000000
00001000
00000010
00001000
00000000
00000010
00000000
00000000
00010000
,  // measure 23
00000100
00000000
00010000
00000000
00001000
00000000
00100000
00010000
00100000
00000000
00010000
00000000
10000000
00000000
00000000
00000000
,  // measure 24
01100000
00000000
10000000
10000000
00010000
00010000
00100000
00100000
,  // measure 25
10000000
00000000
01000000
00000000
00001000
00000000
00010000
00000000
00001000
00010000
00000000
00000000
00010010
00000000
00000000
00000000
,  // measure 26
00000110
00000000
00000001
00000001
00001000
00001000
00000010
00000010
,  // measure 27
00000001
00000000
00000001
00000000
00000100
00000000
00010000
00000000
00001000
00010000
00000000
00001000
00010000
00000000
00000000
00000000
,  // measure 28
00101000
00000000
01000000
00010000
00100000
01000000
10000000
00010000
,  // measure 29
01000000
00000000
00001000
00000000
00010000
00000000
01000000
00000000
00010000
00001000
00000000
00010000
00001000
00000000
00000000
00000000
,  // measure 30
00010100
00000000
00001000
00000001
00000010
00000100
00001000
00000100
,  // measure 31
00010000
00000000
00001000
00000000
00010000
00000000
00000100
00000000
00010000
00000000
00000000
00001000
00010000
00000000
00001000
00000000
,  // measure 32
00100000
01000000
20000000
00200000
30000000
02300000
00020000
03000000
,  // measure 33
00130000
00000000
00001000
00000000
00010000
00001000
00010000
00001000
00010000
00000000
00000100
00000000
00000010
00000000
00000001
00000000
,  // measure 34
00001000
00000000
00000010
00000100
00010000
00100000
10000000
01000000
,  // measure 35
00010000
00000000
00100000
00000000
00000000
00000000
01000000
00000000
10000000
00010000
00000000
10000000
00010000
00000000
01000000
00000000
,  // measure 36
00100000
00000000
10000000
01000000
00010000
00000100
00000001
00000010
,  // measure 37
00001000
00000000
00000100
00000000
00000000
00000000
00000010
00000000
00000001
00001000
00000000
00000001
00001000
00000000
00000010
00000000
,  // measure 38
00000100
00000000
00000010
00010000
00000100
00001000
00010000
00100000
,  // measure 39
00010000
00000000
10000000
00000000
00000000
00000000
01000000
00000000
00100000
01000000
00000000
00100000
01000000
00000000
10000000
00000000
,  // measure 40
00000000
00000000
00020000
02000000
00030000
03200000
20000000
00300000
,  // measure 41
30100000
00000000
01000000
00000000
00010000
10000000
00010000
10000000
00010000
00000000
00100000
00000000
00001000
00000000
00000100
00000000
,  // measure 42
00000010
00001000
00000001
00001000
00000001
00000010
00000100
00000010
,  // measure 43
00000100
00000000
00001000
00000000
00000000
00000000
00000001
00000000
00000010
00000000
00000100
00000000
00000010
00000000
00000001
00001000
,  // measure 44
00000001
00001000
00000000
00010010
00000000
00010000
00000000
00101000
,  // measure 45
00000000
00000000
00010000
00000000
00000000
00000000
10010000
00000000
00000000
01000000
00010000
00000000
00100000
00000000
00001000
00000000
,  // measure 46
00000000
00011000
00000000
00000100
00000000
00010100
00000000
00001000
,  // measure 47
00000000
00000000
00001001
00000000
00000000
00000000
00000010
00000000
00000001
00001000
00000000
00000001
00001000
00000000
00000010
00000000
,  // measure 48
00000220
00000000
00000000
00000330
,  // measure 49
00000001
00000000
00001000
00000000
00000010
00000000
00001000
00000000
00000000
00000100
00010000
00000000
00011000
00000000
00000000
00000000
,  // measure 50
00100000
00001000
01000000
00001000
00000000
00010000
01010000
00000000
,  // measure 51
10000000
00000000
00100000
00000000
01000000
00000000
00010000
00000000
10010000
00000000
00000000
00100000
01000000
00000000
01001000
00000000
,  // measure 52
00000000
00000000
00020000
00000020
00030000
00002030
00000200
00003000
,  // measure 53
00001300
00000000
00000001
00000000
00000010
00000100
00000010
00000100
00000010
00000100
00000010
00000000
00000100
00000000
00010000
00000000
,  // measure 54
00001000
00100000
01000000
10000000
00000000
00010000
01010000
00000000
,  // measure 55
10000000
00000000
01000000
00000000
00010000
00000000
00001000
00000000
00010000
00001000
00000000
00010000
00001000
00000000
00022000
00000000
,  // measure 56
00000000
00000000
00000000
00000000
,  // measure 57
00033000
00000000
00000000
00000000
;
