#VERSION:0.83;
#TITLE:CRAZY BEAT;
#SUBTITLE:;
#ARTIST:blur;
#TITLETRANSLIT:;
#SUBTITLETRANSLIT:;
#ARTISTTRANSLIT:;
#GENRE:;
#ORIGIN:;
#TAGS:;
#CREDIT:;
#BANNER:CRAZY BEAT.png;
#BACKGROUND:CRAZY BEAT-bg.png;
#PREVIEWVID:;
#JACKET:CRAZY BEAT-jacket.png;
#CDIMAGE:;
#DISCIMAGE:;
#LYRICSPATH:;
#CDTITLE:Zip Mania 7.png;
#MUSIC:CRAZY BEAT.ogg;
#OFFSET:-0.298000;
#SAMPLESTART:42.160976;
#SAMPLELENGTH:15.000000;
#SELECTABLE:YES;
#DISPLAYBPM:136.000000;
#BPMS:0.000000=136.192001
,32.000000=135.738998
,48.000000=136.067993
,56.000000=137.901001
,60.000000=124.848007
,61.000000=136.235001
,72.000000=137.300995
,80.000000=132.994995
,81.000000=134.757996
,84.000000=136.755005
,88.000000=133.753998
,89.000000=129.537003
,90.000000=140.391998
,91.000000=138.302002
,92.000000=135.630005
,96.000000=124.605003
,97.000000=139.550995
,100.000000=138.242004
,101.000000=130.505997
,102.000000=136.283997
,111.000000=148.460999
,112.000000=134.203003
,118.000000=142.878006
,119.000000=126.698997
,120.000000=139.388000
,125.000000=133.332993
,125.500000=125.407990
,126.500000=131.313995
,127.000000=130.813995
,127.500000=148.347000
,128.000000=137.113007
,130.000000=142.119995
,132.000000=130.233994
,133.000000=131.548996
,134.000000=136.050995
,146.000000=134.757004
,151.000000=142.089005
,152.000000=132.798004
,154.000000=141.182999
,156.000000=136.029007
,160.000000=135.074997
,173.000000=131.960999
,174.500000=149.718994
,175.000000=138.735001
,176.000000=134.244995
,180.000000=135.936005
,187.000000=142.531998
,188.000000=135.287003
,189.500000=129.199997
,190.500000=138.320007
,192.000000=130.774002
,193.500000=130.403000
,195.000000=141.781006
,196.000000=130.981003
,197.000000=139.667007
,199.000000=147.095993
,200.000000=130.423004
,201.500000=130.399002
,203.000000=141.809006
,204.000000=130.240005
,205.000000=139.248001
,207.000000=148.567993
,208.000000=130.423004
,209.500000=130.399002
,211.000000=141.809006
,212.000000=130.240005
,213.000000=139.248001
,215.000000=148.567993
,216.000000=130.423004
,217.500000=130.399002
,219.000000=141.809006
,220.000000=130.240005
,221.000000=139.248001
,223.000000=140.000000
,224.000000=136.000000
,236.000000=133.000000
;
#STOPS:;
#DELAYS:;
#WARPS:;
#TIMESIGNATURES:0.000000=4=4
;
#TICKCOUNTS:0.000000=4
;
#COMBOS:0.000000=1
;
#SPEEDS:0.000000=1.000000=0.000000=0
;
#SCROLLS:0.000000=1.000000
;
#LABELS:0.000000=Song Start
;
#BGCHANGES:0.000=CRAZY BEAT.mp4=1.000=1=0=0=StretchNoLoop==CrossFade==,
243.000=CRAZY BEAT-bg.png=1.000=0=0=1=====,
99999=-nosongbg-=1.000=0=0=0 // don't automatically add -songbackground-
;
#KEYSOUNDS:;
#ATTACKS:
;

//---------------dance-single - ----------------
#NOTEDATA:;
#CHARTNAME:;
#CHARTHASH:2147483647;
#STEPSTYPE:dance-single;
#BANNER:;
#DESCRIPTION:;
#CHARTSTYLE:;
#DIFFICULTY:Beginner;
#METER:2;
#METERF:2.000000;
#LASTSECONDHINT:105.816002;
#RADARVALUES:0.116989,0.166809,0.037224,0.000000,0.000000,88.000000,84.000000,4.000000,0.000000,0.000000,0.000000,0.000000,0.000000,0.000000,0.116989,0.166809,0.037224,0.000000,0.000000,88.000000,84.000000,4.000000,0.000000,0.000000,0.000000,0.000000,0.000000,0.000000;
#CREDIT:;
#DISPLAYBPM:136.000000;
#NOTES:
0000
0000
0000
0000
,
0000
0000
0000
0000
,
0000
0000
0000
0000
,
0000
0000
0000
0000
,
1000
0000
0000
0000
,
1000
0000
0000
0000
,
0001
0000
0000
0000
,
0001
0000
0000
0000
,
0100
0000
0000
0000
,
0100
0000
0000
0000
,
0010
0000
0000
0000
,
0010
0000
0000
0000
,
1000
1000
1000
0000
,
1000
0000
0000
0000
,
1001
0000
0000
0000
,
0000
0000
0000
0000
,
0100
0100
0100
0000
,
0100
0000
0000
0000
,
0010
0010
0010
0000
,
0010
0000
0000
0000
,
1000
1000
1000
0000
,
1000
0000
0000
0000
,
0001
0001
0001
0000
,
0001
0000
0000
0000
,
1000
0000
1000
0000
,
1000
0000
0000
0000
,
0001
0000
0001
0000
,
0001
0000
0000
0000
,
0100
0000
0100
0000
,
0100
0000
0000
0000
,
1001
0000
0000
0000
,
0000
0000
0000
0000
,
0001
0000
0001
0000
,
0001
0000
0000
0000
,
0010
0000
0010
0000
,
0010
0000
0000
0000
,
0100
0000
0100
0000
,
0100
0000
0000
0000
,
1000
0000
1000
0000
,
1000
0000
0000
0000
,
1001
0000
0000
0000
,
0000
0000
0000
0000
,
0010
0000
0000
0000
,
0100
0000
0000
0000
,
0010
0000
0100
0000
,
0010
0000
0000
0000
,
1000
0000
0001
0000
,
1000
0000
0000
0000
,
0001
0001
0001
0000
,
0001
0000
0000
0000
,
1000
1000
1000
0000
,
1000
0000
0000
0000
,
0010
0010
0010
0000
,
0010
0000
0000
0000
,
0100
0100
0100
0000
,
0100
0000
0000
0000
,
1001
0000
0000
0000
,
0010
0010
0010
0000
,
0000
0000
0000
0000
,
0100
0100
0100
0100
;

//---------------dance-single - ----------------
#NOTEDATA:;
#CHARTNAME:;
#CHARTHASH:2120515276;
#STEPSTYPE:dance-single;
#BANNER:;
#DESCRIPTION:;
#CHARTSTYLE:;
#DIFFICULTY:Easy;
#METER:5;
#METERF:5.000000;
#LASTSECONDHINT:106.041565;
#RADARVALUES:0.244614,0.278597,0.139589,0.158201,0.000000,184.000000,169.000000,15.000000,17.000000,0.000000,0.000000,0.000000,0.000000,0.000000,0.244614,0.278597,0.139589,0.158201,0.000000,184.000000,169.000000,15.000000,17.000000,0.000000,0.000000,0.000000,0.000000,0.000000;
#CREDIT:;
#DISPLAYBPM:136.000000;
#NOTES:
0000
0000
0000
0000
,
0000
0000
0000
0000
,
0000
0000
0000
0000
,
0000
0000
0000
0000
,
1000
1000
1000
0000
,
0001
0001
0001
0000
,
0100
0100
0100
0000
,
0010
0000
1000
0000
0000
0001
0000
0000
,
0102
0000
0100
0000
,
0203
0010
0310
0000
,
2010
0000
0001
0000
,
3002
1000
1003
0000
,
1000
0010
1000
0001
,
0200
0010
0310
0000
,
2002
0000
0000
0000
,
0000
3003
0100
0010
,
0100
0000
0100
0000
,
0001
0001
1000
1000
,
0010
0100
0001
0010
,
1000
0010
0001
0100
,
0010
0000
0010
0000
,
1000
1000
0100
0100
,
0010
0001
0010
1000
,
0010
0001
0100
0010
,
1000
0000
0010
0000
,
0100
0100
0100
0100
,
0001
0000
0100
0000
,
0010
0010
0010
0010
,
1000
0000
0001
0000
,
1000
1000
1000
1000
,
1001
0000
0000
0000
,
0000
0100
0000
0010
,
1001
0000
0010
0000
,
1000
1000
1000
1000
,
1001
0000
0010
0000
,
0001
0001
0001
0001
,
1001
0000
0100
0000
,
1000
1000
1000
1000
,
2002
0000
0000
0000
,
0000
3003
1000
0001
,
1002
0000
0010
0000
,
0023
0001
0001
0001
,
0032
0000
1000
0000
,
2003
0100
0100
3100
,
1001
0000
0010
0000
,
0100
0001
0010
1000
,
0110
0000
0001
0000
,
1000
0100
0001
0100
,
1002
0000
1003
1000
,
1000
0010
0100
0001
,
2001
0000
3001
0001
,
0001
0100
0010
1000
,
1002
0000
0103
0100
,
0100
0010
1000
0100
,
2001
0000
3010
0010
,
0010
0100
0010
0001
,
0010
1000
0100
0000
,
1000
1000
0001
0001
,
0100
0001
0010
0000
,
0001
0000
0001
0000
0001
0000
0001
1000
;

//---------------dance-single - ----------------
#NOTEDATA:;
#CHARTNAME:;
#CHARTHASH:2147483647;
#STEPSTYPE:dance-single;
#BANNER:;
#DESCRIPTION:;
#CHARTSTYLE:;
#DIFFICULTY:Medium;
#METER:8;
#METERF:8.000000;
#LASTSECONDHINT:106.041565;
#RADARVALUES:0.358944,0.445756,0.316403,0.260567,0.000000,270.000000,236.000000,34.000000,28.000000,0.000000,0.000000,0.000000,0.000000,0.000000,0.358944,0.445756,0.316403,0.260567,0.000000,270.000000,236.000000,34.000000,28.000000,0.000000,0.000000,0.000000,0.000000,0.000000;
#CREDIT:;
#DISPLAYBPM:136.000000;
#NOTES:
0000
0000
0000
0000
,
0000
0000
0000
0000
,
0000
0000
0000
0000
,
0000
0000
0000
0000
,
1001
0000
0001
0010
0001
0000
1000
0000
,
1010
0000
0010
0100
0010
0000
1001
0000
,
0110
0000
0100
0001
0100
0000
0001
0010
,
0000
0001
1000
0000
1000
0100
0000
1000
,
0002
0000
0010
0000
,
2003
0010
0010
0010
,
3010
0010
0000
1000
0001
1000
0000
0001
,
0200
0010
0010
0310
,
1001
0000
0010
1000
0010
0000
1000
0000
,
0100
0000
0010
0001
0010
0000
0001
0000
,
2002
0000
0000
0000
,
3003
0000
0000
0000
0100
0010
0100
0010
,
0200
0301
0002
1003
,
1010
0000
0010
0100
0001
0100
0010
0000
,
1000
0100
0010
0001
,
1000
0100
0010
0100
,
2000
3001
0002
0103
,
0110
0000
0010
1000
0001
1000
0010
0000
,
0220
0000
0000
0000
,
0330
0000
0000
0000
0001
1000
0001
1000
,
0002
0000
1000
1003
0000
0010
0000
0100
,
0001
0101
0101
1001
,
2000
0000
0010
3010
0000
0100
0000
0001
,
1000
0110
0110
1001
,
0001
0010
0100
1000
0000
0100
0001
0000
,
1100
1100
1100
1001
,
0110
0000
0000
0000
,
0000
0000
1000
0001
0000
0001
1000
0000
,
0020
0000
0230
0000
,
0301
0010
0001
0000
0100
0001
0100
0000
,
0020
0000
2030
0000
,
3001
0100
0001
0000
1000
0001
1000
0000
,
0110
0000
0010
1000
0010
0000
1000
0000
,
1001
0000
0001
0010
0001
0000
0101
0000
,
0110
0000
0010
1000
0010
0000
1000
0000
,
1001
0000
0001
0010
0001
0000
1000
0000
,
2002
0000
0000
3000
,
0200
0000
0000
0003
,
0320
0000
0000
1000
2030
0000
0000
0100
,
3100
1001
0010
1001
,
0100
1000
0000
0100
1000
0100
0000
1000
,
0001
0010
0100
1000
,
0100
0010
0000
0100
1000
0100
0000
1000
,
0001
0000
0010
0001
0000
0001
1000
0000
,
1001
0000
1000
0100
0001
0000
0001
0100
,
1000
0100
1000
0010
,
0110
0000
0001
0010
1000
0000
1000
0010
,
0001
0010
0001
1000
,
0110
0000
1000
0100
0001
0000
0001
0100
,
1000
0001
0100
0010
,
0110
0000
0001
0010
1000
0000
1000
0010
,
0001
0010
0100
1000
,
2002
0000
0000
3003
,
0200
0010
0010
0310
,
2002
0000
0000
3003
,
0020
0000
0100
0000
0100
0000
0130
0010
;

//---------------dance-single - ----------------
#NOTEDATA:;
#CHARTNAME:;
#CHARTHASH:1566017099;
#STEPSTYPE:dance-single;
#BANNER:;
#DESCRIPTION:;
#CHARTSTYLE:;
#DIFFICULTY:Hard;
#METER:11;
#METERF:11.000000;
#LASTSECONDHINT:106.041565;
#RADARVALUES:0.507840,0.501475,0.279179,0.251261,0.069795,382.000000,352.000000,30.000000,27.000000,0.000000,0.000000,0.000000,0.000000,0.000000,0.507840,0.501475,0.279179,0.251261,0.069795,382.000000,352.000000,30.000000,27.000000,0.000000,0.000000,0.000000,0.000000,0.000000;
#CREDIT:;
#DISPLAYBPM:136.000000;
#NOTES:
// measure 0
0000
0000
0000
0000
,  // measure 1
0000
0000
0000
0000
,  // measure 2
0000
0000
0000
0000
,  // measure 3
0000
0000
0000
0000
,  // measure 4
1001
0000
0001
0010
0100
1000
0000
0100
,  // measure 5
0010
0001
0010
1000
0010
0000
0011
0000
,  // measure 6
1001
0000
1000
0100
0010
0001
0000
0100
,  // measure 7
1000
0000
0100
0001
0000
0100
0010
0000
,  // measure 8
1001
0000
1000
0000
0000
0100
1000
0000
0010
0000
0100
0000
0000
0000
0010
0000
,  // measure 9
0001
1010
0001
0110
,  // measure 10
1000
1000
0000
0001
0010
0010
0000
0001
,  // measure 11
1000
0000
0011
0000
0100
0010
0010
0010
,  // measure 12
0010
0000
1000
0000
0000
0001
0100
0000
0001
0000
1000
0000
0100
0000
0010
0000
,  // measure 13
0001
0000
0000
0000
1100
0000
0000
0000
0010
0000
0000
1000
0001
0000
1000
0000
,  // measure 14
1001
0000
0000
0001
0010
0000
0100
0000
1000
0000
0100
0000
0010
0000
0001
0000
,  // measure 15
1001
0000
0010
0000
0100
0010
0010
0010
,  // measure 16
0010
2000
0000
3010
0100
0020
0000
0130
,  // measure 17
0001
0200
0000
0301
0010
0100
1000
0100
,  // measure 18
0010
0001
0010
0001
0010
1000
0010
1000
,  // measure 19
0010
0001
1000
0100
0100
0100
0100
0000
,  // measure 20
1000
0002
0000
0013
0100
2000
0000
3001
,  // measure 21
0100
0020
0000
1030
0001
0100
0010
1000
,  // measure 22
1001
0000
0110
0000
1000
0100
0010
0001
,  // measure 23
1000
0000
0000
0010
1000
0000
0010
0000
0100
0000
0001
0000
0001
0000
0001
0000
,  // measure 24
0001
2000
0000
3010
0100
0020
0000
1030
,  // measure 25
0001
0100
1000
0100
0001
0010
0100
1000
,  // measure 26
0100
0020
0000
0031
1000
0200
0000
1300
,  // measure 27
0001
0010
1000
0010
0001
1000
0100
0010
,  // measure 28
0001
2000
0000
3010
0100
0002
0000
1003
,  // measure 29
0001
0010
1000
0010
0001
1000
0100
0010
,  // measure 30
1001
0000
0000
0000
,  // measure 31
0000
0000
1000
1001
0000
0010
0010
0010
,  // measure 32
0010
0000
0100
0000
0000
0000
0010
1000
0010
0000
0100
0000
0000
0000
0001
0000
,  // measure 33
1001
0100
1001
0010
,  // measure 34
0001
0000
0100
0000
0000
0000
0001
0010
0001
0000
1000
0000
0000
0000
0100
0000
,  // measure 35
0011
0000
1000
0000
1100
0000
0001
1000
,  // measure 36
0100
0000
0010
0000
0000
0000
0100
1000
0100
0000
1000
0000
0001
0000
0010
0000
,  // measure 37
1100
0010
1001
0100
,  // measure 38
1001
0000
0001
0010
0100
0010
0000
0001
,  // measure 39
1000
0100
0010
0100
1000
0000
1001
0000
,  // measure 40
0220
0000
0030
0000
0001
0000
0000
1000
,  // measure 41
1000
0001
0001
0302
,  // measure 42
2003
0010
0000
3010
0100
0002
0000
1003
,  // measure 43
0100
0010
0001
0010
0100
1000
0100
0001
,  // measure 44
1000
0000
0010
0000
0000
0000
0001
0010
0001
0000
1000
0000
0010
0000
0100
0000
,  // measure 45
0001
0000
0000
0000
1001
0000
0000
0000
0010
0000
0000
1000
0010
0000
0100
0000
,  // measure 46
0001
0000
1000
0000
0000
0000
0010
0100
0010
0000
0100
0000
0000
0000
0001
0000
,  // measure 47
0010
0000
1100
0001
0000
1000
1100
0001
,  // measure 48
1001
0002
0000
0103
0010
0002
0000
0013
,  // measure 49
1000
0100
0001
1000
0010
0001
0010
0100
,  // measure 50
1000
0002
0000
1003
0100
0020
0000
0031
,  // measure 51
1000
0100
0001
0100
0010
0001
0010
0100
,  // measure 52
1000
0002
0000
0013
0100
2000
0000
3001
,  // measure 53
1000
0010
0001
1000
0100
0001
1000
0200
,  // measure 54
0000
1300
0001
0020
0000
0031
1000
0001
,  // measure 55
0010
0100
1000
0100
0001
0100
1000
0002
,  // measure 56
0000
0000
1003
0000
0000
0000
0100
0000
0000
0000
1000
0001
1000
0000
0001
0010
,  // measure 57
0001
0000
0000
0000
1010
0000
0000
0000
0101
0000
0000
0001
1000
0000
0100
0000
,  // measure 58
0010
0000
0001
0000
0000
0000
1000
0000
0000
0000
0010
0000
0000
0000
0100
0010
,  // measure 59
0200
0000
0010
0000
0010
0000
0310
1001
;
