#TITLE:CLASSIC PARTY 復活。;
#SUBTITLE:;
#ARTIST:小野秀幸;
#TITLETRANSLIT:CLASSIC PARTY fukkatsu;
#SUBTITLETRANSLIT:;
#ARTISTTRANSLIT:HIDEYUKI ONO;
#GENRE:;
#CREDIT:;
#BANNER:CLASSIC PARTY fukkatsu.png;
#BACKGROUND:CLASSIC PARTY fukkatsu-bg.png;
#LYRICSPATH:;
#CDTITLE:GUITAR FREAKS & drummania.png;
#MUSIC:CLASSIC PARTY fukkatsu.ogg;
#OFFSET:-0.424000;
#SAMPLESTART:16.583000;
#SAMPLELENGTH:15.000000;
#SELECTABLE:YES;
#DISPLAYBPM:44.000000:420.000000;
#BPMS:0.000000=44.000000
,3.666667=42.599998
,4.000000=44.000000
,6.000000=42.000000
,7.000000=38.000000
,8.000000=54.000000
,8.750000=52.500000
,9.500000=49.500000
,10.250000=39.000000
,11.000000=174.000000
,71.000000=184.000000
,75.000000=186.000000
,79.000000=226.000000
,84.000000=230.000000
,92.000000=220.000000
,93.000000=230.000000
,98.000000=236.000000
,102.000000=242.000000
,105.000000=220.000000
,106.000000=110.500000
,107.000000=110.000000
,113.000000=111.000000
,114.000000=110.000000
,135.500000=113.000000
,136.000000=110.000000
,137.500000=109.000000
,138.000000=420.000000
,202.000000=204.000000
,216.000000=208.000000
,226.000000=212.000000
,230.000000=216.000000
,233.500000=212.000000
,234.000000=216.000000
,266.000000=220.000000
,267.000000=226.000000
,271.000000=227.000000
,275.000000=228.000000
,279.000000=229.000000
,283.000000=230.000000
,287.000000=231.000000
,291.000000=232.000000
,295.000000=236.000000
,299.000000=240.000000
,303.000000=241.000015
,307.000000=242.000000
,311.000000=243.000015
,315.000000=244.000000
,319.000000=245.000015
,323.000000=246.000000
,327.000000=247.000000
,331.000000=248.000000
,335.000000=249.000000
,339.000000=249.999985
,343.000000=251.000000
,347.000000=251.999985
,351.000000=253.000000
,355.000000=253.999985
,359.000000=255.000000
,363.000000=256.000000
,367.000000=257.000000
,371.000000=258.000000
,375.000000=244.000000
,381.000000=240.000000
,391.000000=210.000000
,395.000000=178.867004
,404.000000=165.000000
;
#STOPS:77.000000=0.968000,
78.000000=0.968000,
79.000000=0.974000,
92.000000=1.364000,
93.000000=1.364000,
266.000000=0.818000
;
#BGCHANGES:0.000=CLASSIC PARTY fukkatsu.mp4=1.000=1=0=0=StretchNoLoop==CrossFade==,
404.000=CLASSIC PARTY fukkatsu-bg.png=1.000=0=0=1=====,
99999=-nosongbg-=1.000=0=0=0 // don't automatically add -songbackground-
;
#KEYSOUNDS:;
#ATTACKS:;

//---------------dance-single - ----------------
#NOTES:
     dance-single:
     :
     Beginner:
     6:
     0.183327,0.299681,0.133521,0.044507,0.000000,173.000000,155.000000,18.000000,6.000000,0.000000,0.000000,0.183327,0.299681,0.133521,0.044507,0.000000,173.000000,155.000000,18.000000,6.000000,0.000000,0.000000:
0000
0000
0000
0000
,
0000
0000
0000
0000
,
0000
0000
0000
0000
,
0000
0000
0000
1000
,
0000
1000
0000
1000
,
0000
1000
0000
0010
,
0000
0100
0000
0010
,
0010
0010
0000
1000
,
0000
1000
0000
1000
,
0000
1000
0000
0100
,
0000
0010
0000
0001
,
0001
0001
0000
1000
,
0000
1000
0000
0010
,
0010
0010
0000
1000
,
0000
1000
0000
0100
,
0100
0100
0000
1000
,
0000
0001
0000
1000
,
0000
0001
0000
0100
,
0000
0010
0000
0100
,
0000
2002
0000
3003
,
0100
0000
0100
0000
,
0100
0000
0010
0000
,
0010
0000
0010
0000
,
2002
3003
1000
0000
,
1000
0000
0001
0000
,
0001
0000
1000
0000
,
1000
0000
1001
0000
,
1000
0000
0010
0000
,
0100
0000
0001
0000
,
0010
0000
0001
0000
,
1000
0000
0100
0000
,
1001
0000
0010
0000
,
1001
0000
0100
0000
,
1001
0000
0010
0000
,
0100
0000
0010
0000
,
0000
0000
0000
0000
,
0000
0000
0010
0000
,
0000
0000
0000
0000
,
0000
0000
0100
0000
,
0000
0000
0000
0000
,
0000
0000
0100
0000
,
0000
0000
0000
0000
,
0000
0000
0001
0000
,
0000
0000
0000
0000
,
0000
0000
0001
0000
,
0000
0000
0000
0000
,
0000
0000
1000
0000
,
0000
0000
0000
0000
,
0000
0000
1000
0000
,
0000
0000
0000
0000
,
0000
0000
1001
0000
,
1001
0000
1001
0000
,
0000
0000
0100
0000
,
0100
0000
0110
0000
,
0000
0000
1000
0000
,
1000
0000
1000
0000
,
0000
0000
0001
0000
,
0001
0000
0001
0000
,
0000
0000
0100
0000
,
0100
0000
0100
0000
,
0100
0000
0100
0000
,
0000
0000
0010
0000
,
0010
0000
0010
0000
,
0000
0000
1000
0000
,
1000
0000
1000
0000
,
0000
0000
0001
0000
,
0001
0000
1001
1000
,
0000
1000
0000
1000
,
0000
0000
0000
0001
,
0000
0001
0000
0001
,
0000
0000
0000
0100
,
0000
0100
0000
0100
,
0000
0000
0000
0010
,
0000
0010
0000
0010
,
0000
0000
0000
0100
,
0000
0100
0000
0100
,
0000
0000
0000
0010
,
0000
0010
0000
0010
,
0000
0000
0000
1000
,
0000
1000
0000
1000
,
0000
0000
0000
0001
,
0000
0001
0000
0001
,
0000
0000
0000
1000
,
1000
1000
0000
1000
,
0000
0000
0000
0001
,
0001
0001
0000
0001
,
0000
0100
0000
0010
,
0000
1000
0000
0100
,
0000
0010
0000
0001
,
0000
0010
0000
0100
,
0000
1000
0000
0001
,
0000
1000
0000
0001
,
0000
0100
0000
0010
,
0000
0100
0000
0110
,
0000
0110
0000
0110
,
0000
0000
0000
1001
,
0000
1001
0000
1001
,
0000
0000
0000
0100
,
0000
0010
0000
2002
,
0000
0000
0000
0000
,
0000
0000
0000
0000
,
3003
0000
0000
0000
;

//---------------dance-single - ----------------
#NOTES:
     dance-single:
     :
     Easy:
     8:
     0.334863,0.599362,0.244789,0.118686,0.000000,316.000000,283.000000,33.000000,16.000000,0.000000,0.000000,0.334863,0.599362,0.244789,0.118686,0.000000,316.000000,283.000000,33.000000,16.000000,0.000000,0.000000:
0000
0000
0000
0000
,
0000
0000
0000
0000
,
0000
0000
0000
0000
,
0000
0000
0000
1000
,
0100
0000
0010
0001
0010
0000
0100
0000
,
1000
0000
0001
1000
0001
0000
1000
0000
,
1000
0001
0001
1001
,
0110
1001
0000
0100
,
0100
0000
0010
1000
0010
0000
0100
0000
,
0100
0000
0001
0010
0001
0000
1000
0000
,
1100
0001
0101
1001
,
0110
2002
3003
1100
,
1000
0010
1010
0000
0001
0100
0101
0000
,
0001
1000
0002
0000
0103
0000
0110
0000
,
0010
1000
1100
0000
1000
0001
0011
0000
,
0002
1003
2000
3010
,
1000
0000
0010
0100
0010
0000
0100
0000
,
0001
0000
1000
0001
1000
0000
0001
0000
,
0010
1000
0010
0001
,
0100
1001
2000
3002
,
1003
0000
1000
0000
,
0001
0000
0001
0000
,
0100
0100
0100
0000
,
1002
2003
3001
0000
,
0001
0000
1000
0000
,
1000
0000
0010
0010
,
0010
0000
1001
0100
,
1000
0100
1000
0000
0010
0000
1001
0000
,
0001
0010
0001
0000
0100
0000
0010
0000
,
1000
0100
0001
0000
0001
0100
1000
0000
,
1000
0000
1001
0000
0110
0000
0010
1000
,
0010
0000
0100
0000
0001
0000
0010
0001
,
0010
0000
0001
0000
1000
0000
0100
1000
,
0001
0000
0100
0000
1000
0100
0001
0100
,
0010
0010
0010
0000
,
0000
0000
0010
0000
,
0000
0000
0010
0000
,
0000
0000
0010
0000
,
0000
0000
0100
0000
,
0000
0000
0100
0000
,
0000
0000
0100
0000
,
0000
0000
0100
0000
,
0001
0000
1000
0000
,
0000
0000
1000
0000
,
0000
0000
1000
0000
,
0000
0000
0001
0000
,
0000
0000
0001
0000
,
0000
0000
0001
0000
,
0000
0000
0100
0000
,
0000
0000
0100
0000
,
0010
0000
1001
0000
,
1001
0000
2002
0000
,
3003
1000
0100
0100
,
1000
1000
0010
0100
,
0102
0000
1003
1010
,
0001
0101
0100
0100
,
0010
0010
1000
1000
,
0100
0100
1000
1000
,
0001
0001
0100
0100
,
0010
0000
0100
0000
,
0100
0000
0010
0000
,
0010
0000
1000
0000
,
1000
0000
0001
0100
,
0001
0100
0001
0000
,
0100
0000
0100
0000
,
0010
0000
0010
0000
,
1000
0000
1001
1000
,
0000
1000
0000
0010
,
0000
0010
0000
1000
,
0000
1000
0000
0001
,
1000
0001
1000
0001
,
0000
0100
0000
0100
,
0000
0010
0000
0010
,
0000
1000
0000
1000
,
0000
0001
0000
0001
,
0010
0001
0000
0010
,
0001
0010
0000
0001
,
1000
0001
0000
1000
,
0000
1000
0000
0010
,
0100
0010
0000
0100
,
0001
0100
0000
0001
,
1000
0001
0000
1000
,
0001
1000
0000
0010
,
0000
1010
0000
0010
,
0100
0010
0000
0100
,
0000
0101
0000
0100
,
0010
0100
0000
0001
,
1000
0001
0000
1000
,
0010
1000
0000
0010
,
0100
0010
0000
0100
,
0001
0100
0000
0100
,
1000
0100
0000
0100
,
0010
0100
0000
0100
,
0001
0100
0000
1001
,
0000
0010
0000
1002
,
0000
0000
1003
0100
,
0010
0001
0010
0100
,
2000
0000
3001
1001
,
0000
0010
0000
2002
,
0000
0000
0000
0000
,
0000
0000
0000
0003
,
3001
0000
0000
0000
;

//---------------dance-single - ----------------
#NOTES:
     dance-single:
     :
     Medium:
     12:
     0.496996,0.711743,0.445071,0.133521,0.022254,469.000000,409.000000,60.000000,18.000000,0.000000,0.000000,0.496996,0.711743,0.445071,0.133521,0.022254,469.000000,409.000000,60.000000,18.000000,0.000000,0.000000:
0000
0000
0000
0000
,
0000
0000
0000
0000
,
0000
0000
0000
0000
,
0000
0000
0000
0000
0000
0000
1000
0001
,
1000
0000
0010
0010
0010
0000
0001
1000
,
0001
0000
0100
0100
0100
0000
0010
0010
,
0010
0000
0100
0100
0100
0000
1001
0000
,
0110
0000
2002
0000
3003
0000
1000
0100
,
1000
0000
0001
0001
0001
0000
0001
0010
,
0001
0000
1000
1000
1000
0000
0001
0001
,
0001
0000
1000
1000
1000
0000
0110
0000
,
1001
0220
0330
1010
,
1000
0010
0110
0000
0001
0100
0110
0000
,
1010
0000
1000
0100
0001
0100
1100
0000
,
1000
0001
0011
0000
0001
1000
1100
0000
,
0011
0000
0010
0001
1001
0000
0001
0001
,
0100
0000
0010
0010
1000
0100
0001
0100
,
0100
0000
1000
0001
0001
0010
0001
0001
,
1000
0010
1000
1000
0100
1000
0001
0001
,
0100
0010
2010
0000
3002
0000
2003
0000
,
3001
1000
0100
0010
,
0001
0100
0010
1000
,
1001
0110
2001
0000
,
3002
2003
3001
0100
,
0010
1000
0100
0001
,
0100
1000
0110
0101
,
1001
0000
0000
0000
0000
0000
0000
0000
0000
0000
0000
0000
0110
0000
0000
0010
0000
0000
1000
0000
0000
0000
0000
0010
,
0000
0000
0010
0000
0000
0000
1001
0000
0000
0001
0000
0000
0101
0000
0000
0100
0000
0000
0010
0000
0000
0000
0000
1000
,
0000
0000
1000
0000
0000
0000
0010
0000
0000
0100
0000
0000
0001
0000
0000
1000
0000
0000
1000
0000
0000
0100
0000
0000
,
0010
0001
0001
0000
1000
0100
0100
0000
,
0010
0100
0100
0010
1001
0000
0001
0010
,
0011
0000
0000
0000
0000
1001
0000
0000
0000
1000
0000
0000
1100
0000
0000
0000
0000
0000
1000
0000
0000
0100
0000
0000
,
0001
0100
1000
0001
0101
0000
0001
1000
,
1100
0000
0000
0000
0000
1001
0000
0000
0000
0100
0000
0000
0110
0000
0000
0000
0000
0000
1001
0000
0000
0000
0000
0000
,
0010
0010
0010
0010
0010
0000
0000
0000
,
1000
0000
0010
0000
,
0100
0000
0001
0000
,
0100
0000
0001
0000
,
1000
0000
0010
0000
,
1000
0000
0010
0000
,
0100
0000
0001
0000
,
0100
0000
1000
0000
,
0100
0000
0010
0000
,
0001
0000
0010
0000
,
0100
0000
0001
0000
,
1000
0000
0100
0000
,
0010
0000
0100
0000
,
1000
0000
0010
0000
,
0001
0000
0010
0000
,
1000
0000
0001
0000
,
0100
0000
1001
1000
,
1100
1000
2002
0000
,
3003
0001
0011
1001
,
1100
0110
2002
3003
,
0010
1000
0010
0000
0100
0000
0101
0000
,
0010
1010
1000
0001
,
0001
1000
0010
0100
,
0100
0000
0001
0000
1000
0001
1000
0000
,
0001
1000
0001
0000
0100
0010
0100
0010
,
0100
0000
0010
1000
,
0010
0001
0010
0100
,
0001
0100
1000
0100
,
0001
1000
1100
0100
,
0101
0100
1100
1000
,
0010
0001
0010
1000
,
0001
0100
1000
0100
,
0001
1000
1001
0120
,
0000
1030
0010
0100
,
0100
0001
1000
0010
,
0010
0100
0001
1001
,
0010
0010
0010
2001
,
0000
3100
1000
0100
,
0100
1000
0010
0100
,
0100
0000
0001
0000
0010
0000
0001
1000
,
0001
0000
1000
0000
0100
0000
0010
0001
,
0010
0000
0001
0010
0001
0000
1000
0000
,
1000
0000
0001
1000
0001
0000
0010
0000
,
0010
0000
0100
0010
0100
0000
0010
0000
,
0001
0000
0100
0000
1000
0000
0100
0010
,
0100
0000
0001
0100
0001
0000
1000
0000
,
1000
0000
0010
0100
0010
0000
1000
0000
,
1000
0000
0100
0001
0100
0000
1000
0000
,
0010
0100
0001
1001
,
0000
1000
0010
0000
0000
0001
0010
0000
,
1000
0010
0100
0101
,
0000
0001
1000
0000
0000
0100
0010
0000
,
0100
1000
0100
0001
,
0100
1000
0010
0100
,
0001
0010
1000
0010
,
0001
0100
0010
1000
,
0001
0100
0001
1000
,
0010
0001
0010
1000
,
0100
0010
0100
1000
,
0001
0000
0100
0001
1000
0001
1000
0000
,
1000
0000
1010
0000
1000
0001
1000
0000
,
1001
0000
0000
0001
0010
0100
1000
0000
,
1100
0110
0100
1100
,
1001
0000
0000
0001
1000
0010
0100
0000
,
0000
0010
0000
2002
,
0000
0000
0000
0000
,
0000
0000
0000
0003
,
3001
0000
0000
0000
;

//---------------dance-single - ----------------
#NOTES:
     dance-single:
     :
     Hard:
     14:
     0.640054,0.973963,0.630517,0.259625,0.111268,604.000000,519.000000,85.000000,35.000000,0.000000,0.000000,0.640054,0.973963,0.630517,0.259625,0.111268,604.000000,519.000000,85.000000,35.000000,0.000000,0.000000:
0000
0000
0000
0000
,
0000
0000
0000
0000
,
0000
0000
0000
0000
,
0000
0000
0000
0000
0000
0000
1000
0001
,
0100
0000
0000
0100
0001
0000
0001
0000
0001
0000
0000
0000
0010
0000
0001
0000
,
0010
0000
0000
0001
1000
0000
1000
0000
1000
0000
0000
0100
1000
0000
0000
0000
,
0100
0000
0000
0100
0001
0000
0000
0000
0100
0000
0000
0000
1100
0000
0000
0000
,
0101
0000
0110
0000
1000
0000
0001
0100
,
0010
0000
0000
0010
1000
0000
1000
0000
1000
0000
0000
0000
0010
0000
0100
0000
,
0010
0000
0000
1000
0001
0000
0001
0000
0001
0000
0000
0000
0100
0001
0000
0000
,
0010
0000
0000
0000
0001
1000
0000
0000
0100
0000
0000
0000
1000
0000
1000
0000
,
0010
1000
0010
1000
0010
0000
1000
0000
1001
0000
0000
0000
0021
0000
0000
0000
,
0031
0100
0120
0000
1030
0010
0100
0100
,
0001
1000
1000
0010
0100
0001
2001
0000
,
3100
1000
1020
0000
0130
0001
0010
0010
,
0001
0000
0100
0000
0100
0000
0010
0000
1000
0000
0000
0000
1001
0000
0000
0001
,
0100
0000
0000
0100
0010
0000
0100
0000
0001
0000
0010
0000
0100
0000
0000
0100
,
1000
0000
0000
0100
0001
0000
0100
0000
0010
0000
1000
0000
0010
0000
0010
0000
,
0001
0200
0000
0000
0301
0000
0001
0000
1000
0002
0000
0000
0013
0000
0010
0000
,
0001
1000
0001
1000
0002
0000
0000
0000
2003
0000
0000
0000
3002
0000
0000
0000
,
1003
0001
0010
0100
,
1000
0100
0010
0001
0100
0010
1000
0100
,
0010
0011
2001
0000
,
3002
2003
3001
0010
,
0100
0000
1000
0000
0010
0100
0001
1000
,
0010
0100
0001
1000
0010
0000
0110
0000
,
1001
0000
0000
0000
0000
0000
0000
0000
0000
0000
0000
0000
0011
0000
0000
0001
0000
0000
2000
0000
0000
0000
0000
0100
,
0000
0000
3100
0000
0000
0000
1001
0000
0000
0001
0000
0100
0001
0000
0000
0010
0000
0000
0210
0000
0000
0000
0000
0001
,
0000
0000
0301
0000
0000
0000
1100
0000
0000
1000
0000
0000
1001
0000
0000
0001
0000
0010
0001
0000
0000
1000
0000
0000
,
1001
1100
1001
0000
1001
0011
1001
0000
,
0100
0110
1001
0000
0120
0000
1030
0010
,
1010
0000
0000
0000
0000
1001
0000
0000
0000
0001
0000
0000
0021
0000
0000
0000
0000
0000
0031
0000
0000
0100
0000
0001
,
1000
0000
0001
1000
0000
0000
1100
0000
0000
1000
0000
0000
1020
0000
0000
0000
0000
0000
0130
0000
0000
0010
0000
0000
,
1010
0000
0000
0000
0000
1001
0000
0000
0000
0001
0000
0000
0100
0000
0000
0010
0000
0100
0010
0000
0000
0100
0000
0000
,
0001
0001
0001
0001
0001
0000
0100
0000
,
0001
0100
0010
1000
,
0010
1000
0100
1000
,
0100
0010
0001
0010
,
0001
1000
0001
1000
,
0001
0100
0010
1000
,
0010
0100
0001
0100
,
0010
1000
0100
1000
,
0002
0000
1003
0010
,
0001
0010
1000
0100
,
0010
0100
1000
0100
,
0001
0100
1000
0001
,
0010
0100
0010
0001
,
1000
0010
0001
0010
,
1000
0001
0010
0100
,
1000
0010
0100
0001
,
0010
0100
1000
1100
,
0001
0101
0100
0110
,
1001
0100
0101
0011
,
1001
1100
0110
1100
,
1000
0100
0010
0001
0010
0100
1000
0000
,
1000
0100
0001
0000
0001
0100
1000
0000
,
1000
0100
0010
0000
0010
0100
1000
0000
,
1000
0010
0001
0000
0001
0010
1000
0100
,
0010
0100
1000
0001
0100
0001
1000
0010
,
0100
0010
1001
0100
,
0001
0010
0100
1000
0100
0000
1100
0000
,
1000
0100
0010
0001
0010
0000
0011
0000
,
0001
1000
0100
1000
0010
0000
1010
0000
,
1000
1100
1000
1001
,
0001
0010
0100
1000
0100
0000
0110
0000
,
0010
0001
0010
1000
0010
0000
0011
0000
,
0001
0000
0000
0000
0000
0000
0000
0000
0000
0000
0000
0000
0000
0000
0000
0000
0000
0000
0000
0000
0000
0000
0000
0000
1000
0000
0000
0000
0000
0000
0000
0000
0000
0000
0000
0000
0000
0000
0000
0000
0000
0000
0000
0000
0000
0000
0000
0000
0001
0000
0000
0000
0000
0000
0000
0000
0000
0000
0000
0000
0000
0000
0000
0000
0000
0000
0000
0000
0000
0000
0000
0000
0100
0000
0000
0000
0000
0000
0000
0000
0000
0000
0000
0000
0000
0000
0000
0000
0000
0000
0000
0000
0000
0000
0000
0000
2002
3000
0000
0000
0000
0000
0000
0000
0000
0000
0000
0000
0000
0000
0000
0000
0000
0000
0000
0000
0000
0000
0000
0000
0000
0000
0000
0000
0000
0000
0000
0000
0000
0000
0000
0000
0000
0000
0000
0000
0000
0000
0000
0000
0000
0000
0000
0000
1003
0000
0000
0000
0000
0000
0000
0000
0000
0000
0000
0000
0000
0000
0000
0000
0000
0000
0000
0000
0000
0000
0000
0000
0000
0000
0000
0000
0000
0000
0000
0000
0000
0000
0000
0000
0000
0000
0000
0000
0000
0000
0000
0000
0000
0000
0000
0000
,
1010
0000
0010
0100
0010
1000
0010
0000
,
0110
0000
0100
0001
0100
1000
0100
0000
,
0101
0000
0001
0010
0100
1000
0100
0000
,
0101
0100
1100
0100
,
0101
0000
0100
1000
0100
0010
0100
0000
,
1100
0000
1000
0001
0010
0001
0100
0000
,
0110
0000
0010
1000
0010
0100
0001
1000
,
0100
0010
0001
0100
0010
1000
0001
0000
,
0011
0001
1001
0001
,
0101
1000
1010
1000
,
1100
0000
1000
0000
1010
0000
0010
0100
,
0010
0000
0100
0001
0100
0000
0001
0000
,
0011
0001
1001
1000
,
1010
1000
1100
0010
,
0110
0000
0100
0000
0101
0000
0001
1000
,
0001
0000
1010
0000
1001
0000
1000
0100
,
1000
0000
0010
0100
0010
0000
0100
0001
,
0100
0000
0011
0000
1001
0000
0100
0010
,
0100
0000
0001
1000
0001
0000
0200
0000
,
0000
0310
2000
0000
0000
3010
0002
0000
,
0000
0013
2000
0000
0000
3001
0200
0000
,
0000
0310
0002
0000
0000
0013
2000
0000
,
0000
3001
1000
0100
0010
0000
0012
0000
,
0000
1003
0002
0000
0000
0013
0200
0000
,
0000
1300
0020
0000
0000
0130
0002
0000
,
0000
0103
2000
0000
0000
3100
0010
0100
,
0001
0010
0100
1000
0100
0010
0100
0000
,
1100
0000
1000
0000
0001
1000
0001
0000
,
0011
0000
0001
0010
0001
1000
0100
0000
,
1100
1000
1010
1001
,
0011
0000
0000
0001
0010
0100
1000
0000
,
0000
0010
0000
0220
,
0000
0000
0000
0000
,
0000
0000
0000
0030
,
0310
0000
0000
0000
;

//---------------dance-single - ----------------
#NOTES:
     dance-single:
     :
     Challenge:
     16:
     0.773575,1.086344,0.548921,0.074178,0.278169,730.000000,656.000000,74.000000,10.000000,0.000000,0.000000,0.773575,1.086344,0.548921,0.074178,0.278169,730.000000,656.000000,74.000000,10.000000,0.000000,0.000000:
// measure 0
0000
0000
0000
0000
,  // measure 1
0000
0000
0000
0000
,  // measure 2
0000
0000
0000
0000
,  // measure 3
0000
0000
0000
0000
0000
0000
0000
0000
0000
0000
0000
1000
0001
0000
0000
0001
,  // measure 4
0100
0000
0000
0100
0010
0000
0100
0000
0100
0000
0000
0010
1000
0000
0000
1000
,  // measure 5
0001
0000
0000
0001
0100
0000
0001
0000
0001
0000
0000
0001
1000
0000
1000
0000
,  // measure 6
1000
0000
0000
1000
0010
0000
0010
0000
0010
0000
0000
0000
0101
0000
0000
0000
,  // measure 7
1001
0000
0000
0000
0110
0000
1000
0010
1000
0010
1000
0010
0100
0000
0000
0100
,  // measure 8
0001
0000
0000
0001
0010
0000
0001
0000
0001
0000
0000
0100
0001
0000
0000
0001
,  // measure 9
1000
0000
0000
1000
0010
0000
0100
0000
0100
0000
0001
0010
0001
0000
0001
0000
,  // measure 10
0001
0000
0000
1000
0010
0000
0010
0000
0010
0000
0100
0001
0100
0000
0100
0000
,  // measure 11
0100
0010
0100
0010
1000
0000
1001
0000
0101
0000
0000
0000
1001
0000
0000
0000
,  // measure 12
1000
0000
0010
0000
1010
0000
0000
0000
0001
0000
0100
0000
0001
1000
0001
1000
,  // measure 13
0010
0100
0010
0100
0001
1000
0100
0010
0001
0100
0010
1000
0001
0000
0000
0000
,  // measure 14
0100
0000
0001
0000
0011
0000
0000
0000
0001
0000
1000
0000
0100
1000
0100
1000
,  // measure 15
0010
0100
0010
0100
0001
0010
0001
0010
1000
0010
1000
0010
0001
0000
0100
0001
,  // measure 16
0100
0000
0001
0010
0001
0000
1000
0001
1000
0000
0001
1000
0001
0000
1000
0100
,  // measure 17
1000
0000
0010
0100
0010
0000
1000
0001
1000
0000
0001
1000
0001
0000
0001
0000
,  // measure 18
1000
0100
0001
0100
1000
0000
1000
0000
0001
0010
1000
0010
0001
0000
0001
0000
,  // measure 19
1000
0100
0010
0001
2000
0000
0000
0000
3002
0000
0000
0000
2003
0000
0000
0000
,  // measure 20
3001
0010
0100
1000
0001
0100
0010
1000
,  // measure 21
0001
0010
0100
1000
0001
0100
0010
1000
,  // measure 22
0001
0101
2010
0000
,  // measure 23
3002
0000
2003
0000
3001
1000
0100
0010
,  // measure 24
0001
1000
0010
0100
0001
1000
0100
0010
,  // measure 25
0001
1000
0010
0100
0001
0000
1001
0000
,  // measure 26
0110
0000
0000
0000
0000
0000
0000
0000
0000
0000
0000
0000
1001
0000
0000
1000
0000
0000
2010
0000
0000
0000
0000
0001
,  // measure 27
0000
0000
3001
0000
0000
0001
0100
0000
0000
0010
0000
0100
0001
0000
0000
0001
0000
0000
1002
0000
0000
0000
0000
0100
,  // measure 28
0000
0000
0103
0000
0000
0100
0010
0000
0000
0100
0000
0000
0001
0000
0000
1000
0000
0001
1000
0000
0000
0010
0000
0000
,  // measure 29
1010
1010
0100
0001
1001
1001
0010
1000
,  // measure 30
1100
1100
1001
0000
0101
0000
1001
1000
,  // measure 31
1010
0000
0000
0000
0000
0000
0000
0000
0000
0110
0000
0000
0000
0000
0000
0000
0000
0000
0100
0000
0000
0000
0000
0000
0101
0000
0000
0000
0000
0000
0000
0000
0000
0000
0000
0000
1001
0000
0000
0000
0000
0000
1000
0000
0000
0000
0001
0000
,  // measure 32
1000
0000
0001
1000
0000
0000
1010
0000
0000
0010
0000
0000
0110
0000
0000
0000
0000
0000
0101
0000
0000
0001
0000
0000
,  // measure 33
1001
0000
0000
0000
0000
0000
0000
0000
0000
1010
0000
0000
0000
0000
0000
0000
0000
0000
0110
0000
0000
0000
0000
0000
0101
0000
0000
0000
0000
0000
0001
0000
1000
0000
0001
0000
1000
0000
0000
0000
0000
0000
0010
0000
0000
0000
0000
0000
,  // measure 34
1000
1000
1000
1000
1000
0000
0010
0000
,  // measure 35
1000
0010
0100
0001
,  // measure 36
0100
0001
1000
0010
,  // measure 37
1000
0010
0100
0010
,  // measure 38
0100
0001
0100
0001
,  // measure 39
0100
0001
1000
0010
,  // measure 40
1000
0010
1000
0010
,  // measure 41
0100
0010
0100
0010
,  // measure 42
1000
0100
1000
0100
1000
0000
0001
0000
,  // measure 43
0100
1000
0100
0001
,  // measure 44
0010
1000
0010
0001
,  // measure 45
0100
0010
0100
0001
,  // measure 46
1000
0100
0001
0100
,  // measure 47
1000
0001
0010
1000
,  // measure 48
0010
0000
0001
0000
1000
0100
0010
0001
,  // measure 49
0100
0010
1000
0100
0010
0001
0100
0010
,  // measure 50
1000
0000
0100
0000
0010
0000
0001
0000
1000
0000
0000
0000
0001
0100
0000
0000
,  // measure 51
0101
0000
0000
0000
1000
0010
0000
0000
1010
0000
0000
0000
0001
1000
0000
0000
,  // measure 52
1001
0000
0000
0000
0100
0001
0000
0000
0001
1000
0000
0000
1000
0010
0000
0000
,  // measure 53
0010
0100
0000
0000
0100
0001
0000
0000
0001
1000
0000
0000
1100
0000
0000
0000
,  // measure 54
1000
0010
0100
0001
0100
0010
1000
0010
,  // measure 55
0100
0001
0100
0010
1000
0100
0001
0100
,  // measure 56
1000
0001
0010
1000
0010
0001
1000
0100
,  // measure 57
0001
0100
1000
0001
0010
1000
0010
0001
,  // measure 58
1000
0100
0010
0001
0100
0010
1000
0100
,  // measure 59
0010
1001
0101
0001
,  // measure 60
0001
1000
0100
0010
0001
0000
0011
0000
,  // measure 61
0001
0100
1000
0100
0001
0000
1001
0000
,  // measure 62
1000
0100
0010
0001
1000
0001
0001
0100
,  // measure 63
0010
1000
0100
0010
0001
1000
0010
0100
,  // measure 64
0001
1000
0100
0010
0001
0000
0011
0000
,  // measure 65
0001
0010
1000
0010
0001
0000
1001
0000
,  // measure 66
1000
0100
0001
0100
1001
0000
1100
0000
,  // measure 67
1000
0000
1000
0010
0100
0001
0010
0000
,  // measure 68
0011
0000
0001
1000
0100
0010
0001
0000
,  // measure 69
0101
0000
0100
0010
1000
0001
0100
0010
,  // measure 70
0010
1000
0100
0010
0001
0100
0010
1000
,  // measure 71
0001
0000
0001
1000
0100
0010
0100
0000
,  // measure 72
1100
0000
1000
0100
0001
0100
1000
0000
,  // measure 73
1001
0000
0001
0010
0100
0010
0001
0100
,  // measure 74
0010
1000
0001
0100
0010
1000
0100
0000
,  // measure 75
1100
0000
1000
0010
0001
0010
1000
0000
,  // measure 76
1100
0000
1000
0100
0010
0100
1000
0000
,  // measure 77
0101
0000
0001
1000
0100
0010
0100
1000
,  // measure 78
1000
0100
1000
0010
0100
0001
0010
0001
,  // measure 79
1000
0000
1000
0100
0010
0001
1000
0000
,  // measure 80
0110
0000
0010
1000
0010
0001
0010
0000
,  // measure 81
1010
0000
1000
0100
0010
0100
0001
0000
,  // measure 82
1100
0000
1001
0000
0101
0000
0001
1000
,  // measure 83
0100
0010
0100
1000
0001
0010
0100
0000
,  // measure 84
1100
0000
0110
0000
0011
0000
0001
1000
,  // measure 85
0100
0001
0100
1000
0010
0100
0001
0010
,  // measure 86
0001
0010
1000
0010
1000
0010
0001
0010
,  // measure 87
0001
0010
1000
0010
1000
0010
0001
0100
,  // measure 88
0001
0100
1000
0100
1000
0100
0001
0100
,  // measure 89
0001
0100
1000
0100
1000
0100
0001
0100
,  // measure 90
0001
0100
0010
0100
0010
0100
0010
1000
,  // measure 91
0010
1000
0100
1000
0100
0001
0100
0001
,  // measure 92
0100
1000
0100
1000
0010
1000
0010
0100
,  // measure 93
0010
0100
0001
0100
0001
0100
0101
0000
,  // measure 94
1001
0000
1010
0000
0010
0100
0101
0000
,  // measure 95
1001
0000
0000
1000
0100
0010
0011
0000
,  // measure 96
0101
0110
1010
1001
,  // measure 97
0110
0000
0000
0100
0001
1000
0010
0000
,  // measure 98
0000
0100
0000
0220
,  // measure 99
0000
0000
0000
0000
,  // measure 100
0000
0000
0000
0000
0000
0000
0000
0000
0000
0000
0000
0000
0000
0030
0000
0000
,  // measure 101
0310
0000
0000
0000
;
