#TITLE:CHIP'N'RIDDIM;
#SUBTITLE:;
#ARTIST:L.E.D.-G;
#TITLETRANSLIT:;
#SUBTITLETRANSLIT:;
#ARTISTTRANSLIT:;
#GENRE:PSG BREAK CORE;
#CREDIT:YonabearCWY;
#BANNER:CHIP'N'RIDDIM.png;
#BACKGROUND:CHIP'N'RIDDIM-bg.png;
#LYRICSPATH:;
#CDTITLE:pop'n music.png;
#MUSIC:CHIP'N'RIDDIM.ogg;
#OFFSET:-2.420000;
#SAMPLESTART:52.788002;
#SAMPLELENGTH:19.200005;
#SELECTABLE:YES;
#BPMS:0.000000=200.000000
;
#STOPS:38.000000=0.150000,
38.500000=0.150000,
163.000000=0.900000,
258.000000=0.300000
;
#BGCHANGES:8.000=cube2.mp4=2.000=1=0=1===CrossFade==,
24.000=colors2.mp4=2.000=0=0=1=====,
38.000=colors2.mp4=0.001=0=0=1=====,
38.500=car1.mp4=0.001=0=0=1=====,
39.000=car1.mp4=2.000=0=0=1=====,
44.000=car1r.mp4=2.000=0=0=1=====,
47.000=car2.mp4=2.000=0=0=1=====,
52.000=car2r.mp4=2.000=0=0=1=====,
55.000=blizzard1.mp4=2.000=0=0=1=====,
63.000=geometry1.mp4=2.000=0=0=1=====,
71.000=wave2.mp4=2.000=0=0=1=====,
87.000=wave3.mp4=2.000=0=0=1=====,
99.000=bubble1.mp4=2.000=0=0=1=====,
103.000=laser1.mp4=2.000=0=0=1=====,
119.000=bubble2.mp4=2.000=0=0=1=====,
135.000=light3.mp4=2.000=0=0=1=====,
151.000=bubble1.mp4=2.000=0=0=1=====,
163.000=bubble1.mp4=0.001=0=0=1=====,
164.000=web1.mp4=2.000=0=1=1=StretchRewind====,
180.000=text15.mp4=2.000=0=1=1=StretchRewind====,
196.000=vortex1.mp4=2.000=0=0=1=====,
212.000=wave3.mp4=2.000=0=0=1=====,
228.000=grid1.mp4=2.000=0=0=1=====,
244.000=bubble1.mp4=2.000=0=0=1=====,
258.000=bubble1.mp4=0.001=0=0=1=====,
259.000=cube2.mp4=2.000=0=1=1=StretchRewind====,
275.000=vortex1.mp4=2.000=0=0=1=====,
283.000=web1.mp4=2.000=0=0=1=====,
291.000=cube2.mp4=2.000=0=1=1=StretchRewind====,
307.000=colors2.mp4=2.000=0=1=1=StretchRewind====,
322.000=colors2.mp4=0.001=0=0=1=====,
323.000=text15.mp4=2.000=0=0=1=====,
339.000=wave2.mp4=2.000=0=0=1=====,
347.000=CHIP'N'RIDDIM-bg.png=1.000=0=0=1=====,
99999.000=-nosongbg-=1.000=0=0=0=StretchNoLoop====,
99999=-nosongbg-=1.000=0=0=0 // don't automatically add -songbackground-
;
#KEYSOUNDS:;
#ATTACKS:;

//---------------dance-single - ----------------
#NOTES:
     dance-single:
     BEGINNER:
     Beginner:
     6:
     0.267143,0.395831,0.114670,0.017642,0.000000,212.000000,199.000000,13.000000,2.000000,0.000000,0.000000,0.267143,0.395831,0.114670,0.017642,0.000000,212.000000,199.000000,13.000000,2.000000,0.000000,0.000000:
0000
0000
0000
0000
,
0000
0000
0000
0000
,
1000
1000
1000
0000
,
1000
0000
0100
0000
,
0010
0010
0010
0000
,
0010
0000
1001
0000
,
0001
0001
0001
0000
,
0001
0000
0100
0000
,
0010
0010
0010
0000
,
0010
0000
0000
0100
,
0100
0100
0100
0100
,
0000
0100
0000
0010
,
0010
0010
0010
0010
,
0000
0010
0000
1000
,
0000
1000
0000
0001
,
0000
0001
0000
1000
,
0000
1000
0000
0010
,
0000
0010
0000
0100
,
0000
0000
0000
0100
,
0100
0100
0000
0010
,
0000
0000
0000
0010
,
0010
0010
0000
1000
,
0000
0000
0000
1000
,
1000
1000
0000
0001
,
0000
0000
0000
1001
,
0000
0000
0000
0010
,
0010
0010
0000
1000
,
0000
1000
0000
0100
,
0100
0100
0000
1000
,
0000
1000
0000
0001
,
0001
0001
0000
0100
,
0000
0100
0000
0001
,
0001
0001
0000
1000
,
1000
1000
0000
0010
,
0010
0010
0000
0100
,
0100
0100
0000
0001
,
0001
0001
1000
0001
,
0001
0001
1000
1001
,
0000
0000
0000
0110
0000
0000
0000
0000
,
0000
0000
0000
0000
,
0010
0000
0000
0100
0000
0000
1001
0000
,
1000
0000
1000
0000
,
0001
0001
1000
0000
,
0001
0000
0001
0000
,
1000
0000
1001
0000
,
0010
0010
0001
0000
,
0100
0000
0100
0000
,
0001
0000
1000
0000
,
0010
0000
1000
0000
,
0100
0000
0100
0000
,
1000
1000
0010
0000
,
0100
0000
0001
0000
,
1000
0000
0110
0000
,
0010
0010
1000
0000
,
0100
0000
1000
0000
,
0001
0000
0100
0000
,
0001
0000
1001
0000
,
1000
1000
1000
0000
,
0100
0000
0100
0000
,
0010
0000
0001
0000
,
0010
0000
0100
0000
,
1000
1000
1000
0000
,
0001
0000
1000
0000
,
0100
0000
0001
0000
,
0100
0000
1001
0001
,
0001
0001
0000
0100
,
0000
0001
0000
1000
,
0000
0010
0000
1000
,
0000
0100
0000
1000
,
1000
1000
0000
0010
,
0000
0100
0000
1001
,
0000
0000
0000
0000
,
0000
0000
0000
0010
,
0000
0010
0000
0010
,
0000
0100
0000
0100
,
0000
0100
0000
0001
,
0001
1001
0000
1000
,
0000
1000
0000
1000
,
0000
0010
0000
0010
,
0000
0010
0000
0100
,
0100
0100
0100
0100
,
0000
0100
0000
0010
,
0000
0010
0000
1000
,
0000
1000
0000
0001
,
0001
1001
0000
1000
,
0000
1000
0000
0010
,
0000
0010
0000
0100
,
0000
0100
0000
0001
,
0001
2002
0000
0000
,
0000
0000
0000
3003
;

//---------------dance-single - ----------------
#NOTES:
     dance-single:
     BASIC:
     Easy:
     11:
     0.506563,0.593747,0.370472,0.167594,0.004410,402.000000,360.000000,42.000000,19.000000,0.000000,0.000000,0.506563,0.593747,0.370472,0.167594,0.004410,402.000000,360.000000,42.000000,19.000000,0.000000,0.000000:
0000
0000
0000
0000
,
0000
0000
0000
0000
,
1000
0000
0010
0000
0001
0000
0010
1000
,
0001
0010
0001
1001
,
1000
0100
0001
0100
,
1000
0001
0100
0000
0201
0000
0000
0000
,
0310
0000
0100
0000
0010
0000
1000
0010
,
0100
0000
0010
0000
0100
0000
0001
0010
,
1000
0010
0001
0100
,
0001
1000
0100
0010
0002
2003
3010
0000
,
0000
0010
0000
0000
1000
0000
0010
0000
,
0000
0010
0000
1000
0001
0000
0001
0000
,
0101
0000
0001
0100
0001
0000
1000
0000
,
1000
0010
0010
0100
,
0000
0010
0000
0000
1000
0000
0100
0000
,
1000
0000
0010
0000
0100
0000
0001
1000
,
0001
0100
0001
0010
,
0001
0000
0100
0001
0100
0010
1000
0000
,
1100
1000
1010
0010
,
1000
0010
0100
0001
,
0011
0000
0001
0000
1001
0000
0001
0100
,
0001
0000
1000
0010
1000
0000
0100
0000
,
1100
0000
1000
0000
1010
0000
0010
0100
,
0001
0000
0001
1000
0100
0000
0100
0000
,
1100
1000
1010
2002
,
0000
0000
3003
0001
,
0100
0001
0000
1000
0001
0000
0010
0000
,
1000
0100
0000
1000
0010
0000
1000
0000
,
0100
1000
0010
0110
,
0101
0000
0001
1000
0001
0000
0110
0000
,
0010
1000
0000
0010
0100
0000
0101
0000
,
0001
0010
0000
0001
1000
0000
0100
0000
,
1000
0000
0010
1000
0100
1000
0000
1000
,
0001
0010
0001
0101
,
0001
1000
0000
1000
0001
0000
0011
0000
,
0001
0100
0000
0100
0001
0000
0011
0000
,
0000
1001
0000
0000
1100
0000
1010
0000
,
1001
0000
1000
0100
1000
0000
0010
0000
,
1000
0010
0100
0001
,
0010
0001
1000
0100
,
1000
0000
0000
0000
0000
0000
0000
0000
0000
0000
0000
0000
0000
0000
0000
0000
0000
0000
0000
0000
0000
0000
0000
0000
0010
0000
0000
0000
0000
0000
0000
0000
0000
0000
0000
0000
0000
0000
0000
0000
0000
0000
0000
0000
0000
0000
0000
0000
0000
0000
0000
0000
0000
0000
0000
0000
0000
0000
0000
0000
0000
0000
0000
0000
0000
0000
0000
0000
0000
0000
0000
0000
1010
0000
0000
0000
0000
0000
0000
0000
0000
0000
0000
0000
0000
0000
0000
0000
0000
0000
0000
0000
0000
0000
0000
0000
0000
0000
0000
0000
0000
0000
0000
0000
0000
0000
0000
0000
0000
0000
0000
0000
0000
0000
0000
0000
0000
0000
0000
0000
0000
0000
0000
0000
0000
0000
0000
0000
0000
0000
0000
0000
0000
0000
0000
0000
0000
0000
0000
0000
0000
0000
0000
0000
2002
3003
0000
0000
0000
0000
0000
0000
0000
0000
0000
0000
0000
0000
0000
0000
0000
0000
0000
0000
0000
0000
0000
0000
0000
0000
0000
0000
0000
0000
0000
0000
0000
0000
0000
0000
0000
0000
0000
0000
0000
0000
0000
0000
0000
0000
0000
0000
,
0011
0000
0001
0010
1000
0000
1000
0010
,
0001
0001
0100
0100
,
0010
1000
0010
1000
,
1000
0001
1000
0000
0120
0000
0000
0000
,
1030
0000
1000
0100
0001
0000
0001
0100
,
1000
0000
1000
0100
0010
0001
1000
0000
,
0001
0011
0001
1001
,
1000
0001
0000
2001
0000
0000
0000
0000
,
3001
0000
1000
0100
0001
0000
0001
0100
,
1000
1000
0010
0010
,
0100
0001
0010
0001
,
1000
0001
1000
0000
2001
0000
0000
0000
,
3001
0000
1000
0010
0001
0000
0001
0010
,
1000
1000
0001
0001
,
1000
0100
1000
0010
,
0100
0010
0000
1002
0000
0000
0000
0000
,
0103
0000
0000
0100
0000
0000
0001
0000
,
1000
1000
0010
0010
,
0100
0001
0010
0100
,
1000
0001
1000
0100
,
1000
0000
0000
1000
0000
0000
0100
0000
,
1000
1000
0010
0100
,
0001
0010
1000
0010
,
0001
0100
1002
0103
,
0000
0100
0000
0000
0001
0000
0010
0000
,
0010
0001
1000
0100
,
1000
0010
0100
0001
,
0010
0100
1000
0100
,
0000
0100
0000
0000
1000
0000
0010
0000
,
0010
1000
0001
2002
,
0000
0000
0000
0000
,
0000
3003
0000
1010
,
0000
1000
0000
0000
0010
0000
0100
0000
,
0001
0010
0001
1001
,
0000
0010
0000
0000
0001
0000
0100
0000
,
0001
0012
0000
1003
,
0000
1001
0000
0000
0001
0000
0100
0000
,
1000
0100
0001
0010
,
0000
0011
0000
0000
0001
0000
1000
0000
,
0100
1000
0120
1030
,
0010
1000
0000
0001
0100
0000
0010
0000
,
0010
1000
0100
1000
,
1000
0010
0000
1000
0001
0000
0100
0000
,
0100
0201
0000
0310
,
0010
1000
0000
0010
0100
0000
0010
0000
,
1000
0010
0001
0010
,
0010
0000
0100
0000
0100
0000
0010
1000
,
0010
1000
2002
0000
0000
0000
0000
0000
,
0000
0000
0000
3003
;

//---------------dance-single - ----------------
#NOTES:
     dance-single:
     DIFFICULT:
     Medium:
     14:
     0.764885,0.712496,0.485141,0.176415,0.066156,607.000000,552.000000,55.000000,20.000000,0.000000,0.000000,0.764885,0.712496,0.485141,0.176415,0.066156,607.000000,552.000000,55.000000,20.000000,0.000000,0.000000:
0000
0000
0000
0000
,
0000
0000
0000
0000
,
0110
0000
1000
0010
0001
0010
1000
0100
,
1000
0000
1000
0000
0010
0000
0100
0000
0001
0000
0000
0001
0010
0000
0001
0000
,
1001
0000
0001
0100
1000
0100
0001
0010
,
0001
0001
1000
0010
1020
0000
0000
0000
,
0130
0000
0010
1000
0100
0001
0100
1000
,
0010
0000
0010
0000
0100
0000
0001
0000
0010
0000
0000
0010
0001
0000
1000
0000
,
1010
0000
0010
1000
0100
0100
1000
0010
,
0001
0010
1000
0100
2000
3020
0130
0000
,
0100
0001
0000
1000
0001
0000
0010
0001
,
0010
1000
0000
0010
0001
0100
0010
0000
,
0010
1000
1001
0000
0110
0000
0010
1000
,
0100
0001
0100
0010
0100
1000
1100
0000
,
1001
0000
1000
0100
0010
0001
0011
0000
,
0101
0000
0001
1000
0100
0010
0100
1000
,
1001
0000
0001
0001
0100
0001
0001
1000
,
0010
1000
0100
1000
0001
0001
1001
0000
,
0120
0000
1000
1030
0010
1000
0001
0001
,
0100
0001
0001
1000
0010
1000
1100
0000
,
1002
0000
1000
1003
0001
1000
0100
0100
,
1000
0010
0100
0100
0001
0010
0011
0000
,
0201
0000
0001
0301
1000
0100
0001
0100
,
1000
0100
0010
0100
1000
0001
1001
0000
,
0120
0000
1000
1030
0010
0100
2002
0000
,
0000
0000
0000
0000
3003
0000
1000
0010
,
0100
0001
0000
0010
0000
0001
0100
0010
,
1000
0100
0000
1001
0000
0011
0000
0001
,
0100
1000
0000
0101
0000
0001
0010
0000
,
1001
0000
1000
0010
0001
0000
0010
0100
,
0010
1000
0000
1000
1000
0100
1000
0010
,
0100
0001
0000
0011
0000
0110
0000
1000
,
0010
0000
0010
0010
1000
0100
0000
1000
,
1000
0010
0100
0001
0010
0100
1000
0001
,
1000
0100
0000
1000
0020
0000
0130
0010
,
1000
0001
0000
0011
0000
1000
0001
0001
,
1000
0100
0100
1000
0010
0010
1010
0000
,
1001
0000
0001
0100
0001
0000
1000
0001
,
0010
0001
0000
0001
1000
0100
1000
0010
,
0100
0001
0000
0010
0000
0001
0000
0100
,
0000
0000
0000
0000
0000
0000
0000
0000
0000
0000
0000
0000
0000
0000
0000
0000
0000
0000
0000
0000
0000
0000
0000
0000
0010
0000
0000
0000
0000
0000
0000
0000
0000
0000
0000
0000
0000
0000
0000
0000
0000
0000
0000
0000
0000
0000
0000
0000
0000
0000
0000
0000
0000
0000
0000
0000
0000
0000
0000
0000
0000
0000
0000
0000
0000
0000
0000
0000
0000
0000
0000
0000
1010
0000
0000
0000
0000
0000
0000
0000
0000
0000
0000
0000
0000
0000
0000
0000
0000
0000
0000
0000
0000
0000
0000
0000
0000
0000
0000
0000
0000
0000
0000
0000
0000
0000
0000
0000
0000
0000
0000
0000
0000
0000
0000
0000
0000
0000
0000
0000
0000
0000
0000
0000
0000
0000
0000
0000
0000
0000
0000
0000
0000
0000
0000
0000
0000
0000
0000
0000
0000
0000
0000
0000
2002
3003
0000
0000
0000
0000
0000
0000
0000
0000
0000
0000
0000
0000
0000
0000
0000
0000
0000
0000
0000
0000
0000
0000
0000
0000
0000
0000
0000
0000
0000
0000
0000
0000
0000
0000
0000
0000
0000
0000
0000
0000
0000
0000
0000
0000
0000
0000
,
0001
0000
1000
0100
0001
0000
0001
0100
,
1000
1000
0100
1000
0000
1000
0010
0010
,
0010
1000
0100
0010
0001
0000
1001
0000
,
0001
0100
1000
0000
0101
0000
0011
0000
,
0001
0001
1000
0010
1000
1000
0100
1000
,
0010
0010
0000
1001
0000
0001
0100
0010
,
1000
0000
1000
0010
0001
0000
0010
0000
,
1000
0010
0000
1001
0000
0001
0100
0001
,
1000
0000
1000
0010
0001
0000
0001
0010
,
1000
1000
0010
0100
0000
0010
1000
0100
,
0010
0001
1000
0100
1000
0000
0101
0000
,
0001
1000
1000
1000
0010
0000
0101
0000
,
0001
1000
0100
0001
0100
0100
0100
1000
,
0100
0010
0000
0011
0000
0001
0100
0010
,
1000
0100
0001
0100
1000
0000
1001
0000
,
0001
0010
0000
0101
0000
0001
1000
0100
,
1000
1000
0010
1000
1000
0010
1000
1000
,
0010
0000
1000
0000
0100
0001
0100
1000
,
0010
0100
0000
0010
0100
0000
0001
0000
1000
0000
0000
0000
1001
0000
0000
0000
,
0001
0100
1000
0000
1000
0100
0001
0000
,
0001
0001
0010
0001
0001
0010
0001
0001
,
1000
0000
0001
0000
0100
0010
1000
0001
,
1000
0001
0000
1000
0001
0000
0010
0000
0001
0000
0000
0000
0010
0000
0001
0000
,
1000
1000
0100
1000
1002
0000
1003
0010
,
0010
1000
0010
0010
1000
0010
0010
1000
,
0001
0000
0100
0000
0010
0000
1000
0000
0100
0000
0000
0000
1000
0100
0000
1000
,
0100
1000
0001
0000
0110
0000
0010
1000
,
0010
0100
0001
0010
0001
1000
0100
0100
,
1000
0100
0100
1000
0100
0100
1000
0010
,
0100
0001
0010
0001
1000
0100
2002
0000
,
0000
0000
0000
0000
,
0000
3003
0000
0110
,
0010
0010
1000
0100
1000
0001
0010
0010
,
0001
0000
0100
0000
0010
0000
0000
0010
1000
0000
0100
0000
1100
0000
0000
0000
,
1000
0001
0100
0100
0001
0010
0001
0001
,
1000
0100
1002
0000
0000
0000
0103
0000
,
0001
1000
0100
0100
1000
0010
1000
1000
,
0010
0000
0100
0000
0001
0000
0000
0001
0010
0000
0001
0000
1001
0000
0000
0000
,
1000
0100
0001
0001
0100
1000
0010
1000
,
0001
1000
0100
0100
2001
0000
3010
0000
,
1000
0000
0000
1000
0010
0000
1000
0000
0001
0000
0100
0000
0010
0000
0010
0000
,
0010
0000
0100
0000
0010
0000
0000
0010
1000
0000
0001
0000
0101
0000
0000
0000
,
0010
0000
0000
1000
0010
0000
1000
0000
0001
0000
0100
0000
0001
0000
0001
0000
,
1000
1000
1020
0000
0000
0000
0130
0000
,
0010
0000
0000
0010
1000
0000
0001
0000
1000
0000
0010
0000
0100
0000
0100
0000
,
0100
0010
1010
0000
1001
0000
0001
0000
,
1000
0000
0100
0000
1000
0000
0010
1000
,
0001
1000
2002
0000
0000
0000
0000
0000
,
0000
0000
0000
3003
;

//---------------dance-single - ----------------
#NOTES:
     dance-single:
     EXPERT:
     Hard:
     17:
     0.956422,0.989578,0.414575,0.202877,0.608632,759.000000,712.000000,47.000000,23.000000,0.000000,0.000000,0.956422,0.989578,0.414575,0.202877,0.608632,759.000000,712.000000,47.000000,23.000000,0.000000,0.000000:
0000
0000
0000
0000
,
0000
0000
0000
0000
,
1001
0000
0000
0000
0100
0010
0100
0010
1000
0000
0010
0000
1000
0000
0001
0000
,
0010
0000
0010
0000
0001
0000
0001
0000
1000
0001
0000
0001
0010
0000
0100
0000
,
1100
0000
0000
0000
0001
1000
0001
1000
0010
0000
0100
0000
0010
0000
1000
0000
,
0001
0000
0010
0000
0010
0000
0100
0000
1000
0100
1000
0100
1000
0100
1000
0100
,
0010
0000
0000
0000
0001
1000
0001
1000
0100
0000
0010
0000
0001
0000
0100
0000
,
0010
0000
0010
0000
0100
0000
0100
0000
0001
0100
0000
0100
0010
0000
1000
0000
,
1010
0000
0000
0000
0100
1000
0100
1000
0001
0000
0100
0000
0010
0000
1000
0000
,
0100
0010
0010
0001
2000
3002
0013
0001
,
0001
0000
0100
0000
0001
0000
0001
0000
1000
0001
1000
0000
0001
0000
0100
0000
,
0100
0000
0100
0000
0001
1000
0001
0000
0010
0000
0100
0000
1000
0000
0010
0100
,
0002
0000
1003
0100
0100
0100
0010
0001
,
0001
0000
1000
0000
0001
0100
0010
0000
0100
0000
0100
0000
0001
0000
1000
0000
,
1000
0000
1000
0000
0001
0010
0000
0010
0100
0000
1000
0000
0020
0000
0000
0000
,
0230
0000
0000
0000
0301
0000
1000
0100
0010
0000
0100
0000
0010
0000
0001
1000
,
0200
0000
0000
0000
1300
0010
0100
0000
0001
0000
0010
0000
0100
0000
1000
0001
,
0010
0000
1000
0000
0010
0100
1000
0000
0001
0000
1000
0000
1100
0000
0000
0000
,
1001
0000
0000
0000
0001
0100
0000
0100
0001
0000
0010
0000
0001
0000
0001
0000
,
0001
0000
0001
0000
1000
0010
1000
0001
0100
0000
0001
0000
1001
0000
0000
0000
,
0101
0000
0000
0000
0001
0010
0000
0010
0100
0000
1000
0000
0100
0000
0100
0000
,
0100
0000
0100
0000
1000
0001
1000
0100
0010
0000
0100
0000
1100
0000
0000
0000
,
0110
0000
0000
0000
0010
1000
0010
1000
0001
0000
0100
0000
0001
0010
0001
1000
,
0001
0000
0010
0000
0001
1000
0100
0010
0100
0000
1000
0000
1010
0000
0000
0000
,
0011
0000
0100
0001
1000
0100
2002
0000
,
0000
0000
0000
0000
3003
0000
1000
1000
,
0001
0100
0000
0101
0000
0001
0010
1000
,
0010
0100
0000
0110
0000
1001
0000
0001
,
0100
0010
0000
1010
0000
1000
2001
0000
,
0100
0000
0010
0010
3010
0000
0010
1000
,
0100
0100
0000
1010
0010
0100
0001
0001
,
1000
0001
0000
0101
0000
0011
0000
0001
,
0010
0000
0001
0001
1000
0010
0000
0100
,
0100
0010
1000
0001
0001
1000
0001
0100
,
0100
0000
0001
0000
0000
0000
0100
0000
0001
0010
1000
0010
0001
0000
0100
0000
,
1000
0100
0000
0011
0000
0100
0001
0001
,
0010
0001
0001
1000
0001
0001
0101
0000
,
0012
0000
0100
0100
0103
0000
0010
1000
,
0010
1000
0000
1100
0000
1001
0000
0001
,
0010
1000
0010
0000
1001
0000
0010
1000
,
0001
0000
0000
0000
0000
0000
0000
0000
0000
0000
0000
0000
0000
0000
0000
0000
0000
0000
0000
0000
0000
0000
0000
0000
0100
0000
0000
0000
0000
0000
0000
0000
0000
0000
0000
0000
0000
0000
0000
0000
0000
0000
0000
0000
0000
0000
0000
0000
0000
0000
0000
0000
0000
0000
0000
0000
0000
0000
0000
0000
0000
0000
0000
0000
0000
0000
0000
0000
0000
0000
0000
0000
1100
0000
0000
0000
0000
0000
0000
0000
0000
0000
0000
0000
0000
0000
0000
0000
0000
0000
0000
0000
0000
0000
0000
0000
0000
0000
0000
0000
0000
0000
0000
0000
0000
0000
0000
0000
0000
0000
0000
0000
0000
0000
0000
0000
0000
0000
0000
0000
0000
0000
0000
0000
0000
0000
0000
0000
0000
0000
0000
0000
0000
0000
0000
0000
0000
0000
0000
0000
0000
0000
0000
0000
2002
3003
0000
0000
0000
0000
0000
0000
0000
0000
0000
0000
0000
0000
0000
0000
0000
0000
0000
0000
0000
0000
0000
0000
0000
0000
0000
0000
0000
0000
0000
0000
0000
0000
0000
0000
0000
0000
0000
0000
0000
0000
0000
0000
0000
0000
0000
0000
,
1100
0000
1000
0000
0001
0000
1000
0001
1000
0000
0001
0000
0100
0000
0001
0100
,
0001
0100
0010
0100
0010
0000
1000
0000
0010
0000
0100
0000
0100
0000
0100
0000
,
0010
0010
1000
0001
0001
1000
0100
0100
,
1000
0100
0001
0000
2002
0000
3003
0000
,
1000
0000
0010
0000
0100
0000
0001
0000
1000
0100
0010
0100
0010
0000
0001
0000
,
1000
1000
0000
0101
0000
0010
0010
0010
,
0010
0000
0000
0001
1000
0000
0100
0000
1100
0000
0000
1000
0001
0000
0100
0000
,
0001
0000
1001
0000
0000
0000
1100
0000
0000
0000
1000
0010
1000
0010
1000
0010
,
0100
0000
0010
0000
1000
0000
0001
1000
0001
0000
1000
0000
0100
0000
0010
0001
,
0010
0001
0100
0001
0100
0000
0001
0000
0010
0000
0001
0000
0001
0000
0001
0000
,
0100
0100
0001
1000
1000
0010
0100
0100
,
0001
0100
1000
0000
2002
0000
3003
0000
,
1000
0000
0010
0000
0100
0000
0001
0000
1000
0100
1000
0100
0010
0000
0100
0000
,
0010
0010
0000
1001
0000
0100
0100
0100
,
0100
0000
0000
1000
0001
0000
0100
0000
0101
0000
0000
0001
1000
0000
0010
0000
,
1000
0000
1100
0000
0000
0000
1001
0000
0000
0000
0001
0100
0001
0100
0001
0100
,
0010
0010
0100
0010
0010
0100
0010
0010
,
1000
0100
0001
0100
1000
0000
0001
0000
0100
0000
0001
0100
0001
1000
0000
0000
,
0010
0100
0000
0100
0001
0000
0001
1000
0000
1000
0001
0000
1000
0010
0001
0010
,
1000
0000
0010
0100
0001
0000
0001
0000
2001
0000
0000
0000
3010
0000
0100
0000
,
0001
0100
0100
0001
0100
0100
0001
0100
,
0001
0010
1000
0010
0001
0000
0010
0000
0100
0000
1000
0001
0100
0001
0000
0000
,
0001
1000
0000
1000
0001
0000
1000
0100
0000
0100
1000
0000
0010
1000
0010
1000
,
0010
1000
0100
0010
0001
0000
0100
0000
1002
0000
0000
0000
1003
0000
1000
0000
,
0010
0000
1000
0000
1000
0000
0001
0000
1000
0000
1000
0000
0001
0100
1000
0100
,
0001
0000
0100
0000
0010
0000
1000
0100
1000
0001
0000
0000
0010
0100
0000
0100
,
1000
0000
0001
0010
0000
0010
0001
0000
1000
0001
0010
0001
1000
0000
0001
0010
,
0100
1000
0001
0010
0001
0010
0100
0100
,
1000
0000
0100
0000
0100
0000
0010
0000
0100
0000
0100
0000
1000
0010
0001
0010
,
1000
0000
0100
0000
0010
0000
0100
1000
0100
0010
0001
2000
0002
0000
0000
0000
,
0000
0000
0000
0000
,
0000
3003
0000
0110
,
0001
1000
0001
1000
0100
0000
1000
0000
0100
0000
0001
0000
0100
0000
0100
0000
,
1000
0000
1000
0000
0001
0010
0000
0010
0100
0000
1000
0000
1001
0000
0000
0000
,
0001
1000
0001
1000
0010
0000
0100
0000
0100
0000
0100
0000
0001
0000
1000
0000
,
1000
0000
0001
0000
1000
0010
1000
0010
1000
0010
1000
0010
0100
0000
0000
0000
,
0001
1000
0010
1000
0010
0000
0100
0000
0001
0000
0100
0000
0010
0000
0010
0000
,
1000
0000
1000
0000
0001
1000
0000
1000
0010
0000
0100
0000
0110
0000
0000
0000
,
1000
0001
0010
0001
0010
0000
0001
0000
0100
0000
0001
0000
1000
0001
0100
0001
,
1000
0010
1000
0001
0201
0000
0310
0000
,
1000
0001
0100
0010
0100
0000
0010
0000
1000
0000
0010
0000
0100
0000
0100
0000
,
0001
0000
0001
0000
0010
0001
0000
0001
0100
0010
1000
0000
1001
0000
0000
0000
,
0100
0010
1000
0001
1000
0000
0010
0000
0010
0000
0010
0000
1000
0000
0100
0000
,
0100
0000
0010
0000
0001
1000
0001
1000
0001
1000
0001
1000
0010
0000
0000
0000
,
0100
0001
1000
0001
0010
0000
0001
0000
1000
0000
0001
0000
0100
0000
0100
0000
,
0010
0000
0010
0000
0100
0000
0001
0100
1000
0100
0001
0000
1000
0000
0010
0000
,
0001
0010
1000
0100
0010
0100
0010
0010
,
0010
0010
2002
0000
0000
0000
0000
0000
,
0000
0000
0000
3003
;

//---------------dance-double - ----------------
#NOTES:
     dance-double:
     EXPERT:
     Hard:
     17:
     0.951381,0.949995,0.176415,0.194057,0.617453,755.000000,735.000000,20.000000,22.000000,0.000000,0.000000,0.951381,0.949995,0.176415,0.194057,0.617453,755.000000,735.000000,20.000000,22.000000,0.000000,0.000000:
// measure 0
00000000
00000000
00000000
00000000
,  // measure 1
00000000
00000000
00000000
00000000
,  // measure 2
00000001
00000000
00001000
00000000
00000010
00001000
00000100
00001000
00000100
00000000
00010000
00000000
00001000
00000000
01000000
00000000
,  // measure 3
00100000
00000000
00010000
00000000
00010000
00000000
00100000
00000000
01000000
00000000
00000000
00100000
10000000
00000000
01000000
00000000
,  // measure 4
00100000
00000000
00010000
00000000
10000000
01000000
10000000
01000000
00100000
00000000
01000000
00000000
00010000
00000000
00001000
00000000
,  // measure 5
00100000
00000000
00100000
00000000
00100000
00000000
00100000
00000000
00001000
00010000
00001000
00010000
00001000
00010000
00001000
00010000
,  // measure 6
00000100
00000000
00000010
00000000
00000100
00000010
00000100
00000010
00000001
00000000
00001000
00000000
00000010
00000000
00010000
00000000
,  // measure 7
00000100
00000000
00010000
00000000
00010000
00000000
00000100
00000000
00000010
00000000
00000000
00000100
00010000
00000000
00001000
00000000
,  // measure 8
00100000
00000000
00001000
00000000
00100000
00010000
00100000
00010000
01000000
00000000
00010000
00000000
10000000
00000000
00010000
00000000
,  // measure 9
00100000
00100000
00100000
00100000
02000000
23000000
30010000
01000000
,  // measure 10
01000000
00000000
00010000
00000000
00100000
00000000
00100000
00000000
00001000
00010000
00001000
00000000
00010000
00000000
00000100
00000000
,  // measure 11
00000100
00000000
00000010
00000000
00000100
00001000
00000100
00000000
00010000
00000000
00000100
00000000
00001000
00000000
00000001
00000010
,  // measure 12
00000001
00000000
00000010
00000000
00000100
00001000
00000000
00000000
00000010
00000000
00010000
00000000
00001000
00000000
00010000
00000000
,  // measure 13
00010000
00000000
00010000
00000000
00001000
00100000
00010000
00000000
01000000
00000000
00100000
00000000
00010000
00000000
00001000
00000000
,  // measure 14
00010000
00000000
00000100
00000000
00010000
00001000
00000000
00001000
00010000
00000000
00001000
00000000
00100000
00010000
00100000
00010000
,  // measure 15
20000000
00000000
00000000
00000000
30100000
01000000
00100000
01000000
00010000
00000000
00100000
00000000
01000000
00000000
10000000
00010000
,  // measure 16
10000000
00000000
00100000
00000000
01000000
00010000
00000000
00000000
00100000
00000000
00001000
00000000
00100000
00000000
00010000
00000000
,  // measure 17
00100000
00000000
00001000
00000000
00010000
00001000
00010000
00000000
00000100
00000000
00000010
00000000
00000011
00000000
00000000
00000000
,  // measure 18
00001100
00000000
00000000
00000000
00000010
00000100
00000000
00000100
00000001
00000000
00001000
00000000
00000100
00000010
00000100
00000000
,  // measure 19
00001000
00000000
00000010
00000000
00010000
00001000
00010000
00000000
00000100
00000000
00001000
00000000
00001100
00000000
00000000
00000000
,  // measure 20
00011000
00000000
00000000
00000000
00001000
00100000
00000000
00100000
00010000
00000000
01000000
00000000
00100000
10000000
00100000
00000000
,  // measure 21
10000000
00000000
01000000
00000000
00100000
00010000
00100000
00010000
01000000
00000000
00100000
00000000
10100000
00000000
00000000
00000000
,  // measure 22
01010000
00000000
00000000
00000000
00100000
00000000
10000000
00000000
01000000
00100000
00000000
00100000
00010000
00100000
00010000
01000000
,  // measure 23
00010000
00000000
00100000
00000000
00001000
00010000
00001000
00010000
00000100
00000000
00010000
00000000
00011000
00000000
00000000
00000000
,  // measure 24
00010010
00000000
00000100
00000010
00000001
00001000
00000220
00000000
,  // measure 25
00000000
00000000
00000000
00000000
00000330
00000000
00000001
00001000
,  // measure 26
00001000
00000010
00000000
00000100
00010000
00100000
01000000
01000000
,  // measure 27
00100000
00010000
00000000
00100000
10000000
00100000
00010000
01000000
,  // measure 28
01000000
00100000
00000000
10010000
00000000
00100000
12000000
00000000
,  // measure 29
00010000
00000000
10000000
10000000
13000000
00000000
00100000
01000000
,  // measure 30
01000000
00010000
00000000
00100000
00001000
00010000
00000100
00000100
,  // measure 31
00001000
00000010
00000001
00000010
00000000
00000110
00000000
00010000
,  // measure 32
00000100
00000000
00001000
00000010
00010000
00010000
00000000
00001000
,  // measure 33
00010000
00010000
00010000
00100000
01000000
00010000
10000000
01000000
,  // measure 34
10000000
00000000
10000000
00000000
00100000
00000000
10000000
00000000
01000000
10000000
01000000
10000000
00010000
00000000
01000000
00000000
,  // measure 35
01000000
00010000
00100000
00001000
00000000
00010000
00000100
00000100
,  // measure 36
00010000
00000010
00000010
00000100
00000001
00000001
00002100
00000000
,  // measure 37
00000001
00000000
00000010
00000010
00003010
00000000
00010000
00000010
,  // measure 38
00000100
00000010
00010000
00001000
00010000
00000100
00010000
00001000
,  // measure 39
00100000
00001000
01000000
00100000
01000000
00001000
00010000
00001000
,  // measure 40
00100000
00000000
00000000
00000000
00000000
00000000
00000000
00000000
00000000
00000000
00000000
00000000
00000000
00000000
00000000
00000000
00000000
00000000
00000000
00000000
00000000
00000000
00000000
00000000
00001000
00000000
00000000
00000000
00000000
00000000
00000000
00000000
00000000
00000000
00000000
00000000
00000000
00000000
00000000
00000000
00000000
00000000
00000000
00000000
00000000
00000000
00000000
00000000
00000000
00000000
00000000
00000000
00000000
00000000
00000000
00000000
00000000
00000000
00000000
00000000
00000000
00000000
00000000
00000000
00000000
00000000
00000000
00000000
00000000
00000000
00000000
00000000
00011000
00000000
00000000
00000000
00000000
00000000
00000000
00000000
00000000
00000000
00000000
00000000
00000000
00000000
00000000
00000000
00000000
00000000
00000000
00000000
00000000
00000000
00000000
00000000
00000000
00000000
00000000
00000000
00000000
00000000
00000000
00000000
00000000
00000000
00000000
00000000
00000000
00000000
00000000
00000000
00000000
00000000
00000000
00000000
00000000
00000000
00000000
00000000
00000000
00000000
00000000
00000000
00000000
00000000
00000000
00000000
00000000
00000000
00000000
00000000
00000000
00000000
00000000
00000000
00000000
00000000
00000000
00000000
00000000
00000000
00000000
00000000
02020000
03030000
00000000
00000000
00000000
00000000
00000000
00000000
00000000
00000000
00000000
00000000
00000000
00000000
00000000
00000000
00000000
00000000
00000000
00000000
00000000
00000000
00000000
00000000
00000000
00000000
00000000
00000000
00000000
00000000
00000000
00000000
00000000
00000000
00000000
00000000
00000000
00000000
00000000
00000000
00000000
00000000
00000000
00000000
00000000
00000000
00000000
00000000
,  // measure 41
10000000
00000000
01000000
00000000
00100000
00000000
00010000
00100000
01000000
00000000
10000000
00000000
00010000
00000000
01000000
00100000
,  // measure 42
00010000
00100000
00010000
00000000
00100000
00000000
01000000
00000000
01000000
00000000
01000000
00000000
00010000
00000000
00100000
00000000
,  // measure 43
00001000
00000000
00010000
00000100
00000010
00000000
00000100
00000000
00001000
00000000
00000001
00000100
00000010
00000000
00001000
00000000
,  // measure 44
00000100
00000100
00000100
00000000
00002002
00000000
00003003
00000000
,  // measure 45
00000100
00000000
00000001
00000000
00001000
00000000
00000010
00000000
00001000
00000100
00001000
00000100
00001000
00000100
00010000
00000000
,  // measure 46
00001000
00001000
00001000
00100000
00010000
00010000
00010000
01000000
,  // measure 47
00100000
01000000
00000000
01000000
00010000
00000000
00100000
00000000
01000000
10000000
00000000
10000000
00010000
00000000
01000000
00000000
,  // measure 48
00100000
00010000
00001000
00100000
00000000
00010000
00000100
00001000
,  // measure 49
00000010
00000000
00000100
00000000
00000001
00000000
00001000
00000100
00000010
00000000
00000100
00000000
00000010
00000000
00000001
00001000
,  // measure 50
00000100
00001000
00000100
00000000
00001000
00000000
00000010
00000000
00000010
00000000
00000010
00000000
00010000
00000000
00000100
00000000
,  // measure 51
00010000
00000000
00001000
00100000
00010000
00000000
10000000
00000000
01000000
00000000
00100000
00010000
10000000
00000000
00100000
00000000
,  // measure 52
01000000
01000000
01000000
00000000
20020000
00000000
30030000
00000000
,  // measure 53
00100000
00000000
01000000
00000000
00010000
00000000
00100000
00000000
00001000
00010000
00001000
00010000
00001000
00010000
00000100
00000000
,  // measure 54
00010000
00010000
00010000
00000010
00000100
00000100
00000100
00000001
,  // measure 55
00001000
00000100
00000000
00000100
00000010
00000000
00000001
00000000
00001000
00000010
00000000
00000010
00000100
00000000
00000001
00000000
,  // measure 56
00001000
00000010
00000100
00001000
00010000
00000000
00001000
01000000
,  // measure 57
00100000
00100000
10000000
00010000
00010000
10000000
01000000
01000000
,  // measure 58
10000000
00100000
01000000
00100000
10000000
00000000
00010000
00000000
01000000
00000000
00010000
00100000
00001000
00100000
00000000
00000000
,  // measure 59
00001000
00010000
00000000
00010000
00000100
00000000
00000100
00001000
00000000
00001000
00000010
00000100
00000001
00000000
00000010
00000000
,  // measure 60
00000100
00000100
00000100
00000100
00000100
00000000
00010000
00000100
,  // measure 61
00001000
00001000
00000010
00010000
00010000
00000100
00001000
00001000
,  // measure 62
00000010
00001000
00000100
00001000
00000010
00000000
00010000
00000000
00000100
00000000
00001000
00000100
00010000
00000100
00000000
00000000
,  // measure 63
00010000
00001000
00000000
00001000
01000000
00000000
01000000
00100000
00000000
00100000
00010000
00100000
01000000
00000000
00010000
00000000
,  // measure 64
10000000
00000000
00000000
00000000
00000000
00000000
00000000
00000000
00000000
00000000
00000000
00000000
01000000
00000000
00000000
00000000
00000000
00000000
00000000
00000000
00000000
00000000
00000000
00000000
10000000
00000000
00000000
00000000
00000000
00000000
00000000
00000000
00000000
00000000
00000000
00000000
01000000
00000000
00000000
00000000
00000000
00000000
00000000
00000000
00000000
00000000
00000000
00000000
00100000
00000000
00000000
00000000
00000000
00000000
00000000
00000000
00000000
00000000
00000000
00000000
00000000
00000000
00000000
00000000
00000000
00000000
00000000
00000000
00000000
00000000
00000000
00000000
00100000
00000000
00000000
00000000
00000000
00000000
00000000
00000000
00000000
00000000
00000000
00000000
00000000
00000000
00000000
00000000
00000000
00000000
00000000
00000000
00000000
00000000
00000000
00000000
20020000
30030000
00000000
00000000
00000000
00000000
00000000
00000000
00000000
00000000
00000000
00000000
00000000
00000000
00000000
00000000
00000000
00000000
00000000
00000000
00000000
00000000
00000000
00000000
00000000
00000000
00000000
00000000
00000000
00000000
00000000
00000000
00000000
00000000
00000000
00000000
00000000
00000000
00000000
00000000
00000000
00000000
00000000
00000000
00000000
00000000
00000000
00000000
00010000
00000000
00000000
00000000
00000000
00000000
00000000
00000000
00000000
00000000
00000000
00000000
00000000
00000000
00000000
00000000
00000000
00000000
00000000
00000000
00000000
00000000
00000000
00000000
01000000
00000000
00000000
00000000
00000000
00000000
00000000
00000000
00000000
00000000
00000000
00000000
00000000
00000000
00000000
00000000
00000000
00000000
00000000
00000000
00000000
00000000
00000000
00000000
,  // measure 65
01000000
00000000
00001000
00000000
00100000
00000000
00100000
00000000
00001000
00000000
00010000
00000000
00010000
00001000
00010000
00000100
,  // measure 66
00010000
00000100
00001000
00000000
00000010
00000000
00000100
00000001
00000010
00000001
00000000
00000000
00000010
00000100
00000000
00000100
,  // measure 67
00010000
00000000
00010000
00001000
00000000
00001000
01000000
00000000
00100000
00000000
10000000
00000000
01000000
00100000
01000000
00100000
,  // measure 68
00010000
10000000
00100000
00000000
01000000
00001000
00010000
00001000
,  // measure 69
00001000
00000000
00010000
00000000
00000100
00000000
00000100
00000000
00001000
00000000
00000010
00000000
00000010
00000100
00001000
00000100
,  // measure 70
00001000
00000100
00001000
00000000
00000100
00000000
00000010
00010000
00001000
00010000
00000100
00020000
00002000
00000000
00000000
00000000
,  // measure 71
00000000
00000000
00000000
00000000
,  // measure 72
00000000
00000000
00000000
00000000
00033000
00000000
00001000
01000000
,  // measure 73
00010000
00100000
00010000
00100000
00001000
00000000
00100000
00000000
00010000
00000000
10000000
00000000
00100000
00000000
00100000
00000000
,  // measure 74
00100000
00000000
00100000
00000000
01000000
00010000
00000000
00010000
10000000
00000000
01000000
00000000
00100000
00000000
00001000
00000000
,  // measure 75
00010000
00000100
00010000
00000100
00001000
00000000
00000010
00000000
00000100
00000000
00000001
00000000
00001000
00000000
00001000
00000000
,  // measure 76
00001000
00000000
00001000
00000000
00000001
00000100
00000001
00000100
00000001
00000100
00000001
00000100
00000010
00000000
00010000
00000000
,  // measure 77
00000100
00001000
00000100
00010000
00000100
00000000
00010000
00000000
00001000
00000000
00100000
00000000
01000000
00000000
01000000
00000000
,  // measure 78
01000000
00000000
01000000
00000000
10000000
00100000
00000000
00100000
01000000
00000000
00010000
00000000
00100000
00000000
00001000
00000000
,  // measure 79
00010000
00001000
00010000
00001000
00100000
00000000
00001000
00000000
00010000
00000000
00000100
00000000
00000010
00000001
00000010
00000001
,  // measure 80
00001000
00000010
00000100
00000001
00001002
00000000
00000023
00000000
,  // measure 81
00000130
00001000
00000000
00001000
00000010
00000000
00000100
00000000
00000001
00000000
00001000
00000000
00000100
00000000
00010000
00001000
,  // measure 82
00010000
00000000
00001000
00000000
00100000
00000000
00000000
00010000
10000000
00000000
00010000
00000000
00100000
00000000
00010000
00000000
,  // measure 83
10000000
01000000
00000000
01000000
00100000
00000000
01000000
00000000
00100000
00000000
00001000
00000000
00100000
00000000
00100000
00000000
,  // measure 84
00100000
00000000
00100000
00000000
00001000
00010000
00001000
00010000
00001000
00010000
00001000
00010000
00000200
00000000
00000000
00000000
,  // measure 85
00001300
00000010
00000000
00000010
00000001
00000000
00000010
00000000
00000100
00000000
00000001
00000000
00001000
00000000
00000100
00000000
,  // measure 86
00010000
00000000
00000100
00000000
00001000
00000000
00000010
00010000
00001000
00010000
00000100
00000000
00010000
00000000
00001000
00000000
,  // measure 87
00100000
00001000
00010000
00100000
01000000
00010000
10000000
10000000
,  // measure 88
10000000
10000000
20020000
00000000
00000000
00000000
00000000
00000000
,  // measure 89
00000000
00000000
00000000
30030000
;
