#TITLE:CHANCE;
#SUBTITLE:;
#ARTIST:北京ダック;
#TITLETRANSLIT:;
#SUBTITLETRANSLIT:;
#ARTISTTRANSLIT:PEKING-DUCK;
#GENRE:;
#CREDIT:;
#BANNER:CHANCE.png;
#BACKGROUND:CHANCE-bg.png;
#LYRICSPATH:;
#CDTITLE:TRANCE PARADISE 3.png;
#MUSIC:CHANCE.ogg;
#OFFSET:-5.060000;
#SAMPLESTART:40.189953;
#SAMPLELENGTH:15.000000;
#SELECTABLE:YES;
#BPMS:0.000000=143.500000
;
#STOPS:
;
#BGCHANGES:20.000=blackhole1.mp4=1.000=1=0=1===CrossFade==,
36.000=bubble2.mp4=1.000=0=0=1=====,
52.000=film7.mp4=1.000=0=0=1=====,
60.000=text17.mp4=1.000=0=0=1=====,
68.000=film7.mp4=1.000=0=0=1=====,
69.000=text17.mp4=1.000=0=0=1=====,
70.000=film7.mp4=1.000=0=0=1=====,
71.000=text17.mp4=1.000=0=0=1=====,
72.000=film7.mp4=2.000=0=0=1=====,
80.000=blackhole1.mp4=1.000=0=1=1=StretchRewind====,
84.000=cyber3.mp4=1.000=0=0=1=====,
100.000=text1.mp4=1.000=0=0=1=====,
116.000=blackhole1.mp4=1.000=0=1=1=StretchRewind====,
132.000=bubble2.mp4=1.000=0=1=1=StretchRewind====,
148.000=blackhole1.mp4=1.000=0=0=1=====,
152.000=text29.mp4=1.000=0=0=1=====,
168.000=wheel5.mp4=1.000=0=0=1=====,
184.000=symbols2.mp4=1.000=0=0=1=====,
192.000=symbols3.mp4=1.000=0=0=1=====,
200.000=symbols4.mp4=1.000=0=0=1=====,
208.000=symbols2.mp4=1.000=0=0=1=====,
216.000=symbols3.mp4=1.000=0=0=1=====,
224.000=symbols4.mp4=1.000=0=0=1=====,
232.000=symbols2.mp4=1.000=0=0=1=====,
240.000=symbols3.mp4=1.000=0=0=1=====,
248.000=film7.mp4=1.000=0=1=1=StretchRewind====,
264.000=text1.mp4=1.000=0=1=1=StretchRewind====,
280.000=CHANCE-bg.png=1.000=0=0=1=====,
99999=-nosongbg-=1.000=0=0=0 // don't automatically add -songbackground-
;
#KEYSOUNDS:;
#ATTACKS:;

//---------------dance-single - ----------------
#NOTES:
     dance-single:
     :
     Beginner:
     3:
     0.150388,0.226739,0.032391,0.000000,0.000000,130.000000,126.000000,4.000000,0.000000,0.000000,0.000000,0.150388,0.226739,0.032391,0.000000,0.000000,130.000000,126.000000,4.000000,0.000000,0.000000,0.000000:
0000
0000
0000
0000
,
0000
0000
0000
0000
,
0000
0000
0000
0000
,
0000
0000
0000
0000
,
0000
0000
0000
0000
,
1000
0000
0000
0000
,
1000
0000
0000
0000
,
0001
0000
0000
0000
,
0001
0001
0001
0000
,
0100
0000
0000
0000
,
0100
0000
0000
0000
,
0010
0000
0010
0000
,
0010
0000
0000
0000
,
1001
0000
0000
0000
,
0100
0000
0000
0000
,
1000
0000
0000
0000
,
0001
0000
0000
0000
,
0100
0000
0100
0000
,
0010
0000
0010
0000
,
0100
0100
0100
0100
,
1001
0000
0000
0000
,
0010
0000
0000
0000
,
0010
0000
0000
0000
,
1000
0000
0000
0000
,
1000
0000
0000
0000
,
0100
0000
0000
0000
,
0100
0000
0000
0000
,
1000
0000
0000
0000
,
1000
0000
0000
0000
,
0001
0000
0000
0000
,
0100
0000
0000
0000
,
0010
0000
0000
0000
,
1000
0000
0000
0000
,
0100
0000
0000
0000
,
0010
0000
0000
0000
,
0001
0000
0000
0000
,
1000
0000
0000
0000
,
1001
0000
0000
0000
,
1000
1000
1000
0000
,
1000
0000
1000
0000
,
0010
0010
0010
0000
,
0010
0000
0010
0000
,
0100
0100
0100
0000
,
0100
0000
0100
0000
,
0001
0001
0001
0000
,
0001
0000
0001
0000
,
1000
0000
1000
0010
,
0100
0000
0001
0000
,
0100
0000
0001
0010
,
0100
0000
1000
0000
,
0010
0000
0100
0001
,
1000
0000
0010
0000
,
0100
0000
0001
1000
,
0010
0000
0100
0000
,
0001
0000
0001
0001
,
1000
0000
1000
1000
,
0010
0000
0010
0010
,
0100
0000
0100
0100
,
0001
0000
1000
0010
,
0100
0000
0001
0100
,
0010
0000
1000
0100
,
0001
0000
0001
0100
,
1000
0000
1000
0000
,
0001
0000
0001
0000
,
0100
0000
0100
0000
,
0010
0000
0010
0000
,
1000
1000
1000
0000
,
1000
1000
1000
0000
,
0001
0001
0001
0000
,
0001
0001
0001
0000
,
1001
0000
0000
0000
;

//---------------dance-single - ----------------
#NOTES:
     dance-single:
     :
     Easy:
     6:
     0.240621,0.311766,0.105272,0.259130,0.000000,208.000000,195.000000,13.000000,32.000000,0.000000,0.000000,0.240621,0.311766,0.105272,0.259130,0.000000,208.000000,195.000000,13.000000,32.000000,0.000000,0.000000:
0000
0000
0000
0000
,
0000
0000
0000
0000
,
0000
0000
0000
0000
,
0000
0000
0000
0000
,
0000
0000
0000
0000
,
2000
3000
0001
0100
,
0020
0030
1000
0100
,
0020
0030
0100
1000
,
0001
0001
2002
3003
,
0200
0300
0010
1000
,
0002
0003
0100
0010
,
2000
3000
0200
1300
,
1000
1000
1001
1001
,
1001
0000
0010
0000
,
0010
0000
0100
0100
,
0001
0000
0001
0000
,
1000
0000
1000
0000
,
0010
0010
0100
0100
,
0001
0001
0010
0010
,
0100
1000
0100
0010
,
1001
0000
0000
0000
,
1000
0000
1000
0000
,
0001
0001
1000
0100
,
0010
0000
0010
0000
,
0001
0001
0010
0001
,
0100
0000
0100
0000
,
0010
0010
1000
0100
,
0001
0000
0001
0000
,
0100
0100
1000
0010
,
0100
0010
1000
0010
,
0100
0000
0100
0000
,
0001
0100
0010
1000
,
0001
0000
0001
0000
,
1000
0100
0010
0001
,
1000
0000
1000
0000
,
0010
0100
0010
0001
,
0010
0000
0010
0000
,
1001
0000
0000
0000
,
1000
1000
2000
3000
,
0001
0001
0002
0003
,
0100
0100
0200
0300
,
0010
0010
0020
0030
,
1000
0100
0020
0030
,
0001
0010
0200
0300
,
1000
0100
0002
0003
,
0001
0100
2000
3000
,
2000
3000
0100
1000
,
0002
0003
1000
0001
,
0020
0030
0001
0100
,
0020
0030
1000
0100
,
0020
0030
0001
1000
,
0020
0030
0100
0010
,
0002
0003
0010
1000
,
0020
0030
0100
0001
,
0200
0000
0310
0010
,
2000
0000
3001
0001
,
2000
0000
3010
0010
,
0200
0000
0301
0100
,
0120
0000
1030
0010
,
0201
0000
0301
0100
,
0210
0000
0301
0100
,
1001
0010
1001
0100
,
1000
0000
1000
0001
,
0010
0000
0001
1000
,
0100
0000
0010
0001
,
1000
0010
0100
1001
,
0010
0000
0010
0000
,
0100
0000
0100
0000
,
0001
0010
0100
1000
,
0100
0010
0100
1000
,
1001
0000
0000
0000
;

//---------------dance-single - ----------------
#NOTES:
     dance-single:
     :
     Medium:
     9:
     0.421087,0.453478,0.194348,0.291522,0.000000,364.000000,340.000000,24.000000,36.000000,0.000000,0.000000,0.421087,0.453478,0.194348,0.291522,0.000000,364.000000,340.000000,24.000000,36.000000,0.000000,0.000000:
0000
0000
0000
0000
,
0000
0000
0000
0000
,
0000
0000
0000
0000
,
0000
0000
0000
0000
,
0000
0000
0000
0000
,
1000
0000
0001
0000
0100
0100
0100
0000
,
0010
0000
1000
0000
0001
0001
0001
0000
,
1000
0000
0100
0000
0010
0001
1000
0100
,
0010
0000
0100
0000
1000
0001
0100
0000
,
0001
0000
0010
0000
0001
0001
0001
0000
,
1000
0000
0100
0000
1000
1000
1000
0000
,
0010
0000
0100
0000
0001
0100
1000
0100
,
0010
0000
0100
0000
0010
1000
0100
0010
,
0011
0001
1001
1000
,
1100
0000
0100
0000
0100
1000
0100
0000
,
1100
1000
1010
0010
,
0100
0010
0100
0000
0010
0100
0010
0000
,
2000
3002
0203
0320
,
1030
0010
2000
0000
3010
0100
0020
0000
,
0130
0001
0100
0010
1000
0100
0010
0001
,
1001
0000
0000
0000
,
1000
0000
0100
0000
0010
0100
1000
0100
,
0001
0000
0100
0000
1001
0000
0001
0010
,
0001
0000
0100
0000
0001
0100
0010
1000
,
0010
0000
1000
0000
1001
0000
0010
0100
,
0010
0100
0001
0100
,
0010
1000
0100
1000
0001
0000
1001
0000
,
1000
0000
0100
0000
0010
0000
0001
0010
,
0100
1000
0001
0000
1000
0001
0010
0000
,
0001
0000
0100
0000
0010
1000
0100
0010
,
0100
0000
1001
0000
0001
0100
0001
0000
,
0010
0000
0001
0000
1000
0100
0010
0100
,
0001
0000
1100
0000
1000
0010
0100
0000
,
0010
1000
0001
0100
,
0001
0010
0100
1000
0001
0000
1001
0000
,
1000
0100
0010
1000
,
0010
0001
0010
0001
1000
0001
0100
0000
,
1001
0000
0000
0000
,
2000
0000
0001
0000
3010
0000
1000
0001
,
0020
0000
0001
0000
0100
0000
0031
0010
,
0002
0000
1000
0000
0100
0000
0013
0001
,
2000
0000
0010
0000
3100
0000
1000
0100
,
0010
0000
0002
0000
1000
0000
0013
0001
,
2000
0000
0100
0000
0010
0000
3100
1000
,
0001
0000
0200
0000
0010
0000
0301
0100
,
0020
0000
0000
1000
1030
0000
1001
0000
,
0020
0000
0000
1030
0010
1000
0001
0000
,
0200
0000
0000
0301
0100
0010
1000
0000
,
0200
0000
0000
1300
0100
0010
0100
0000
,
2000
0000
0000
0001
3001
1000
0010
0100
,
0002
0000
0000
0013
0001
0010
0100
0000
,
2000
0000
0000
3001
1000
0100
0010
0000
,
0002
0000
0000
0103
0001
0010
0100
0000
,
2000
0000
0000
3010
1000
0100
0001
0100
,
2000
0000
0010
0000
3100
1000
1001
0000
,
0020
0000
0100
0000
0031
0010
0011
0000
,
0002
0000
1000
0000
0103
0001
1001
0000
,
0010
1000
0020
0000
0130
0001
0200
0000
,
0310
0100
1000
0100
0001
0100
0020
0000
,
1030
0010
0001
0010
1000
0100
0020
0000
,
0031
0010
0001
1000
0100
0010
0200
0000
,
2300
0000
3002
0000
1003
0010
0001
0010
,
0100
0000
0101
0000
0001
1000
0100
0000
,
1000
1010
0010
0110
,
0100
0000
0101
0000
0001
1000
0100
1000
,
0010
0000
0100
0000
0001
0010
0011
0000
,
0002
0000
0100
0000
1003
0100
0010
0001
,
2000
0000
0001
0000
3010
1000
0100
0010
,
0200
0000
0001
0000
1300
0100
1000
0010
,
0200
0001
1300
1001
,
0110
0000
0000
0000
;

//---------------dance-single - ----------------
#NOTES:
     dance-single:
     :
     Hard:
     13:
     0.601552,0.708559,0.072880,0.299619,0.364402,520.000000,511.000000,9.000000,37.000000,0.000000,0.000000,0.601552,0.708559,0.072880,0.299619,0.364402,520.000000,511.000000,9.000000,37.000000,0.000000,0.000000:
0000
0000
0000
0000
,
0000
0000
0000
0000
,
0000
0000
0000
0000
,
0000
0000
0000
0000
,
0000
0000
0000
0000
,
1000
0100
2000
0000
3001
0010
0200
0000
,
1300
0000
0100
0000
0010
0000
0100
0000
0001
0000
0100
1000
0100
1000
0100
0000
,
1000
0001
2000
0000
3001
1000
0020
0000
,
0130
0000
0010
0000
0001
0000
0010
0000
1000
0000
0010
0100
0010
0100
0010
0000
,
0100
0001
0200
0000
0301
0100
0010
1000
,
0100
1000
0002
0000
1003
0001
0010
0100
,
1000
0010
0200
0000
0301
0100
0020
0000
,
1030
0000
1000
0000
0001
0100
0001
0100
0001
0000
0100
0000
0010
1000
0010
0100
,
0001
0000
1001
0000
1000
0010
0100
0001
,
0010
0000
0110
0000
0100
1000
0100
0010
,
0100
0000
0000
1000
0100
0000
0000
0000
1000
0000
0000
0001
1000
0000
0000
0000
,
0001
0010
0100
1000
0001
1000
0100
0010
,
0100
0100
1000
1000
0100
0100
1000
1000
,
0001
0001
0010
0010
0001
0001
1000
1000
,
0010
0100
0010
0100
0010
0100
0010
0100
0010
0100
0010
0100
0010
0100
0010
0100
,
0010
0000
0000
0000
,
1000
0000
1000
0000
0001
0000
0000
0001
0000
0100
0001
0000
0010
0000
0001
0000
,
1000
1000
0010
0000
0100
0001
1000
0100
,
0010
0000
0010
0000
0100
0000
0000
1000
0000
0001
1000
0000
0010
0000
0100
0000
,
0001
0000
0001
0000
0010
0000
0001
0000
1000
0000
0100
1000
0100
1000
0100
0000
,
1000
0000
1000
0000
0010
0000
0000
0100
0000
0010
1000
0000
0100
0000
0010
0000
,
0100
0100
1000
0001
0001
0100
0001
1000
,
0010
0000
0010
0000
0100
0000
0000
0010
0000
1000
0001
0000
0010
0000
0100
0000
,
1000
0000
1000
0000
0001
0010
0001
0010
0001
0000
0100
0000
0010
1000
0100
0010
,
0001
0000
0000
0001
0100
0000
0000
0000
0110
0000
0010
0000
1010
0000
0000
0000
,
1000
0000
0000
1000
0001
0000
0010
0000
0100
0000
1000
0000
0001
1000
0001
0000
,
1000
0000
0000
1000
0100
0000
0000
0000
0101
0000
0100
0000
1100
0000
0000
0000
,
1000
0000
0000
0001
1000
0000
0010
0000
0100
0000
0001
0000
0010
0001
0010
0000
,
0001
1000
0100
0001
0100
1000
0010
0100
,
0001
0000
1000
0000
0100
0000
0000
0100
1000
0000
0001
0010
0001
0010
0001
0000
,
0100
0010
0100
1000
0100
0010
0100
0001
,
1000
0000
1000
0000
0001
0010
0001
0010
0001
0000
0100
0000
0010
1000
0010
0001
,
0010
0000
0000
0000
,
2000
0000
0001
0000
0000
0000
3001
0000
0100
0000
0000
0100
0000
0010
0000
0000
,
0020
0000
0100
0000
0000
0000
0130
0000
0001
0000
0000
0001
1000
0000
0010
0000
,
0200
0000
0001
0000
0000
0000
0301
0000
1000
0000
0000
1000
0000
0100
0000
0000
,
0020
0001
0000
0031
0100
0000
0001
1000
,
0020
0000
0100
0000
0100
0000
0000
0000
0130
0000
0000
0001
0000
1000
0000
0000
,
2000
0100
0100
0000
3100
0000
1000
0100
,
0020
0000
0001
0000
0001
0000
0000
0000
0031
0000
0000
0001
0000
1000
0000
0000
,
0020
0000
1000
0000
1000
0000
0000
0000
1030
0000
0000
1000
0001
0000
0010
0000
,
0100
1000
0100
0000
1000
0000
0010
1000
0010
0000
1000
0000
0002
0000
0000
0000
,
0013
0001
0010
0000
0001
0000
1000
0001
1000
0000
0010
0100
0010
0100
0010
0000
,
1000
0001
1000
0000
0001
0000
0010
0001
0010
0000
0001
0000
0200
0000
0000
0000
,
0310
0100
0010
0000
1000
0000
0100
1000
0100
0000
1000
0000
0001
0010
0100
1000
,
0200
0000
0000
1300
0100
0000
1000
0000
0001
0000
0010
0000
0002
0000
0000
0000
,
0203
0000
0000
0301
0100
0000
0010
0000
1000
0000
0100
0000
0020
0000
0000
0000
,
0230
0000
0000
1300
0100
0000
1000
0000
0010
0000
0001
0000
0020
0000
0000
0000
,
0230
0000
0000
0301
0100
0000
0010
0000
1000
0000
0001
0000
1000
0100
0010
0001
,
0010
0000
0010
0000
0001
0000
0001
0000
1000
0000
1000
0010
0200
0000
0000
0000
,
0301
0000
0001
0000
1000
0000
1000
0000
0100
0000
0010
0001
2000
0000
0000
0000
,
3010
0000
0010
0000
1000
0000
1000
0000
0100
0000
1000
0001
1000
0001
1000
0000
,
0010
0000
0010
0000
0100
0000
0100
0000
0001
0000
0001
0000
1000
0010
1000
0010
,
2000
0000
0000
3001
1000
0000
0001
0000
0010
0000
0010
0000
0002
0000
0000
0000
,
0203
0000
0000
0310
0100
0000
0100
0000
0010
0000
0010
0000
2000
0000
0000
0000
,
3200
0000
0000
1300
0100
0000
1000
0000
0001
0000
0001
0000
0020
0000
0000
0000
,
0031
0010
0001
0000
1000
0010
1000
0000
0001
0000
0100
0000
0010
1000
0001
0100
,
0020
0000
1000
0000
1030
0010
0110
0000
,
0001
0200
1000
0000
1300
0100
0001
0010
,
0002
0000
1000
0000
0103
0001
1000
0100
,
0020
0000
0001
0000
0130
1000
1001
0000
,
0001
0001
0100
0100
0010
0010
1000
0100
,
0010
0010
0001
0001
0010
0010
0001
0100
,
0010
0010
1000
1000
0100
0100
1000
0001
,
0100
0000
0010
0100
0000
0010
0100
0000
0001
1000
0000
0001
1000
0000
0001
0000
,
1001
0000
0000
0000
;

//---------------dance-single - ----------------
#NOTES:
     dance-single:
     :
     Challenge:
     15:
     0.795900,0.963641,0.267228,0.000000,0.842173,688.000000,655.000000,33.000000,0.000000,0.000000,0.000000,0.795900,0.963641,0.267228,0.000000,0.842173,688.000000,655.000000,33.000000,0.000000,0.000000,0.000000:
// measure 0
0000
0000
0000
0000
,  // measure 1
0000
0000
0000
0000
,  // measure 2
0000
0000
0000
0000
,  // measure 3
0000
0000
0000
0000
,  // measure 4
0000
0000
0000
0000
,  // measure 5
1000
0000
1000
0000
1000
0000
0001
0100
0000
0001
0100
0000
0010
0000
1000
0000
,  // measure 6
0100
0000
0100
0000
0100
0000
1000
0001
1000
0000
0001
0100
0001
0100
0001
0000
,  // measure 7
0010
0000
0010
0000
0010
0000
0001
1000
0000
0001
1000
0000
0100
0000
0010
0000
,  // measure 8
0001
0000
0001
0000
0001
0000
1000
0010
1000
0000
0010
0100
0010
0100
0010
0000
,  // measure 9
0100
0000
0100
0000
0100
0000
0001
0010
0000
0001
1000
0000
0100
0000
0010
0001
,  // measure 10
1000
0000
0100
0000
1000
0001
1000
0010
0100
0000
0010
0000
1000
0100
1000
0000
,  // measure 11
0010
0000
0100
0000
0001
0000
1000
0100
0000
1000
0010
0000
0100
0000
0001
0010
,  // measure 12
0100
0000
1000
0000
0100
0001
0100
1000
0100
0000
1000
0000
0001
1000
0100
0010
,  // measure 13
0001
0000
0101
0000
1000
0000
1010
0010
,  // measure 14
0110
0000
0100
0000
0101
0000
0001
1000
,  // measure 15
1100
0000
1000
0000
1010
0000
0110
0100
,  // measure 16
0101
0000
1001
0001
0101
0000
1001
1000
,  // measure 17
1010
0010
0100
0100
0001
0001
0010
0010
,  // measure 18
0001
1000
0001
1000
0001
1000
0001
1000
0010
0100
0010
0100
0010
0100
0010
1000
,  // measure 19
0100
0010
0001
0100
0010
1000
0100
0010
0001
0100
0010
1000
0100
0010
0001
1000
,  // measure 20
1001
0000
0000
0000
0000
0000
0000
0000
0000
0000
1000
0100
0010
0001
0010
0100
,  // measure 21
1000
0000
1000
0000
1000
0100
1000
0100
0000
1000
0001
0000
0010
0001
0010
0001
,  // measure 22
0100
0000
0100
0000
0010
1000
0100
0010
0001
0000
0001
0010
0100
1000
0010
0000
,  // measure 23
0100
0000
0100
0000
0001
1000
0001
1000
0000
0010
0100
0000
0100
0001
0100
0001
,  // measure 24
1000
0000
0010
0000
0010
0100
0001
0100
1000
0000
0100
0001
0100
0010
0100
0000
,  // measure 25
0010
0000
0010
0000
0010
1000
0010
1000
0000
0100
1000
0000
0100
1000
0100
0010
,  // measure 26
0001
0000
0001
0000
1000
0100
0010
0100
1000
0000
0001
0100
0010
0100
0001
0000
,  // measure 27
1000
0000
1000
0000
0001
0010
0100
0010
0000
0001
0010
0000
0001
1000
0100
1000
,  // measure 28
0010
0000
0010
0000
1000
0100
0001
0100
1000
0000
0010
0000
0001
0010
1000
0010
,  // measure 29
0001
0000
0010
0000
0001
0000
1000
0001
0000
0001
1000
0000
1000
0100
1000
0000
,  // measure 30
0010
0000
1000
0000
0100
0000
1000
0100
1000
0000
0001
0100
0001
0100
0001
0000
,  // measure 31
0010
0000
0001
0000
0100
0000
0010
0100
0000
0100
0010
0000
1000
0010
1000
0000
,  // measure 32
0001
0000
0100
0010
0100
0010
0100
0000
0001
0000
1000
0100
0010
0100
1000
0000
,  // measure 33
0001
0000
0010
0000
0001
0000
0100
0010
0000
0010
1000
0000
0001
0100
0010
0000
,  // measure 34
0100
0000
0001
0000
1000
0000
0100
1000
0001
0000
0100
0001
1000
0001
0100
0000
,  // measure 35
0010
0000
0100
0000
0010
0000
1000
0100
0000
0100
1000
0000
0001
0010
0100
0000
,  // measure 36
1000
0000
1000
0000
0001
0100
1000
0100
0001
0000
0010
0000
1000
0010
0001
0010
,  // measure 37
1000
0000
0000
0000
,  // measure 38
0011
0000
0000
0001
0100
0000
0001
0000
1000
0000
0010
1000
0000
1001
0000
0000
,  // measure 39
1100
0000
0000
1000
0010
0000
0100
0000
0001
0000
1000
0001
0000
0000
0100
0000
,  // measure 40
0110
0000
0000
1000
0100
0000
1000
0000
0001
0000
0010
0001
0000
0101
0000
0000
,  // measure 41
1001
0000
0000
0010
0100
0000
0010
0000
1000
0000
0100
1000
0100
0000
1000
0000
,  // measure 42
1001
0000
0000
1000
0100
0000
0010
0000
0001
0000
0010
0100
0000
0110
0000
0000
,  // measure 43
1100
0000
0000
1000
0001
0000
0010
0000
1000
0000
0010
0001
0000
0001
0010
0000
,  // measure 44
0011
0000
0000
0001
1000
0000
0010
0000
0100
0000
0010
1000
0000
1001
0000
0000
,  // measure 45
0110
0000
0000
0010
1000
0000
0001
0000
0100
0000
0010
1000
0000
1000
0010
0000
,  // measure 46
1000
0100
1000
0100
1000
0000
0100
1000
0100
0000
1000
0001
1000
0001
1000
0000
,  // measure 47
0001
0010
0001
0010
0001
0000
0100
0001
0100
0000
0001
0010
0100
1000
0100
0010
,  // measure 48
0100
1000
0100
1000
0100
0000
1000
0001
1000
0000
0001
0010
0001
0010
0001
0000
,  // measure 49
0100
0010
0100
0010
0100
0000
0010
1000
0010
0000
1000
0100
0010
0001
0010
0100
,  // measure 50
1000
0001
1000
0001
1000
0000
0001
0010
0001
0000
0100
0001
0100
0001
0100
0000
,  // measure 51
0001
1000
0001
1000
0001
0000
1000
0010
1000
0000
0010
0100
0010
1000
0010
0100
,  // measure 52
0001
0010
0001
0010
0001
0000
1000
0100
1000
0000
0100
0010
0100
0010
0100
0000
,  // measure 53
1000
0100
1000
0100
1000
0000
0001
0100
0001
0000
1000
0100
0010
0001
0010
0100
,  // measure 54
1000
0000
0100
0000
0001
0000
0100
0000
1000
0000
0000
1000
0100
1000
0100
1000
,  // measure 55
0100
0000
0010
0000
0001
0000
0010
0000
0100
0000
0000
0100
1000
0100
1000
0100
,  // measure 56
1000
0000
0001
0000
0010
0000
1000
0000
0010
0000
0000
0010
0001
0010
0001
0010
,  // measure 57
0001
0000
1000
0000
0100
0000
0001
0000
0100
0000
0000
0100
1000
0100
0010
0001
,  // measure 58
1000
0000
0001
0000
0010
0000
0001
0000
1000
0000
0000
1000
0001
0100
0001
0100
,  // measure 59
0001
0000
0010
0000
0100
0000
1000
0000
0001
0000
0000
1000
0100
0010
0100
0010
,  // measure 60
0100
0000
1000
0000
0100
0000
0010
0000
1000
0000
0000
0010
0001
0100
0001
0100
,  // measure 61
0001
0010
0001
0000
1000
0010
1000
0000
0010
0000
1000
0100
0010
0001
0010
0100
,  // measure 62
1000
0000
0000
1000
0001
0000
0000
0000
0110
0000
0010
0000
1010
0000
0000
0000
,  // measure 63
1000
0000
0001
0100
0000
0000
0010
0000
1000
0100
1000
0000
1001
0000
0000
0000
,  // measure 64
0010
0000
0000
0010
0100
0000
0000
0000
1100
0000
0100
0000
0101
0000
0000
0000
,  // measure 65
0100
0000
0100
0010
0000
0100
0000
0001
0010
0100
1000
0000
1001
0000
0000
0000
,  // measure 66
1000
0100
0010
0100
0001
0100
0010
0001
,  // measure 67
0100
1000
0100
0001
1000
0010
0100
0010
,  // measure 68
0001
0010
1000
0100
1000
0001
0100
0001
,  // measure 69
1000
0000
0001
1000
0000
0010
0000
1000
0100
0010
0001
0000
0110
0000
0000
0000
,  // measure 70
1001
0000
0000
0000
;
