#TITLE:CASSANDRA;
#SUBTITLE:;
#ARTIST:亜熱帯マジ-SKA爆弾;
#TITLETRANSLIT:;
#SUBTITLETRANSLIT:;
#ARTISTTRANSLIT:ANETTAI MAJI-SKA BAKUDAN;
#GENRE:SKA;
#CREDIT:YonabearCWY;
#BANNER:CASSANDRA.png;
#BACKGROUND:CASSANDRA-bg.png;
#LYRICSPATH:;
#CDTITLE:GUITAR FREAKS & drummania.png;
#MUSIC:CASSANDRA.ogg;
#OFFSET:-1.420000;
#SAMPLESTART:11.493687;
#SAMPLELENGTH:15.000000;
#SELECTABLE:YES;
#BPMS:0.000000=95.000000
,8.000000=190.000000
,103.500000=180.000000
,104.000000=175.000000
,104.500000=120.000000
,105.000000=95.000000
,105.500000=60.000000
,105.750000=57.500000
,106.000000=190.000000
,225.500000=95.000000
;
#STOPS:225.500000=0.580000
;
#BGCHANGES:0.000=CASSANDRA.mp4=1.000=1=0=0=StretchNoLoop==CrossFade==,
234.000=CASSANDRA-bg.png=1.000=0=0=1=====,
99999.000=-nosongbg-=1.000=0=0=0=StretchNoLoop====,
99999=-nosongbg-=1.000=0=0=0 // don't automatically add -songbackground-
;
#KEYSOUNDS:;
#ATTACKS:;

//---------------dance-single - ----------------
#NOTES:
     dance-single:
     BASIC:
     Easy:
     8:
     0.348305,0.528794,0.376031,0.206211,0.012130,201.000000,170.000000,31.000000,17.000000,0.000000,0.000000,0.348305,0.528794,0.376031,0.206211,0.012130,201.000000,170.000000,31.000000,17.000000,0.000000,0.000000:
0000
0000
0000
0000
,
0000
0000
0000
0000
,
1000
0101
1000
0101
,
0001
1010
0001
1010
,
0100
1001
0100
1001
,
0110
1001
0010
0100
,
0000
0010
0000
0010
0000
0010
0000
0100
,
0000
0100
0000
0100
0000
1002
0000
0000
,
0013
0001
0010
0000
,
0100
0000
1000
0000
2002
0000
0000
3003
,
0000
1000
0000
1000
0000
1000
0000
0001
,
0000
0001
0000
0001
0000
0120
0000
0000
,
1030
0010
0100
0000
,
0001
0010
0100
0000
,
1000
1000
1000
0000
,
0001
0001
0001
0000
,
0100
0010
0100
0000
,
0010
0100
0010
0000
,
1000
0100
0010
0000
,
0100
0010
0001
0000
,
0010
0001
1000
0001
,
0010
0100
0001
0100
,
1100
0000
0000
2200
0000
0000
3300
0000
,
0011
0000
0000
0022
0000
0000
0033
0000
,
0110
0000
0000
0220
0000
0000
0330
0000
,
1001
0000
0000
2002
0000
3003
0000
0120
,
0000
0000
0130
0000
,
0100
0000
0010
0000
,
0010
0000
1000
1000
,
1000
0000
0001
0001
,
0001
0000
1000
0000
,
1000
0000
0001
0000
,
0001
0000
0010
0010
,
0010
0000
0100
0100
,
0100
0000
0000
0000
0000
1000
0000
0010
,
0000
1000
0000
0100
0000
0001
0000
0100
,
0000
0001
0000
0100
0000
0010
0000
0001
,
0000
1000
0000
0010
0000
0001
0000
0010
,
0000
0100
0000
0001
1000
0000
1000
0000
,
1000
0000
0001
0001
,
0001
0000
0100
0100
,
0100
0000
0010
0010
,
0010
0000
1001
1001
,
1001
0000
0010
0000
,
0010
0000
0110
0110
,
0110
0000
0100
0000
,
0100
0000
1000
0010
,
1000
0000
0001
0100
,
0001
0000
0000
0000
0000
1000
0000
1000
,
0000
0001
0000
0001
0000
1000
0000
1000
,
0000
0110
0000
0000
0001
0000
0100
0000
,
0001
0000
0100
0001
,
0100
0000
0010
0000
,
1000
0000
0000
0000
0000
0010
0000
1000
,
0000
0010
0000
0100
0010
0000
1000
0000
,
0001
0000
0010
0001
,
1000
0000
0000
0000
2002
0000
3003
0000
0110
0000
0000
0000
0000
1100
0000
0000
,
0000
0000
0000
0000
0000
2002
0000
0000
0000
0000
0000
0000
0000
0000
0000
0000
0000
0000
0000
0000
0000
0000
0000
0000
0000
0000
0000
0000
0000
0000
0000
0000
,
0000
3003
0000
0000
0000
0000
0000
0000
;

//---------------dance-single - ----------------
#NOTES:
     dance-single:
     DIFFICULT:
     Medium:
     10:
     0.533722,0.564047,0.412421,0.303251,0.018195,308.000000,274.000000,34.000000,25.000000,0.000000,0.000000,0.533722,0.564047,0.412421,0.303251,0.018195,308.000000,274.000000,34.000000,25.000000,0.000000,0.000000:
0000
0000
0000
0000
,
0000
0000
0000
0000
,
1000
0010
0200
0000
0301
0010
0002
0000
,
1003
0100
0020
0000
0130
1000
0200
0000
,
1300
0001
0020
0000
0031
1000
0100
0010
,
0011
0000
1001
0000
0100
0010
0100
0010
,
0000
1000
0000
0001
0000
1000
0000
0001
,
0000
0010
0000
0100
0000
0010
0100
0000
,
1000
0010
0001
0100
,
1010
0000
0101
0000
1000
0001
1000
0001
,
0000
0100
0000
1000
0000
0010
0000
1000
,
0000
0100
0000
0001
0000
1000
0001
0000
,
0010
0001
1000
0100
,
0110
0000
1001
0000
0010
0100
0010
0100
,
1000
0001
1000
0000
0001
1000
0001
0000
,
1000
0000
0010
0000
0100
0002
0000
0000
,
0013
0100
0010
0000
0100
0010
0100
0000
,
1001
0000
0110
0000
0010
0010
0010
0000
,
1000
0100
1000
0000
0100
0001
0100
0000
,
0010
0001
0010
0000
0001
2000
0000
0000
,
3010
0100
0010
0000
1000
0001
1000
0000
,
0100
0010
0100
0000
0010
0001
0010
0100
,
1100
0000
0000
2200
0000
0000
3300
0000
,
0011
0000
0000
0022
0000
0000
0033
0000
,
1001
0000
0000
0220
0000
0000
0330
0000
,
0110
0000
0000
1001
0000
0100
0010
0200
,
0000
0000
0310
0010
,
0100
0100
0001
1000
,
0001
0000
1000
0000
0100
0010
0100
0000
,
0011
0000
0100
1000
0100
0000
1010
0000
,
0100
0100
0100
0000
0001
0000
0010
0000
,
0001
0010
0100
1000
,
0100
0000
0010
0000
0001
1000
0001
0000
,
0110
0000
0000
0000
1000
0000
0010
0000
1000
0000
0000
1000
0000
0000
0002
0000
,
0200
0000
0303
0000
0000
0010
0000
1000
,
0000
0010
0000
1000
0000
0100
0000
0010
,
0000
0100
0000
0001
0000
0100
0000
1000
,
0000
0001
0000
0010
0000
1000
0000
0010
,
0000
0001
0000
1000
0100
0001
0100
1000
,
0100
0000
1000
0000
0001
0010
1000
0010
,
0001
0000
0100
0000
0010
1000
0100
0010
,
0100
0000
0010
0000
0001
0101
0000
0110
,
0000
0010
2000
0000
3100
0000
1000
0010
,
0200
0000
0301
0000
0011
0000
0001
0010
,
0200
0000
0310
0000
1100
0000
0001
1000
,
0020
0000
0031
0000
0110
0000
1000
0001
,
0200
0000
1300
0000
0100
0001
0100
0000
,
0010
0001
0010
0000
0100
1000
0100
0000
,
0010
0100
0010
0100
0000
0011
0000
1001
,
0000
1100
0000
0110
0000
1001
0000
0110
,
0000
1000
0002
0000
0013
0001
0010
0000
,
0001
0100
0001
0000
1000
0010
1000
0010
,
0100
0020
0000
0000
0130
0001
0010
0001
,
1000
0000
0010
0000
1000
0100
0001
0100
,
1000
0000
0010
0000
0100
0001
0100
0000
,
0001
0010
0001
0000
0100
0010
1000
0000
,
0100
0000
0010
0000
0001
0000
1001
0000
1100
0000
0000
0000
0000
0110
0000
0000
,
0000
0000
0000
0000
0000
2002
0000
0000
0000
0000
0000
0000
0000
0000
0000
0000
0000
0000
0000
0000
0000
0000
0000
0000
0000
0000
0000
0000
0000
0000
0000
0000
,
0000
3003
0000
0000
0000
0000
0000
0000
;

//---------------dance-single - ----------------
#NOTES:
     dance-single:
     EXPERT:
     Hard:
     13:
     0.700076,0.705816,0.703542,0.291121,0.212276,404.000000,346.000000,58.000000,24.000000,0.000000,0.000000,0.700076,0.705816,0.703542,0.291121,0.212276,404.000000,346.000000,58.000000,24.000000,0.000000,0.000000:
0000
0000
0000
0000
,
0000
0000
0000
0000
,
1000
0010
0000
0000
0100
0001
0000
0000
0010
0100
0000
0000
1000
0001
0000
0000
,
0001
1000
0000
0000
0100
0010
0000
0000
0001
0100
0000
0000
0010
1000
0000
0000
,
0100
0001
0000
0000
0100
1000
0000
0000
0010
1000
0000
0000
0010
0001
0000
0000
,
0011
0000
0000
0000
1010
0000
0000
0000
1000
0001
1000
0001
1000
0000
0010
0000
,
0100
0001
0000
0011
0000
1000
0000
1010
,
0000
0001
0000
0101
0000
1001
0000
1000
,
0010
0000
0010
0100
0000
0100
0001
0000
,
0001
0010
0000
0010
0100
1000
0001
0010
,
0100
0010
0000
0110
0000
1000
0000
1001
,
0000
0100
0000
0110
0000
0011
0000
0010
,
0100
0000
0100
1000
0000
0100
0010
0000
,
0010
0000
0001
0000
0000
0000
1000
0000
0010
0000
0100
0000
0001
0000
1000
0010
,
1000
0010
0100
0000
1000
0010
0100
0000
,
0001
0100
0010
0000
0001
0200
0000
0300
,
1100
0000
0010
0001
1000
0000
0010
0001
,
1000
0000
0110
0000
0001
1000
1100
0000
,
0010
0100
1000
0000
0010
0100
1000
0000
,
0001
1000
0010
0000
0001
2000
0000
3000
,
0101
0000
0010
0001
0000
0001
1000
0000
,
0100
0000
0010
0000
0000
0000
0010
0000
0001
1000
0001
1000
0001
0000
0010
0000
,
0012
0000
1003
2010
0000
0001
3001
0000
,
0210
0000
0000
0000
0301
0000
2001
0000
0000
0000
0010
0000
3010
1000
0010
0000
,
1200
0000
1300
1002
0000
0010
0013
0000
,
0101
0000
0000
0000
0000
0000
1010
0000
0000
0000
0110
0000
0001
0010
2000
0000
,
0000
0000
0000
3000
1010
0000
0011
0000
,
0110
0000
0001
1000
1100
0000
0011
0000
,
1001
0000
0110
0000
0001
0010
0100
1000
,
0001
0000
1000
0010
0011
0000
1100
0000
,
0001
0100
0010
0000
1100
0000
0101
0000
,
0011
0000
0001
0100
0110
0000
1010
0000
,
1000
0010
0001
0010
1000
0001
0100
0000
,
0010
0000
1000
0000
0001
0000
0000
0000
1010
0000
0000
1000
0000
0000
0100
0000
,
0010
0000
0001
0000
0100
0010
0100
0010
0100
0000
0001
0000
0010
0000
0001
0000
,
0010
1000
0010
1000
0010
0100
0010
0100
,
1000
0001
1000
0100
0001
0100
0001
1000
,
0010
0100
0010
0100
1000
0100
0001
0100
,
1000
0001
0100
1000
0100
0001
1000
0000
,
0010
0000
1000
0000
0001
0000
0000
0000
1000
0000
1010
0000
0000
0100
0000
0000
,
0010
0000
0011
0000
0000
0000
1000
0000
0001
0100
0001
0000
1010
0000
0000
0000
,
0001
0100
0010
1000
1100
1100
0000
0101
,
0000
0001
1000
0000
0120
0000
1000
2030
,
0000
3100
0010
0001
1002
0000
0010
0023
,
0000
0130
1000
0001
0201
0000
0001
0301
,
1000
0010
1000
0100
2100
0000
0010
3010
,
1000
0000
0100
0000
0010
0001
0010
0001
0020
0000
0000
0000
0031
0000
1000
0000
,
0010
0000
1000
0000
0100
0010
0100
0010
0200
0000
0000
0000
1300
0000
0001
0000
,
0100
0000
0001
0000
0010
0001
0010
0000
0000
0000
0101
0000
0000
0000
1001
0000
,
0000
1010
0000
0110
0000
1001
0000
0110
,
0000
1000
0002
0000
0013
0100
1000
0000
,
0010
0100
1000
0000
0001
1000
0010
0000
,
0001
1000
0010
0000
1000
0001
0000
0001
,
0010
0000
0010
0100
0000
0100
0001
0100
,
1000
0010
1000
0100
0001
0100
1000
0000
,
0001
0100
1000
0000
1000
0010
0001
0000
,
1000
0000
0010
0000
0001
0000
1001
0000
2200
0000
0000
3300
0000
0202
0000
0000
,
0000
0000
0303
0000
0000
0220
0000
0000
0000
0000
0000
0000
0000
0000
0000
0000
0000
0000
0000
0000
0000
0000
0000
0000
0000
0000
0000
0000
0000
0000
0000
0000
,
0300
0000
0000
0000
1030
0001
1000
0000
0000
0000
0000
0000
0000
0000
0000
0000
0000
0000
0000
0000
0000
0000
0000
0000
0000
0000
0000
0000
0000
0000
0000
0000
;

//---------------dance-single - ----------------
#NOTES:
     dance-single:
     BEGINNER:
     Beginner:
     5:
     0.209676,0.317276,0.145560,0.072780,0.000000,121.000000,109.000000,12.000000,6.000000,0.000000,0.000000,0.209676,0.317276,0.145560,0.072780,0.000000,121.000000,109.000000,12.000000,6.000000,0.000000,0.000000:
// measure 0
0000
0000
0000
0000
,  // measure 1
0000
0000
0000
0000
,  // measure 2
1000
0000
1000
0000
,  // measure 3
1000
0000
0001
0000
,  // measure 4
0001
0000
0001
0000
,  // measure 5
1001
1001
1001
0000
,  // measure 6
0000
0010
0000
0010
,  // measure 7
0000
0010
0000
0000
,  // measure 8
0000
0100
0000
0100
,  // measure 9
0000
0100
0000
0000
,  // measure 10
0000
0010
0000
0010
,  // measure 11
0000
0010
0000
0000
,  // measure 12
0000
0100
0000
0100
,  // measure 13
0000
0100
0000
0000
,  // measure 14
0001
0001
0001
0000
,  // measure 15
0000
0001
0000
0001
,  // measure 16
1000
1000
1000
0000
,  // measure 17
0000
1000
0000
1000
,  // measure 18
0010
0010
0010
0000
,  // measure 19
0000
0010
0000
0010
,  // measure 20
0100
0100
0100
0000
,  // measure 21
0000
0100
0000
0100
,  // measure 22
1001
0000
0000
0000
,  // measure 23
0110
0000
0000
0000
,  // measure 24
1001
0000
0000
0000
,  // measure 25
0220
0000
0000
0000
,  // measure 26
0000
0000
0330
1000
,  // measure 27
0000
1000
0000
1000
,  // measure 28
1000
1000
0000
0001
,  // measure 29
0000
0001
0000
0001
,  // measure 30
0001
0001
0000
0010
,  // measure 31
0000
0010
0000
0010
,  // measure 32
0010
0010
0000
0100
,  // measure 33
0000
0100
0000
0100
,  // measure 34
0100
0100
1000
0000
,  // measure 35
0001
0000
1000
0000
,  // measure 36
0001
0000
0100
0000
,  // measure 37
0010
0000
0100
0000
,  // measure 38
0010
0000
1000
0000
,  // measure 39
0010
0000
0100
0000
,  // measure 40
0001
0000
0010
0000
,  // measure 41
0100
0000
1001
1001
,  // measure 42
1001
0000
0010
0000
,  // measure 43
0000
0000
0010
0000
,  // measure 44
0000
0000
0100
0000
,  // measure 45
0000
0000
0100
0000
,  // measure 46
0000
0001
0001
0000
,  // measure 47
0000
0010
0010
0000
,  // measure 48
0000
1000
2002
0000
,  // measure 49
0000
0000
0000
0000
,  // measure 50
3003
0000
0010
0010
,  // measure 51
0010
0000
0000
0010
,  // measure 52
0000
0010
0100
0100
,  // measure 53
0100
0000
0000
0100
,  // measure 54
0100
0000
0001
0001
,  // measure 55
0001
0000
1000
1000
,  // measure 56
1000
2002
0000
0000
,  // measure 57
0000
0000
0000
0000
,  // measure 58
0000
3003
0000
0000
0000
0000
0000
0000
;
