#TITLE:CAPTAIN'S VOYAGE;
#SUBTITLE:;
#ARTIST:古川もとあき;
#TITLETRANSLIT:;
#SUBTITLETRANSLIT:;
#ARTISTTRANSLIT:Motoaki Furukuwa;
#GENRE:VOYAGE FUSION;
#CREDIT:YonabearCWY;
#BANNER:CAPTAIN'S VOYAGE.png;
#BACKGROUND:CAPTAIN'S VOYAGE-bg.png;
#LYRICSPATH:;
#CDTITLE:GUITAR FREAKS & drummania.png;
#MUSIC:CAPTAIN'S VOYAGE.ogg;
#OFFSET:-10.230000;
#SAMPLESTART:51.759121;
#SAMPLELENGTH:15.000000;
#SELECTABLE:YES;
#BPMS:0.000000=155.990005
;
#STOPS:
;
#BGCHANGES:0.000=tropical1.mp4=0.800=1=0=1===CrossFade==,
4.000=tropical2.mp4=0.800=0=0=1=====,
12.000=water3.mp4=1.200=0=0=1=====,
20.000=fish2.mp4=0.900=0=0=1=====,
28.000=water3.mp4=1.200=0=1=1=StretchRewind====,
30.500=tropical1.mp4=2.000=0=1=1=StretchRewind====,
32.000=fish2.mp4=0.900=0=1=1=StretchRewind====,
34.500=tropical2.mp4=2.000=0=1=1=StretchRewind====,
36.000=fish1.mp4=1.200=0=0=1=====,
44.000=wave1.mp4=1.200=0=0=1=====,
52.000=text5.mp4=1.200=0=0=1=====,
60.000=wave1.mp4=1.200=0=1=1=StretchRewind====,
68.000=text5.mp4=1.200=0=1=1=StretchRewind====,
76.000=sea1.mp4=1.200=0=0=1=====,
92.000=tunnel12.mp4=1.000=0=1=1=StretchRewind====,
108.000=seaweed1.mp4=1.200=0=0=1=====,
116.000=sun1.mp4=0.800=0=0=1=====,
124.000=seaweed1.mp4=1.200=0=1=1=StretchRewind====,
132.000=water1.mp4=1.200=0=0=1=====,
140.000=tropical1.mp4=0.800=0=1=1=StretchRewind====,
144.000=sun1a.mp4=0.700=0=0=1=====,
148.000=tropical2.mp4=0.800=0=1=1=StretchRewind====,
152.000=bubble3.mp4=1.200=0=0=1=====,
156.000=fish2.mp4=0.900=0=1=1=StretchRewind====,
172.000=fish1.mp4=1.200=0=1=1=StretchRewind====,
188.000=tropical1.mp4=0.800=0=1=1=StretchRewind====,
196.000=tropical2.mp4=0.800=0=1=1=StretchRewind====,
204.000=tropical1.mp4=0.800=0=1=1=StretchRewind====,
207.500=sun1b.mp4=0.700=0=0=1=====,
211.500=CAPTAIN'S VOYAGE-bg.png=1.000=0=0=1=====,
99999.000=-nosongbg-=1.000=0=0=0=StretchNoLoop====,
99999=-nosongbg-=1.000=0=0=0 // don't automatically add -songbackground-
;
#KEYSOUNDS:;
#ATTACKS:;

//---------------dance-single - ----------------
#NOTES:
     dance-single:
     BASIC:
     Easy:
     6:
     0.278147,0.343239,0.321159,0.291051,0.000000,194.000000,162.000000,32.000000,29.000000,0.000000,0.000000,0.278147,0.343239,0.321159,0.291051,0.000000,194.000000,162.000000,32.000000,29.000000,0.000000,0.000000:
0000
0000
0000
0000
,
1000
1000
1000
0001
,
0001
0001
1000
1001
,
1001
0010
0000
0010
,
0000
0010
0000
0010
,
0110
0100
0000
0100
,
0000
0100
0000
0100
,
0001
1000
0002
0003
,
1000
0001
2000
3000
,
0010
0100
0010
0100
,
0110
0010
0110
0100
,
1001
1000
0000
1000
,
0000
1000
0000
1000
,
1001
0001
0000
0001
,
0000
0001
0000
0001
,
0101
0001
0010
0001
,
0100
0010
1000
0010
,
1100
1000
0001
1000
,
1001
0010
0001
0101
,
0020
0000
0100
0000
,
0100
0000
0100
0000
,
0230
0301
0002
1003
,
2000
3010
0200
0301
,
0020
0001
1000
0031
,
0200
1000
0001
1300
,
0020
0031
2000
3001
,
0110
0110
1000
0001
,
1001
0001
0000
0001
,
0000
0001
0001
0001
,
1001
1000
0000
1000
,
0000
1000
0000
1000
,
0110
0010
0000
0010
,
0000
0010
0000
0010
,
0110
0100
0100
0010
,
0100
0001
0001
1000
,
2002
0000
0000
3003
,
0110
0100
0001
1001
,
0220
0000
0000
0330
,
0001
1010
0100
0110
,
1001
0010
1000
0010
,
1000
0001
0100
0001
,
0100
0000
0100
0000
,
0100
0010
0100
0010
,
1000
0001
1000
0001
,
0010
0000
0010
0000
,
0010
0100
0010
0100
,
1000
0001
1000
0001
,
2002
0000
0000
0000
0000
3003
0000
0102
,
0000
1003
0010
0100
,
0022
0000
0000
0000
0000
0033
0000
2010
,
0000
3001
1000
0010
,
0220
0000
0000
0000
0000
0330
0000
2020
,
0000
0000
3030
0000
0202
0000
0303
2002
,
0000
0000
0000
0000
,
0000
0000
0000
0000
,
0000
0000
0000
0000
,
0000
0000
0000
0000
,
3003
0000
0000
0000
;

//---------------dance-single - ----------------
#NOTES:
     dance-single:
     DIFFICULT:
     Medium:
     8:
     0.382811,0.457652,0.281014,0.321159,0.000000,267.000000,239.000000,28.000000,32.000000,0.000000,0.000000,0.382811,0.457652,0.281014,0.321159,0.000000,267.000000,239.000000,28.000000,32.000000,0.000000,0.000000:
0000
0000
0000
0000
,
1000
1000
0000
0001
0001
0000
0110
0000
,
1000
0010
1000
0000
0001
0100
0001
0000
,
0020
0000
0001
0000
0000
0001
0031
0000
,
0200
0000
0010
0000
0000
0010
0310
0000
,
1000
0000
0000
0001
0000
0000
1000
0000
,
0000
0010
0000
0000
0100
0000
0001
0000
,
0011
0000
1000
0001
1000
0001
1000
0000
,
0110
0000
0010
1000
0010
1000
0010
0000
,
1001
0000
0100
0001
0010
0001
0010
0000
,
0002
1003
2000
3001
,
0020
0000
0100
0000
0000
0100
0130
0000
,
0200
0000
1000
0000
0000
1000
1300
0000
,
0001
0000
0000
0100
0000
0000
0001
0000
,
0000
0010
0000
0000
0001
0000
1000
0000
,
0110
0000
0100
0001
0100
0000
0010
1000
,
0010
0000
1000
0000
0001
0000
0100
0010
,
1010
0000
0001
1000
0001
0000
1000
0001
,
1000
0100
0010
0001
,
1000
1000
0000
0001
0001
0000
1000
1000
,
0000
0001
0001
0000
0100
0010
0000
1000
,
0010
0010
0000
0100
0100
0001
0000
0010
,
0010
0100
0000
1000
0001
0001
0000
0010
,
0100
1100
0100
0101
,
0100
0000
1000
0001
0010
0000
0010
0000
,
1010
0010
0011
0010
,
0001
1000
0001
1000
0100
0010
0001
0000
,
1000
0010
1000
0010
0000
0100
0000
0001
,
0000
0010
0000
0001
0100
0000
0010
0000
,
1000
0100
1000
0000
1010
0000
0100
0000
,
0001
0010
0001
0000
0100
0000
0101
0000
,
0010
0001
0010
0001
0000
1000
0000
0010
,
0000
0100
0000
0001
0010
0000
0100
0000
,
1000
0001
1000
0000
0001
0100
0001
0000
,
0010
0001
0010
0000
0100
0010
0100
0000
,
2010
0001
0100
3010
,
0011
0000
0000
2002
0000
0000
3003
0000
,
0102
1000
0010
1003
,
2100
3001
0102
1003
,
0020
0000
1000
0000
0000
1000
1030
0000
,
0200
0000
0010
0010
0000
0010
0310
0000
,
0002
0000
0010
0000
0000
0010
0013
0000
,
0001
1000
0100
1000
0200
0000
0001
0000
,
1300
0010
0100
0000
0001
0100
0010
0000
,
2100
0001
0010
3001
,
0100
0001
0010
0000
0001
1000
0100
0000
,
0012
1000
0010
0103
,
0001
0022
0000
0000
0000
0000
0033
2001
,
0000
0000
0000
3001
1000
0100
0010
0001
,
0100
0220
0000
0000
0000
0000
0330
1002
,
0000
0000
0000
0103
0010
0000
1000
0000
,
0001
0202
0000
0000
0000
0000
0303
2020
,
0000
0000
3030
0000
0220
0000
0330
2002
,
0000
0000
0000
0000
,
0000
0000
0000
0000
,
0000
0000
0000
0000
,
0000
0000
0000
0000
,
3003
0000
0000
0000
;

//---------------dance-single - ----------------
#NOTES:
     dance-single:
     EXPERT:
     Hard:
     11:
     0.516149,0.533928,0.371341,0.551993,0.065236,360.000000,323.000000,37.000000,55.000000,0.000000,0.000000,0.516149,0.533928,0.371341,0.551993,0.065236,360.000000,323.000000,37.000000,55.000000,0.000000,0.000000:
0000
0000
0000
0000
,
1000
0002
0000
0013
0100
1000
0010
0000
,
0100
0001
0010
0000
0001
1000
0100
0000
,
1001
0000
0010
0000
1001
0000
0100
0010
,
1000
0000
0100
0010
0001
1000
0001
0000
,
0220
0000
0330
0022
0000
0033
2020
0000
,
3000
1030
0002
0000
0100
0100
0103
0000
,
1010
0000
0100
0001
0010
0100
0100
0000
,
0011
0000
1000
0100
0010
0001
0001
0000
,
1010
0000
0001
0100
0010
1000
0100
0010
,
0001
2000
0000
3100
0010
0001
1000
0001
,
0110
0000
1000
0000
0110
0000
0001
0010
,
0000
0100
1000
0002
0010
0010
0013
0000
,
2200
0000
3300
0220
0000
0330
2002
0000
,
3000
0013
0002
1000
1003
0000
0110
0000
,
0001
0100
0001
0010
0001
1000
0010
1000
,
0100
1000
0000
0100
0010
0001
1000
0010
,
1000
0100
1000
0001
1000
0010
0100
0000
,
0011
0000
0001
0000
1000
0000
0000
0000
1010
0000
1000
0000
0001
0100
0000
0100
,
0020
1000
0000
2030
0100
0000
3200
0010
,
0000
0310
0001
1000
0001
1000
0010
0100
,
0002
1000
0000
1003
0020
0100
0000
0130
,
0002
0010
0000
0013
0100
1000
0001
0010
,
0100
1000
0002
0000
2000
0003
0020
3000
,
0200
0030
0301
0010
0100
1000
0101
0000
,
1020
0000
0130
0002
0000
0013
0100
1000
,
0001
0000
1000
0000
0010
0000
1000
0000
0001
0000
1000
0000
0010
0100
0010
0000
,
0100
0001
0010
0100
1000
0001
0010
0001
,
1000
0100
0010
0000
0100
0010
0001
0000
,
2010
0000
0000
3001
0102
0000
0000
1003
,
1020
0000
0000
0000
0130
0000
0010
0000
0100
0010
0100
0000
1001
0000
0000
0000
,
0010
0001
0100
0001
0010
0100
1000
0001
,
1000
0010
0001
0010
1000
0000
1000
0100
,
0001
0100
1000
0000
0001
0010
1000
0000
,
1000
0010
0001
0010
1000
0001
0100
0010
,
0012
0000
0000
0100
0000
0000
1003
0001
0010
0100
0010
0100
,
2000
0000
0010
0000
3100
0100
1001
0000
,
0120
0000
0000
0001
0000
0000
1030
0010
0100
0001
0010
0001
,
0200
0000
1000
0000
0310
0010
1001
0000
,
0100
0001
0010
0002
0000
1003
0020
0001
,
0000
0031
0020
1000
0000
1030
0200
0000
,
0310
0001
1000
0020
0000
0130
0001
0010
,
0002
0000
1003
0010
0100
0000
1001
0000
,
0010
0100
1000
0001
0100
0010
1000
0010
,
0001
0010
0100
0010
0100
1000
0001
1000
,
0100
0001
0010
1000
0001
1000
0010
0001
,
0100
0000
0010
0000
1000
0000
0100
0000
0010
0001
0010
0000
1001
0000
0000
0000
,
0012
0010
0000
1000
0000
0010
0013
2002
,
0000
0000
3000
1003
0010
0100
0001
0010
,
2100
0100
0000
0001
0000
0010
3010
2002
,
0000
0000
0003
3001
0010
0100
1001
0000
,
0120
0100
0000
0001
0000
1000
1030
0220
,
0000
0000
0000
0330
0202
0000
0303
2002
,
0000
0000
0000
0000
,
0000
0000
0000
0000
,
0000
0000
0000
0000
,
3003
0000
0000
0000
;

//---------------dance-single - ----------------
#NOTES:
     dance-single:
     CHALLENGE:
     Challenge:
     15:
     0.706837,0.743685,0.401449,0.311123,0.597156,493.000000,453.000000,40.000000,31.000000,0.000000,0.000000,0.706837,0.743685,0.401449,0.311123,0.597156,493.000000,453.000000,40.000000,31.000000,0.000000,0.000000:
0000
0000
0000
0000
,
1000
0000
1002
0000
0000
0000
0010
0000
0013
0000
0001
1000
0001
0000
1000
0100
,
0010
0000
0000
0001
0100
0001
0100
0000
0010
0000
1000
0001
1000
0001
0100
0000
,
0110
0000
0000
0000
0000
0000
1000
0000
0001
0000
0010
0000
0001
0000
0000
0000
0000
0000
0010
0000
0000
0100
0000
0000
,
1000
0000
0000
0000
0000
0000
0001
0000
0100
0000
0010
0000
0100
0000
0000
0001
0000
0000
1000
0000
0000
0100
0000
0000
,
0012
0000
1003
2010
0000
3001
0201
0010
,
0310
0000
0000
0100
0000
0000
0001
0000
1000
0000
0100
0000
0010
0000
0000
0100
0000
0000
1100
0000
0000
0000
0000
0000
,
0101
0000
0000
0000
0000
0000
0010
0000
1000
0000
0100
0000
0001
0000
0000
1000
0000
0000
1010
0000
0000
0000
0000
0000
,
1001
0000
0000
0000
0000
0000
1000
0000
0100
0000
0001
0000
1000
0000
0000
0010
0000
0000
0110
0000
0000
0000
0000
0000
,
0011
0000
0000
0000
0000
0000
0000
0000
0000
0000
0000
0000
0001
0000
0000
0000
1000
0000
0000
0000
0001
0000
0000
0000
0100
0000
0000
0000
0000
0000
0001
0000
0000
0010
0000
0000
0001
0000
0000
0000
0000
0000
1000
0000
0000
0000
0000
0000
,
0010
0100
0000
0000
0001
0000
1000
0000
0100
0000
0010
0001
1000
0000
0001
0000
,
0101
0000
0000
0000
0000
0000
0010
0000
0001
0000
0010
0000
1000
0000
0000
0010
0000
0000
0100
0000
0000
1000
0000
0000
,
0001
0000
0000
0000
0000
0000
1000
0000
0010
0000
0001
0000
0010
0000
0000
0100
0000
0000
1100
0000
0000
0000
0000
0000
,
2001
0000
3001
0012
0000
1003
1020
0100
,
0130
0000
0000
0000
0000
0000
0001
0000
0000
0000
0000
0000
0010
0000
0000
0000
0100
0000
0000
0000
1000
0000
0000
0000
0100
0000
0000
0000
0000
0000
1000
0000
0000
0001
0000
0000
0010
0000
0000
0000
0000
0000
0000
0000
0000
0000
0000
0000
,
0100
0000
0001
0000
0100
0000
1000
0000
0000
0010
0000
0000
0000
0000
0000
0100
0000
0000
0001
0000
1000
0000
0010
0000
,
1000
0100
0000
0010
0001
1000
0100
0010
,
0001
0000
0100
0000
0001
0000
1000
0000
0000
0010
0000
0000
0100
0000
0001
0000
0010
0000
0001
0000
0000
1000
0000
0000
,
1001
0000
0010
0100
0010
0000
1001
0000
0100
0001
0100
0001
0010
0000
0100
0000
,
1000
0001
0001
0010
1000
0010
0001
1000
,
1000
0000
0001
0000
0100
0000
1000
0000
0100
0000
0001
0000
1000
0001
1000
0000
,
0010
0100
0100
0010
0001
0010
0100
0001
,
0001
0000
0100
0000
1000
0000
0100
0000
0010
0000
0100
0001
0100
0000
0010
0000
,
1000
0001
0021
0000
0130
0001
2001
0000
,
3010
1000
0010
0001
1000
0010
0100
0000
,
0001
0010
1020
0000
0031
0100
1000
0100
,
0101
0000
1000
0010
1000
0000
0110
0000
0001
0100
0001
0000
1000
0001
1000
0001
,
0100
0000
0010
0000
1000
0010
1000
0000
0001
0000
0100
0000
0010
0001
0010
0000
,
0100
0000
0010
0000
1000
0001
1000
0000
0010
0000
0100
0000
0010
1000
0010
0000
,
2100
0001
3001
0000
0012
1000
1003
0000
,
0120
0000
0000
0000
1030
0000
0001
1000
0000
1000
0001
0000
0010
0100
0010
0100
,
1000
0000
0001
0000
0010
0000
0001
0100
0001
0000
1000
0000
0010
0000
0100
1000
,
0100
0000
0010
0000
0100
0000
0001
1000
0001
0000
1000
0000
0100
0000
0010
0001
,
0010
0100
2100
0001
3001
0010
0120
1000
,
1030
0000
0010
0000
1002
0000
0100
0000
0103
0001
0010
0001
0010
0000
0100
0000
,
1100
0000
0001
0010
0000
0100
1000
0100
0010
0001
1000
0001
,
1000
0000
0000
0000
0010
0000
0000
0000
0100
0000
0000
0000
0001
0000
0000
0010
0000
0000
0001
0000
0000
0010
0000
0000
0100
0000
0000
0000
1000
0000
0000
0000
0001
0000
0000
0000
0100
0000
0000
0010
0000
0000
0100
0000
0000
0001
0000
0000
,
0100
0000
0000
0000
0000
0000
0001
0000
0000
0000
0000
0000
0010
0000
0000
0000
0000
0000
0001
0000
0000
1000
0000
0000
0001
0000
0000
0000
1000
0000
0000
0000
0100
0000
0000
0000
0010
0000
0000
0000
0100
0000
0000
0000
0001
0000
0000
0000
,
0100
0000
0000
0000
0010
0000
0000
0000
0001
0000
0000
0000
1000
0000
0000
0010
0000
0000
1000
0000
0000
0100
0000
0000
0010
0000
0000
0000
0001
0000
0000
0000
0010
0000
0000
0000
0100
0000
0000
0000
0000
0000
1000
0000
0000
0000
0000
0000
,
1001
0000
0000
0001
0010
0100
1000
0001
1000
0010
0100
0001
,
1000
0100
0000
0100
0010
0000
0010
0001
0000
0001
1000
0100
1000
0000
0010
0000
,
0100
0001
0000
0001
0010
0000
0010
0100
0000
0100
1000
0000
0001
0010
0100
0000
,
0020
0000
0031
0100
2000
0000
3100
0001
,
1010
0000
0000
0000
0010
0000
0000
0000
0100
0000
0001
0000
0010
0000
0001
0000
1000
0000
0010
0000
0000
0100
0000
0000
,
0001
1000
0010
1000
0000
0000
0100
0010
0001
0010
1000
0001
,
1000
0000
0010
0000
0001
0000
0100
0000
0010
0000
1000
0010
1000
0000
0001
0000
,
0010
0001
0010
0100
1000
0100
0010
0000
0001
2000
0000
0000
0100
0000
0000
0000
,
3001
0000
0102
0000
0000
0000
1000
0000
0000
0000
0013
0100
0001
0000
2001
0000
,
0000
0010
0010
0010
3010
0100
0001
0010
,
0100
0000
0210
0000
0000
0000
0001
0000
0000
0000
0310
0001
0100
0000
1002
0000
,
0000
0100
0100
0100
0203
0000
0301
1000
,
0010
0000
1020
0000
0000
0000
0001
0000
0000
0000
0130
0010
1000
0000
2002
0000
,
0000
0000
0000
3003
0012
0000
1003
2002
,
0000
0000
0000
0000
0000
0000
0000
3000
,
1000
0000
0000
0010
0000
0000
1000
0000
,
0000
0100
0000
0000
2000
0000
0000
0000
,
0000
0000
0000
0000
,
3003
0000
0000
0000
;

//---------------dance-single - ----------------
#NOTES:
     dance-single:
     BEGINNER:
     Beginner:
     3:
     0.154845,0.228826,0.060217,0.020072,0.000000,108.000000,102.000000,6.000000,2.000000,0.000000,0.000000,0.154845,0.228826,0.060217,0.020072,0.000000,108.000000,102.000000,6.000000,2.000000,0.000000,0.000000:
// measure 0
0000
0000
0000
0000
,  // measure 1
1000
0000
1000
0000
,  // measure 2
0001
0000
0001
0000
,  // measure 3
0000
0100
0000
0100
,  // measure 4
0000
0100
0000
0000
,  // measure 5
0000
0010
0000
0010
,  // measure 6
0000
0010
0000
0000
,  // measure 7
0100
0100
0100
0000
,  // measure 8
0100
0100
0100
0000
,  // measure 9
0010
0010
0010
0000
,  // measure 10
0010
0010
0010
0000
,  // measure 11
0000
1000
0000
1000
,  // measure 12
0000
1000
0000
0000
,  // measure 13
0000
0001
0000
0001
,  // measure 14
0000
0001
0000
0000
,  // measure 15
0100
0100
0100
0000
,  // measure 16
0100
0000
0000
0000
,  // measure 17
0010
0010
0010
0000
,  // measure 18
0010
0000
0000
0000
,  // measure 19
0000
0000
1000
0000
,  // measure 20
1000
0000
1000
0000
,  // measure 21
0000
0001
0000
0001
,  // measure 22
0000
0001
0000
0001
,  // measure 23
0000
1000
1000
0000
,  // measure 24
1000
0000
0000
0000
,  // measure 25
0000
0001
0001
0000
,  // measure 26
0001
0000
0000
0000
,  // measure 27
1000
1000
1000
0000
,  // measure 28
1000
0000
0000
0000
,  // measure 29
0100
0100
0100
0000
,  // measure 30
0100
0000
0000
0000
,  // measure 31
0010
0010
0010
0000
,  // measure 32
0010
0000
0000
0000
,  // measure 33
0001
0001
0001
0000
,  // measure 34
0001
0000
0000
0000
,  // measure 35
0001
0001
0001
0000
,  // measure 36
1001
0000
0000
0000
,  // measure 37
1000
1000
1000
0000
,  // measure 38
1001
0000
0000
0000
,  // measure 39
0000
0010
0000
0010
,  // measure 40
0000
0010
0000
0100
,  // measure 41
0000
0100
0000
0100
,  // measure 42
0000
0010
0000
0010
,  // measure 43
0000
0010
0000
0100
,  // measure 44
0000
0100
0000
0100
,  // measure 45
0000
0001
0000
0001
,  // measure 46
0000
1000
0000
1000
,  // measure 47
1001
0000
0000
0000
,  // measure 48
0000
0100
0100
0100
,  // measure 49
1001
0000
0000
0000
,  // measure 50
0010
0010
0010
0010
,  // measure 51
1001
0000
0000
0000
0000
0000
0000
0001
,  // measure 52
0000
0000
0000
0000
1000
0000
0000
2002
,  // measure 53
0000
0000
0000
0000
,  // measure 54
0000
0000
0000
0000
,  // measure 55
0000
0000
0000
0000
,  // measure 56
0000
0000
0000
0000
,  // measure 57
3003
0000
0000
0000
;
