#VERSION:0.83;
#TITLE:CAPTAIN KARAOKE;
#SUBTITLE:;
#ARTIST:TIGGY;
#TITLETRANSLIT:;
#SUBTITLETRANSLIT:;
#ARTISTTRANSLIT:;
#GENRE:EURO HOUSE;
#ORIGIN:;
#TAGS:;
#CREDIT:YonabearCWY;
#BANNER:CAPTAIN KARAOKE.png;
#BACKGROUND:CAPTAIN KARAOKE-bg.png;
#PREVIEWVID:;
#JACKET:CAPTAIN KARAOKE-jacket.png;
#CDIMAGE:;
#DISCIMAGE:;
#LYRICSPATH:;
#CDTITLE:Dance Mania Bass 6.png;
#MUSIC:CAPTAIN KARAOKE.ogg;
#OFFSET:-6.000000;
#SAMPLESTART:80.493469;
#SAMPLELENGTH:15.000000;
#SELECTABLE:YES;
#BPMS:0.000000=132.000000
;
#STOPS:;
#DELAYS:;
#WARPS:;
#TIMESIGNATURES:0.000000=4=4
;
#TICKCOUNTS:0.000000=4
;
#COMBOS:0.000000=1
;
#SPEEDS:0.000000=1.000000=0.000000=0
;
#SCROLLS:0.000000=1.000000
;
#LABELS:0.000000=Song Start
;
#BGCHANGES:4.000=microphone1.mp4=1.000=1=0=1===CrossFade==,
12.000=rainbow3.mp4=1.000=0=0=1=====,
16.000=heart8.mp4=1.000=0=0=1=====,
20.000=film1.mp4=1.000=0=0=1=====,
36.000=groove1.mp4=1.000=0=0=1=====,
44.000=heart2.mp4=1.000=0=0=1=====,
52.000=night1.mp4=1.000=0=0=1=====,
60.000=rainbow3.mp4=1.000=0=1=1=StretchRewind====,
68.000=dating1.mp4=1.000=0=0=1=====,
74.000=dating2.mp4=1.000=0=0=1=====,
76.000=ddr4.mp4=1.400=0=0=1=====,
84.000=planet1.mp4=1.000=0=0=1=====,
100.000=microphone1.mp4=1.000=0=0=1=====,
108.000=heart1.mp4=1.000=0=0=1=====,
116.000=flower2.mp4=1.000=0=0=1=====,
124.000=groove1.mp4=1.000=0=1=1=StretchRewind====,
128.000=heart3.mp4=1.200=0=0=1=====,
132.000=night1.mp4=1.000=0=1=1=StretchRewind====,
140.000=rainbow3.mp4=1.000=0=1=1=StretchRewind====,
148.000=dating1.mp4=1.000=0=1=1=StretchRewind====,
154.000=dating2.mp4=1.000=0=1=1=StretchRewind====,
156.000=ddr4.mp4=1.400=0=1=1=StretchRewind====,
164.000=planet1.mp4=1.000=0=1=1=StretchRewind====,
180.000=microphone1.mp4=1.000=0=1=1=StretchRewind====,
188.000=heart1.mp4=1.000=0=1=1=StretchRewind====,
196.000=dancers3.mp4=1.000=0=0=1=====,
198.000=dancers4.mp4=1.000=0=0=1=====,
200.000=dancers5.mp4=1.000=0=0=1=====,
204.000=dancers3.mp4=1.000=0=1=1=StretchRewind====,
206.000=dancers4.mp4=1.000=0=1=1=StretchRewind====,
208.000=dancers6.mp4=1.000=0=0=1=====,
212.000=planet1.mp4=1.000=0=1=1=StretchRewind====,
220.000=microphone1.mp4=1.000=0=0=1=====,
228.000=dancers4.mp4=1.000=0=1=1=StretchRewind====,
230.000=dancers3.mp4=1.000=0=1=1=StretchRewind====,
232.000=dancers5.mp4=1.000=0=1=1=StretchRewind====,
236.000=dancers4.mp4=1.000=0=1=1=StretchRewind====,
238.000=dancers3.mp4=1.000=0=1=1=StretchRewind====,
240.000=dancers6.mp4=1.000=0=1=1=StretchRewind====,
244.000=planet1.mp4=1.000=0=1=1=StretchRewind====,
252.000=microphone1.mp4=1.000=0=0=1=====,
260.000=film1.mp4=1.000=0=1=1=StretchRewind====,
268.000=CAPTAIN KARAOKE-bg.png=1.000=0=0=1=====,
99999=-nosongbg-=1.000=0=0=0 // don't automatically add -songbackground-
;
#KEYSOUNDS:;
#ATTACKS:
;

//---------------dance-single - ----------------
#NOTEDATA:;
#CHARTNAME:BEGINNER;
#CHARTHASH:2147483647;
#STEPSTYPE:dance-single;
#BANNER:;
#DESCRIPTION:;
#CHARTSTYLE:;
#DIFFICULTY:Beginner;
#METER:3;
#METERF:3.000000;
#LASTSECONDHINT:130.545441;
#RADARVALUES:0.000000,0.000000,0.000000,0.000000,0.000000,0.000000,0.000000,0.000000,0.000000,0.000000,0.000000,0.000000,0.000000,0.000000,0.000000,0.000000,0.000000,0.000000,0.000000,0.000000,0.000000,0.000000,0.000000,0.000000,0.000000,0.000000,0.000000,0.000000;
#CREDIT:YonabearCWY;
#NOTES:
0000
0000
0000
0000
,
1000
0000
0000
0000
,
1000
0000
1000
0000
,
0001
0000
0000
0000
,
0001
0000
0001
0000
,
1000
0000
1000
1000
,
1000
0000
0001
0000
,
0001
0000
0001
0001
,
0001
0000
1000
0000
,
1000
0000
0010
0010
,
0010
0000
0010
0000
,
0100
0000
0100
0100
,
0100
0000
0001
0000
,
0001
0000
0001
0000
,
0001
0000
0000
0000
,
1000
0000
1000
0000
,
1000
0000
0000
0000
,
0010
0000
0010
0000
,
0010
0000
0000
0000
,
0100
0000
0100
0000
,
0100
0000
0000
0000
,
0001
0001
0001
0000
,
0001
0000
0000
0000
,
0010
0000
0010
0000
,
0010
0010
0010
0000
,
0100
0100
0100
0000
,
0100
0000
0000
0000
,
1000
0000
1000
0000
,
1000
1000
1001
0000
,
0010
0010
0010
0000
,
0010
0000
0000
0000
,
0100
0100
0100
0000
,
1001
0000
0000
0000
,
0001
0000
0001
0000
,
0001
0000
0000
0000
,
1000
0000
1000
0000
,
1000
0000
0000
0000
,
0100
0000
0100
0000
,
0100
0000
0000
0000
,
0010
0000
0010
0000
,
0010
0000
0000
0000
,
1000
1000
1000
0000
,
1000
0000
0000
0000
,
0001
0000
0001
0000
,
0001
0001
0001
0000
,
0010
0010
0010
0000
,
0010
0000
0000
0000
,
0100
0000
0100
0000
,
0100
0100
0110
0000
,
1001
0000
1001
0000
,
0010
0010
0010
0000
,
1001
0000
1001
0000
,
0100
0100
0100
0000
,
0110
0000
0110
0000
,
0001
0001
0001
0000
,
1000
0000
1000
0000
,
0001
0000
0001
0000
,
0110
0000
0110
0000
,
1000
1000
1000
0000
,
0110
0000
0110
0000
,
0001
0001
0001
0000
,
1001
0000
1001
0000
,
0100
0100
0100
0000
,
0010
0000
0010
0000
,
0100
0000
0100
0000
,
0010
0000
0010
0000
,
0100
0000
0100
0000
,
2002
0000
0000
0000
,
0000
0000
3003
0000
;

//---------------dance-single - ----------------
#NOTEDATA:;
#CHARTNAME:BASIC;
#CHARTHASH:2147483647;
#STEPSTYPE:dance-single;
#BANNER:;
#DESCRIPTION:;
#CHARTSTYLE:;
#DIFFICULTY:Easy;
#METER:6;
#METERF:6.000000;
#LASTSECONDHINT:130.545441;
#RADARVALUES:0.000000,0.000000,0.000000,0.000000,0.000000,0.000000,0.000000,0.000000,0.000000,0.000000,0.000000,0.000000,0.000000,0.000000,0.000000,0.000000,0.000000,0.000000,0.000000,0.000000,0.000000,0.000000,0.000000,0.000000,0.000000,0.000000,0.000000,0.000000;
#CREDIT:YonabearCWY;
#NOTES:
0000
0000
0000
0000
,
1001
0000
0000
0000
,
0010
0010
0010
0000
,
0110
0000
1001
0000
,
0110
0110
1001
0000
,
1000
0000
1000
0100
,
0001
0000
0001
0100
,
1000
0000
0010
0100
,
0001
0000
0001
0100
,
0010
0010
0100
0001
,
0010
0010
0001
1000
,
0100
0100
1000
0010
,
0100
0100
0001
1000
,
0020
0000
1030
1000
,
0002
0000
0013
0001
,
1000
1000
0001
0001
,
0110
1001
0220
0330
,
2000
0000
3001
0001
,
0020
0000
0130
0100
,
1000
0001
0100
0001
,
0011
1100
0022
0033
,
0001
0001
0100
0100
,
0010
0000
0010
0000
,
0100
0100
0010
0010
,
1000
0000
1000
0000
,
0001
0001
0010
0010
,
0100
0000
0100
0000
,
1000
0100
0010
0001
,
0011
1100
0220
0330
,
2001
0000
0000
0010
3020
0000
0000
0100
,
0130
0001
2002
3003
,
0012
0000
0000
1000
2000
0000
3003
0000
,
1001
0000
0010
0100
0010
0000
1001
0000
,
0200
0000
0310
1000
,
0200
0000
0310
0001
,
1000
1000
0001
0001
,
1010
0101
2020
3030
,
0020
0000
0031
1000
,
0020
0000
0130
0001
,
0010
0010
0001
0001
,
0110
1010
2002
3003
,
0100
0100
0001
0001
,
0010
0000
0010
0000
,
0001
0001
1000
1000
,
0010
1000
2002
3003
,
1000
1000
0010
0010
,
0100
0000
0001
0000
,
0010
0100
1000
0001
,
0011
0110
2002
3003
,
2000
0000
0000
3001
2000
0000
0000
0000
,
3010
1000
0100
0010
,
0012
0000
0000
1003
0002
0000
0000
0000
,
0013
0010
2002
3003
,
0120
0000
0000
1030
0002
0000
0000
0000
,
0013
0100
1000
0001
,
1000
1000
0100
0100
,
0010
0010
2002
3003
,
0201
0000
0000
0301
0020
0000
0000
0000
,
0130
1000
0001
0100
,
2010
0000
0000
3001
0200
0000
0000
0310
,
1000
0100
0220
0330
,
1002
0000
0000
0013
0002
0000
0000
0013
,
0100
1000
0001
0100
,
0010
0010
1000
1000
,
0100
0010
0001
0100
,
0010
0010
0100
0100
,
1000
0001
0100
0010
,
2002
0000
0000
0000
,
0000
0000
3003
0000
;

//---------------dance-single - ----------------
#NOTEDATA:;
#CHARTNAME:DIFFICULT;
#CHARTHASH:2147483647;
#STEPSTYPE:dance-single;
#BANNER:;
#DESCRIPTION:;
#CHARTSTYLE:;
#DIFFICULTY:Medium;
#METER:9;
#METERF:9.000000;
#LASTSECONDHINT:130.545441;
#RADARVALUES:0.000000,0.000000,0.000000,0.000000,0.000000,0.000000,0.000000,0.000000,0.000000,0.000000,0.000000,0.000000,0.000000,0.000000,0.000000,0.000000,0.000000,0.000000,0.000000,0.000000,0.000000,0.000000,0.000000,0.000000,0.000000,0.000000,0.000000,0.000000;
#CREDIT:YonabearCWY;
#NOTES:
0000
0000
0000
0000
0000
0000
0000
0100
,
0020
0000
0000
0000
0000
0000
0000
0031
,
2000
0000
3010
0100
0020
0000
1030
0001
,
0020
0000
0000
0000
0000
0000
0000
0130
,
2000
0001
3010
1001
,
0100
0000
0100
0010
0100
0000
0100
0000
,
0010
0000
0010
0100
0010
0000
0010
0000
,
2000
0000
0000
3001
0100
0001
1000
0000
,
0020
0000
0000
1030
0010
0100
0010
0000
,
2000
0000
0001
0000
0010
0000
3001
0100
,
0002
0000
1000
0000
0010
0000
0103
0001
,
0200
0000
0000
0301
0010
0100
0010
0000
,
0002
0000
0000
1003
0010
0100
0010
0000
,
1001
0000
0001
0000
0001
0000
0001
0100
,
0010
0000
0010
0000
0010
1000
0100
0010
,
0011
0000
0010
0000
0010
0000
0010
0100
,
1000
1000
2002
3003
,
0110
0000
0100
0000
0100
0000
0100
0001
,
0010
0000
0010
0000
0010
0001
1000
0010
,
0100
0000
0100
0000
0100
0000
0100
0001
,
0010
0100
1000
0000
0001
0000
0110
0000
,
1000
0000
0000
0010
0000
0000
0100
0000
0000
0001
0000
0000
1000
0000
0001
0000
,
1000
0000
0001
0100
0001
0000
0110
0000
,
0001
0000
0000
0010
0000
0000
0100
0000
0000
0010
0000
0000
0001
0000
1000
0000
,
0100
0000
0000
0010
0000
0000
0100
0000
0000
1000
0000
0000
0001
0000
0010
0000
,
0001
0000
0000
0100
0000
0000
0010
0000
0000
0100
0000
0000
0001
0000
0010
0000
,
0100
0000
1000
0100
0001
0000
0110
0000
,
2000
3001
0020
0130
,
1010
1001
0220
0330
,
0012
0000
0000
1003
0020
0000
0000
0130
,
0002
0010
0100
1003
,
0210
0000
0000
0301
2000
0000
0000
3100
,
0020
0000
0001
0001
0031
0000
0110
0000
,
1001
0000
1000
0000
1000
0000
1000
0001
,
0100
0000
0100
0000
0100
0001
0010
0001
,
1000
0000
1000
0000
1000
0000
1000
0100
,
0010
0101
2002
3003
,
0101
0000
0001
0000
0001
0000
0001
0010
,
0100
0000
0100
0000
0100
1000
0010
0100
,
0001
0000
0001
0000
0001
0000
0001
1000
,
0010
0100
0001
0000
0100
0000
1001
0000
,
0010
0000
0000
1000
0000
0000
0010
0000
0000
0100
0000
0000
0001
0000
0010
0000
,
0100
0000
0010
0100
1000
0000
1001
0000
,
0100
0000
0000
0001
0000
0000
1000
0000
0000
0010
0000
0000
0100
0000
0001
0000
,
0010
0000
0001
1000
0010
0000
1100
0000
,
0001
0000
0000
0100
0000
0000
0001
0000
0000
0010
0000
0000
0100
0000
1000
0000
,
0001
0000
0100
0010
1000
0000
0101
0000
,
0020
1030
0200
0301
,
1010
0101
2002
3003
,
1020
0031
1020
0031
,
0010
0000
0000
0010
0000
0000
0100
0000
0000
0100
0000
0000
0001
0000
0010
0000
,
1200
0301
1200
0301
,
1000
1000
1000
1000
1000
0000
0110
0000
,
0021
1030
0021
1030
,
0001
0100
0001
0000
1000
1000
1000
1000
,
0000
0010
0000
0100
0000
0001
0000
0010
,
0001
0000
1000
0010
1000
0000
0110
0000
,
0201
1300
0201
1300
,
0010
0000
0000
0010
0000
0000
0100
0000
0000
0100
0000
0000
0001
0000
1000
0000
,
0120
0031
0120
0031
,
0100
0100
0100
0100
0100
0000
1001
0000
,
1200
0301
1200
0301
,
0010
0001
0010
0000
0100
0100
0100
0100
,
0000
1000
0000
0001
0000
0100
0000
0010
,
1000
0000
0001
0100
0001
0010
0001
0100
,
0000
0001
0000
0010
0000
0001
0000
1000
,
0010
0000
1000
0100
0010
0001
1000
0010
,
0000
0100
0001
0010
0001
1000
0010
1000
,
0001
0100
0001
1000
1001
0000
0000
0000
;

//---------------dance-single - ----------------
#NOTEDATA:;
#CHARTNAME:EXPERT;
#CHARTHASH:2147483647;
#STEPSTYPE:dance-single;
#BANNER:;
#DESCRIPTION:;
#CHARTSTYLE:;
#DIFFICULTY:Hard;
#METER:11;
#METERF:11.000000;
#LASTSECONDHINT:130.545441;
#RADARVALUES:0.521929,0.496350,0.320349,0.198311,0.266958,479.000000,437.000000,42.000000,26.000000,0.000000,0.000000,0.000000,0.000000,0.000000,0.521929,0.496350,0.320349,0.198311,0.266958,479.000000,437.000000,42.000000,26.000000,0.000000,0.000000,0.000000,0.000000,0.000000;
#CREDIT:YonabearCWY;
#NOTES:
// measure 0
0000
0000
0000
0000
0000
0000
0000
0010
,  // measure 1
0200
0000
0000
0000
0000
0000
0000
1300
,  // measure 2
0002
0000
0103
0010
1000
0000
0110
0100
,  // measure 3
0001
0000
1000
0100
0010
0000
0001
0100
,  // measure 4
0110
1000
0110
1001
,  // measure 5
0100
0000
0000
0010
0000
0000
0001
0000
0000
1000
0000
0001
0100
0000
0010
0000
,  // measure 6
1000
0000
0000
1000
0000
0000
0001
0000
0000
0001
0000
0000
0010
0000
0001
0000
,  // measure 7
1000
0000
0000
0010
0000
0000
1000
0000
0000
0100
0000
0010
0001
0000
1000
0000
,  // measure 8
0010
1000
0100
0000
1000
0001
0010
0001
,  // measure 9
0100
0000
0000
0010
0000
0000
1000
0000
0000
0100
0000
0010
0100
0000
1000
0000
,  // measure 10
0001
0000
0000
0001
0000
0000
0100
0000
0000
0100
0000
0000
0010
0000
1000
0000
,  // measure 11
0100
0000
0000
1000
0000
0000
0001
0000
0000
0100
0000
0010
0001
0000
0010
0000
,  // measure 12
0100
0001
1000
0000
0010
0100
1000
0100
,  // measure 13
0012
0000
1000
0000
0013
0100
0001
0000
,  // measure 14
2100
0000
0001
0000
3010
1000
0001
0010
,  // measure 15
0100
1000
0100
0000
0010
0001
0010
0000
,  // measure 16
0101
1010
2002
3003
,  // measure 17
2010
0000
0100
0000
0001
0000
3010
0100
,  // measure 18
1002
0000
0100
0000
0013
0001
1000
0010
,  // measure 19
0100
0010
0100
0000
0010
0001
0010
0000
,  // measure 20
1100
0000
0011
0000
1000
0001
1001
0000
,  // measure 21
0001
0000
0100
0000
0001
0000
0010
0001
0000
0001
1000
0000
0001
0000
1000
0000
,  // measure 22
0100
0000
0000
0100
0000
0000
0010
0000
0000
0010
0000
0000
0001
0000
0100
0000
,  // measure 23
0010
0000
0000
1000
0100
0000
0000
0000
0010
0000
0000
0001
0100
0000
0001
0000
,  // measure 24
1000
0000
0000
0100
0010
0000
0001
0000
1000
0000
0001
0000
1001
0000
0000
0000
,  // measure 25
0010
0000
1000
0000
0100
0000
1000
0100
0000
0100
0010
0000
0001
0000
1000
0000
,  // measure 26
0010
0000
0000
0100
0000
0000
0001
0000
0000
0010
0000
0100
1000
0000
0010
0000
,  // measure 27
0100
0001
0010
0000
0001
1000
0010
0000
,  // measure 28
0110
0000
1001
0000
1000
0010
0110
0000
,  // measure 29
0201
0000
0000
0301
0020
0000
0000
0130
,  // measure 30
2000
0000
3001
0100
0010
0020
0000
1030
,  // measure 31
0002
0000
0000
0013
0200
0000
1300
0100
,  // measure 32
0101
0000
0010
0010
0010
0000
1001
0000
,  // measure 33
0210
0000
0001
0000
0310
0100
1000
0001
,  // measure 34
0102
0000
1000
0000
0013
0100
0001
1000
,  // measure 35
0010
0001
0010
0000
0100
1000
0100
0000
,  // measure 36
1001
0101
0220
0330
,  // measure 37
0021
0000
1000
0000
0031
0100
0010
1000
,  // measure 38
0201
0000
0010
0000
1300
0100
0010
1000
,  // measure 39
0001
0010
0001
0000
0100
1000
0100
0000
,  // measure 40
0011
0000
1001
0000
1000
0100
0110
0000
,  // measure 41
1000
0000
0010
0000
0100
0000
0010
0100
0000
0100
0001
0000
0010
0000
0100
0000
,  // measure 42
1000
0000
0000
1000
0000
0000
0001
0000
0000
0001
0000
0000
0100
0000
0010
0000
,  // measure 43
1000
0000
0000
0001
0010
0000
0000
0000
0100
0000
0000
1000
0001
0000
0010
0000
,  // measure 44
0001
0000
0000
0010
0100
0000
1000
0000
0001
0000
0100
0000
0110
0000
0000
0000
,  // measure 45
1000
0000
0100
0000
0010
0000
0001
0100
0000
0100
0010
0000
1000
0000
0001
0000
,  // measure 46
0010
0000
0000
0001
0000
0000
0100
0000
0000
0001
0000
1000
0010
0000
0100
0000
,  // measure 47
0001
0010
0100
0000
1000
0100
0001
0000
,  // measure 48
0011
0000
1010
0000
0001
1000
1001
0000
,  // measure 49
0001
0000
1000
0000
0010
0000
0000
0000
0100
1000
0000
1000
0020
0000
0000
0000
,  // measure 50
0130
0001
0010
0100
0010
0001
1000
0010
,  // measure 51
0100
0000
0001
0000
0010
0000
0000
0000
1000
0001
0000
0001
0020
0000
0000
0000
,  // measure 52
0130
0000
0100
0000
0100
0000
0100
0000
0100
1000
0000
0000
0101
0000
0000
0000
,  // measure 53
0010
0000
1000
0000
0100
0000
0000
0000
0001
1000
0000
1000
0200
0000
0000
0000
,  // measure 54
1300
0010
0100
0001
0001
0001
0001
0001
,  // measure 55
1000
0000
0000
0010
0000
0000
0100
0000
0000
0010
0000
1000
0010
0000
0100
0000
,  // measure 56
0001
0000
0010
0000
0100
0000
1000
0000
0001
0100
0000
0100
0010
0000
1000
0000
,  // measure 57
0101
0000
0001
0000
0010
0000
0000
0000
1000
0001
0000
0001
0020
0000
0000
0000
,  // measure 58
0031
0100
0010
1000
0100
0010
0001
0100
,  // measure 59
1010
0000
1000
0000
0001
0000
0000
0000
0010
1000
0000
1000
0002
0000
0000
0000
,  // measure 60
0103
0000
0100
0000
0100
0000
0100
0000
0100
0001
0000
0000
1010
0000
0000
0000
,  // measure 61
0110
0000
0010
0000
1000
0000
0000
0000
0010
0100
0000
0100
2000
0000
0000
0000
,  // measure 62
3100
0001
1000
0100
0100
0100
0100
0100
,  // measure 63
0010
0000
0000
0001
0000
0000
1000
0000
0000
0001
0000
0100
0001
0000
0010
0000
,  // measure 64
0001
0000
0000
0010
0000
0000
0100
0000
0000
1000
0000
0100
1000
0000
0010
0000
,  // measure 65
0100
0000
0001
0000
0010
0000
0000
0000
0001
1000
0000
1000
0010
0000
0100
0000
,  // measure 66
0001
0000
0000
0010
0000
0000
0100
0000
0000
1000
0000
0100
0010
0000
0100
0000
,  // measure 67
1001
0001
0010
0001
0100
0010
1000
0100
,  // measure 68
0010
0001
1000
0010
1001
0000
0000
0000
;
