#VERSION:0.83;
#TITLE:CAN'T SLOW DOWN;
#SUBTITLE:(KEEP IT COMIN');
#ARTIST:X-TREME;
#TITLETRANSLIT:;
#SUBTITLETRANSLIT:;
#ARTISTTRANSLIT:;
#GENRE:EURO HOUSE;
#ORIGIN:;
#TAGS:;
#CREDIT:YonabearCWY;
#BANNER:CAN'T SLOW DOWN (KEEP IT COMIN').png;
#BACKGROUND:CAN'T SLOW DOWN (KEEP IT COMIN')-bg.png;
#PREVIEWVID:;
#JACKET:CAN'T SLOW DOWN (KEEP IT COMIN')-jacket.png;
#CDIMAGE:;
#DISCIMAGE:;
#LYRICSPATH:;
#CDTITLE:Dance Mania 21.png;
#MUSIC:CAN'T SLOW DOWN (KEEP IT COMIN').ogg;
#OFFSET:-0.580000;
#SAMPLESTART:78.336990;
#SAMPLELENGTH:15.000000;
#SELECTABLE:YES;
#DISPLAYBPM:135.000000;
#BPMS:0.000000=134.979996
;
#STOPS:;
#DELAYS:;
#WARPS:;
#TIMESIGNATURES:0.000000=4=4
;
#TICKCOUNTS:0.000000=4
;
#COMBOS:0.000000=1
;
#SPEEDS:0.000000=1.000000=0.000000=0
;
#SCROLLS:0.000000=1.000000
;
#LABELS:0.000000=Song Start
;
#BGCHANGES:16.000=discoball1.mp4=1.200=1=0=1===CrossFade==,
24.000=ring2.mp4=1.400=0=0=1=====,
32.000=disco3.mp4=1.600=0=0=1=====,
36.000=disco3r.mp4=1.600=0=0=1=====,
40.000=disco3.mp4=1.600=0=1=1=StretchRewind====,
44.000=disco3r.mp4=1.600=0=1=1=StretchRewind====,
48.000=ring1.mp4=1.400=0=0=1=====,
56.000=heat1.mp4=1.600=0=0=1=====,
60.000=ring1.mp4=1.400=0=0=1=====,
62.000=heat1.mp4=1.600=0=0=1=====,
64.000=ring8.mp4=1.600=0=0=1=====,
72.000=tunnel10.mp4=1.400=0=0=1=====,
76.000=tunnel10.mp4=0.500=0=0=1=====,
78.250=tunnel10.mp4=2.000=0=0=1=====,
80.000=disco1.mp4=1.600=0=0=1=====,
88.000=text12.mp4=1.600=0=0=1=====,
94.250=text14a.mp4=0.900=0=0=1=====,
96.000=disco1.mp4=1.600=0=1=1=StretchRewind====,
104.000=text12.mp4=1.600=0=1=1=StretchRewind====,
108.000=ring8.mp4=1.600=0=1=1=StretchRewind====,
112.000=text11.mp4=1.600=0=0=1=====,
120.000=heart2.mp4=1.600=0=0=1=====,
128.000=text11.mp4=1.600=0=1=1=StretchRewind====,
136.000=heart2.mp4=1.600=0=1=1=StretchRewind====,
144.000=ring1.mp4=1.400=0=1=1=StretchRewind====,
152.000=discoball1.mp4=1.200=0=1=1=StretchRewind====,
160.000=ring1.mp4=1.400=0=1=1=StretchRewind====,
168.000=discoball1.mp4=1.200=0=1=1=StretchRewind====,
176.000=lady19.mp4=1.000=0=0=1=====,
180.000=lady18.mp4=1.000=0=0=1=====,
184.000=heat1.mp4=1.400=0=1=1=StretchRewind====,
192.000=lady19.mp4=1.000=0=1=1=StretchRewind====,
196.000=lady18.mp4=1.000=0=1=1=StretchRewind====,
200.000=heat1.mp4=1.400=0=1=1=StretchRewind====,
208.000=ring2.mp4=1.400=0=1=1=StretchRewind====,
216.000=tunnel10.mp4=1.400=0=1=1=StretchRewind====,
224.000=CAN'T SLOW DOWN (KEEP IT COMIN')-bg.png=1.000=0=0=1=====,
99999.000=-nosongbg-=1.000=0=0=0=StretchNoLoop====,
99999=-nosongbg-=1.000=0=0=0 // don't automatically add -songbackground-
;
#KEYSOUNDS:;
#ATTACKS:
;

//---------------dance-single - ----------------
#NOTEDATA:;
#CHARTNAME:BASIC;
#CHARTHASH:477959913;
#STEPSTYPE:dance-single;
#BANNER:;
#DESCRIPTION:;
#CHARTSTYLE:;
#DIFFICULTY:Easy;
#METER:6;
#METERF:6.000000;
#LASTSECONDHINT:103.261879;
#RADARVALUES:0.279183,0.385374,0.371790,0.209728,0.000000,205.000000,166.000000,39.000000,22.000000,0.000000,0.000000,0.000000,0.000000,0.000000,0.279183,0.385374,0.371790,0.209728,0.000000,205.000000,166.000000,39.000000,22.000000,0.000000,0.000000,0.000000,0.000000,0.000000;
#CREDIT:YonabearCWY;
#DISPLAYBPM:135.000000;
#NOTES:
0000
0000
0000
0000
,
0000
0000
0000
0000
,
0000
0000
0000
0000
,
0000
0000
0000
0000
,
1000
0010
1000
1010
,
0001
0100
0001
0101
,
1000
0001
1000
1001
,
0001
1000
0001
1001
,
0220
0000
0000
0000
0330
1000
0010
0000
,
0202
0000
0000
0000
0303
0001
1000
0000
,
2002
0000
0000
0000
3003
0100
0010
0000
,
0022
0000
0000
0000
0033
0001
0100
0000
,
2010
0010
3020
0030
,
0102
0100
0203
0300
,
1002
1000
2000
3003
,
2200
3300
0022
0033
,
0100
0100
1000
1000
,
0001
0001
0010
0010
,
1100
0101
0011
1010
,
2002
0000
3003
0000
,
0010
0010
0100
0000
,
0001
0001
1000
0000
,
1100
0000
1100
0000
,
0101
0000
0101
0000
,
0010
0010
1000
0000
,
0100
0100
0010
0000
,
0011
0000
0011
0000
,
1010
0000
1010
0000
,
1000
1000
0001
1000
,
0001
0000
1000
0000
,
0001
0001
1000
0001
,
1000
0000
0010
0100
,
0001
0010
0100
1000
,
0001
0000
0001
0000
,
1000
1000
0001
0001
,
0010
0100
1000
1001
,
0100
0100
0010
0000
,
0100
0100
0001
0000
,
0100
0100
1000
0000
,
0100
0100
0100
0110
,
0010
0010
1000
0000
,
0010
0010
0001
0000
,
0010
0010
0100
0000
,
0010
0010
0010
0110
,
0001
1000
0000
0000
0100
0000
0100
0000
,
1000
0001
0000
0000
0010
0000
0010
0000
,
0011
0000
1100
0000
,
0101
0000
1010
0000
,
0010
0100
0000
0000
0001
0000
0001
0000
,
0100
0010
0000
0000
1000
0000
1000
0000
,
0101
0000
1010
0000
,
0110
0000
1001
0000
,
1010
0010
0010
0100
,
0001
0001
0001
0010
,
0001
0001
0001
0100
,
0010
0010
0010
1000
,
2002
0000
0000
0000
,
0000
0000
0000
3003
;

//---------------dance-single - ----------------
#NOTEDATA:;
#CHARTNAME:DIFFICULT;
#CHARTHASH:1246445502;
#STEPSTYPE:dance-single;
#BANNER:;
#DESCRIPTION:;
#CHARTSTYLE:;
#DIFFICULTY:Medium;
#METER:8;
#METERF:8.000000;
#LASTSECONDHINT:103.261879;
#RADARVALUES:0.379961,0.412901,0.324124,0.181128,0.009533,279.000000,245.000000,34.000000,19.000000,0.000000,0.000000,0.000000,0.000000,0.000000,0.379961,0.412901,0.324124,0.181128,0.009533,279.000000,245.000000,34.000000,19.000000,0.000000,0.000000,0.000000,0.000000,0.000000;
#CREDIT:YonabearCWY;
#DISPLAYBPM:135.000000;
#NOTES:
0000
0000
0000
0000
,
0000
0000
0000
0000
,
0000
0000
0000
0000
,
0000
0000
0000
0000
,
1000
0000
0001
0000
0010
0100
0010
0000
,
0001
0000
1000
0000
0100
0010
0100
0000
,
0011
0000
1000
0000
0001
0100
0001
0000
,
1100
0000
0001
0000
1000
0010
1000
0000
,
0002
0010
0000
0013
,
0200
1000
0000
1300
,
0001
1000
0002
0000
0000
1003
0010
0000
,
1000
0001
2000
0000
0000
3001
0010
0000
,
0100
0000
2100
0000
0000
0001
3001
0000
,
0010
0000
0012
0000
0000
1000
1003
0000
,
0010
0000
0120
0000
0000
1000
1030
0000
,
0001
0100
0010
0000
1000
0010
0100
0000
,
0002
1000
0010
1003
,
0200
0001
1000
0301
,
1001
1001
0110
0110
,
2002
0000
3003
0000
,
0001
0000
0010
0000
0001
1000
0001
0000
,
1000
0000
0010
0000
1000
0100
1000
0000
,
0010
0010
0010
0000
0000
0100
0001
0000
,
0100
0100
0100
0000
0000
0010
1000
0000
,
0100
0000
0010
0000
0001
1000
0001
0000
,
0010
0000
0100
0000
1000
0001
1000
0000
,
0001
0001
0001
0000
0000
1000
0010
0000
,
1000
1000
1000
0000
0000
0001
0100
0000
,
0110
0010
1010
0100
,
0101
0000
1001
0000
0100
0010
0100
0000
,
0002
0010
0100
1003
,
0200
0001
1000
0310
,
0110
0000
0101
0000
0010
0001
0010
0000
,
0101
0000
1001
0000
1000
0010
1000
0000
,
0010
0010
0100
0100
,
0001
0001
1000
1000
,
0001
0000
0010
0000
0001
0010
0001
0000
,
1000
0000
0010
1000
0010
0000
1000
0000
,
0010
0000
0100
0000
0001
0100
1000
0000
,
0100
0000
0010
0000
1000
0010
0001
0000
,
0110
0000
0101
0000
0000
0001
1000
0000
,
1010
0000
0110
0000
0000
1000
0001
0000
,
0010
0100
0010
0000
0100
1000
0100
0000
,
0010
0001
0100
0001
1000
0000
0110
0000
,
1000
1000
2000
0000
0000
3001
0010
0000
,
1000
1000
2000
0000
0000
3001
0100
0000
,
0110
1000
1001
0100
,
0101
0000
0010
0000
0011
0000
0001
1000
,
0010
0010
0020
0000
0000
1030
0001
0000
,
0100
0100
0200
0000
0000
0301
1000
0000
,
0110
0001
1001
1000
,
1010
0000
0010
0100
0001
0000
1000
0010
,
0100
0000
0001
0000
0010
0000
0001
0100
,
0010
0000
1000
0000
0100
0010
0001
0000
,
1010
0100
0101
0010
,
0011
0000
0001
0000
0001
1000
0010
1000
,
2001
0000
0000
0000
0000
0000
0000
0001
0000
0000
0000
0000
0000
0100
0000
0000
,
0000
0002
0000
0000
0000
0000
3003
0000
;

//---------------dance-single - ----------------
#NOTEDATA:;
#CHARTNAME:EXPERT;
#CHARTHASH:4153507918;
#STEPSTYPE:dance-single;
#BANNER:;
#DESCRIPTION:;
#CHARTSTYLE:;
#DIFFICULTY:Hard;
#METER:12;
#METERF:12.000000;
#LASTSECONDHINT:103.261879;
#RADARVALUES:0.531128,0.660642,0.276459,0.305058,0.185895,390.000000,361.000000,29.000000,32.000000,0.000000,0.000000,0.000000,0.000000,0.000000,0.531128,0.660642,0.276459,0.305058,0.185895,390.000000,361.000000,29.000000,32.000000,0.000000,0.000000,0.000000,0.000000,0.000000;
#CREDIT:YonabearCWY;
#DISPLAYBPM:135.000000;
#NOTES:
0000
0000
0000
0000
,
0000
0000
0000
0000
,
0000
0000
0000
0000
,
0000
0000
0000
0000
,
1000
0000
0010
0000
1000
0000
0000
0001
0000
0001
0000
0010
0001
0000
0000
0000
,
0010
0000
0100
0000
0010
0000
0000
0100
0000
0100
0000
0000
1000
0000
0001
0000
,
0100
0010
0100
0000
0001
0010
0100
1000
,
0001
0010
0001
0000
1000
0010
0100
0001
,
2001
0000
0010
3010
0000
0001
0100
0000
,
1002
0000
0010
0013
0000
1000
0100
0000
,
2010
0010
0010
0000
0000
0001
3001
0000
,
0102
0100
0100
0000
0000
1000
1003
0000
,
0010
0100
0002
0000
0000
1003
0100
0010
,
0001
1000
0200
0000
0000
0310
0100
1000
,
0001
0100
0020
0000
0000
1030
0001
0010
,
0100
0001
2000
0000
3010
0001
0200
0000
,
0310
0000
0010
0000
1000
0000
1000
0000
0001
0100
0001
0100
0001
0000
0010
0000
,
0100
0100
0001
0001
1000
1000
0010
0010
,
1100
1100
0101
0101
1001
1001
0010
0100
,
0220
0000
0330
0000
,
1000
0100
0010
0002
0000
1003
0010
0000
,
0100
0000
0001
0000
0010
0000
0000
0001
0000
0001
0000
1000
0020
0000
0000
0000
,
0130
0001
0010
0200
0000
1300
0001
1000
,
0010
0000
0100
0000
0001
0000
0000
1000
0000
0010
1000
0010
2000
0000
0000
0000
,
3100
0010
0001
2000
0000
3001
0100
0000
,
0010
0000
1000
0000
0001
0000
0000
0100
0000
0100
0000
0001
2000
0000
0000
0000
,
3010
1000
0100
0020
0000
0031
0100
0010
,
1000
0000
0010
0000
0100
0000
0000
0001
0000
1000
0001
1000
0001
0000
0010
0000
,
1100
0000
0101
0000
0010
1000
0100
0000
,
1001
0100
0010
0000
0001
0001
0001
0000
,
0100
0001
0010
0100
1000
0001
0010
1000
,
0001
0100
0010
0001
1000
0100
0011
0000
,
1010
0000
1001
0000
0010
0010
0010
0000
,
1000
0100
0001
1000
0010
0100
1001
0000
,
0110
0010
1010
0000
0101
0100
0110
0000
,
1000
0001
0010
0001
0100
0010
1001
0000
,
0010
0000
1000
0010
1000
0000
0001
0000
1000
0000
0010
0000
0100
0001
0100
0000
,
0000
0000
0001
0000
0010
0001
0010
0000
0001
0000
1000
0100
1000
0000
0000
0000
,
0100
1000
0010
0100
0001
1000
0100
0001
,
1000
0010
0001
0100
0010
0100
1001
0000
,
0010
0000
0001
0100
0001
0000
1000
0000
0010
1000
0010
0000
0100
0000
0000
0000
,
1000
0001
0010
0100
1000
1000
1001
0000
,
0100
0000
0001
0000
0010
0001
0010
0000
0001
0000
1000
0010
1000
0000
0000
0000
,
0001
0010
0100
0001
0100
0010
0001
2000
,
0000
3010
0010
0010
0100
0001
0010
0200
,
0000
0000
1300
0000
1000
0000
1000
0000
1000
0000
0001
0010
0002
0000
0000
0000
,
0103
0001
1000
0000
0101
0000
1000
0010
,
0100
0000
1010
0000
0001
0100
0010
2000
,
0000
3010
0010
0010
0100
1000
0100
0002
,
0000
0000
0103
0000
0100
0000
0100
0000
0100
0000
0001
1000
0002
0000
0000
0000
,
0013
0001
0100
0000
1001
0000
0100
1000
,
0010
0000
0101
0000
0010
0100
1000
0001
,
0100
0000
0010
0000
0200
0000
0000
0301
0000
0000
0010
0000
0100
0000
1000
0000
,
0001
0000
1000
0000
0002
0000
0000
0103
0000
0010
1000
0000
0100
0000
0010
0000
,
0001
0000
1000
0000
0200
0000
0000
1300
0000
0010
1000
0000
0001
0000
0100
0000
,
0001
0000
0010
0000
0002
0000
0000
0103
0000
0010
1000
0010
1000
0000
0100
0000
,
0020
0000
0000
0000
0000
0000
0000
0032
0000
0000
0000
0000
0000
2003
0000
0000
,
0000
0002
0000
0000
0000
0000
3003
0000
;

//---------------dance-single - ----------------
#NOTEDATA:;
#CHARTNAME:BEGINNER;
#CHARTHASH:3044349915;
#STEPSTYPE:dance-single;
#BANNER:;
#DESCRIPTION:;
#CHARTSTYLE:;
#DIFFICULTY:Beginner;
#METER:3;
#METERF:3.000000;
#LASTSECONDHINT:0.580000;
#RADARVALUES:0.167510,0.220214,0.104864,0.038132,0.000000,123.000000,112.000000,11.000000,4.000000,0.000000,0.000000,0.000000,0.000000,0.000000,0.167510,0.220214,0.104864,0.038132,0.000000,123.000000,112.000000,11.000000,4.000000,0.000000,0.000000,0.000000,0.000000,0.000000;
#CREDIT:YonabearCWY;
#DISPLAYBPM:135.000000;
#NOTES:
// measure 0
0000
0000
0000
0000
,  // measure 1
0000
0000
0000
0000
,  // measure 2
0000
0000
0000
0000
,  // measure 3
0000
0000
0000
0000
,  // measure 4
1000
0000
1000
0000
,  // measure 5
1000
0000
0000
0000
,  // measure 6
0001
0000
0001
0000
,  // measure 7
0001
0000
0000
0000
,  // measure 8
0110
0000
0000
0000
,  // measure 9
0110
0000
0000
0000
,  // measure 10
0110
0000
0000
0000
,  // measure 11
0110
0000
0000
0000
,  // measure 12
1001
0000
0000
0000
,  // measure 13
1001
0000
0000
0000
,  // measure 14
1001
0000
0000
0000
,  // measure 15
1001
0000
0010
0000
,  // measure 16
0100
0000
0100
0000
,  // measure 17
0010
0000
0010
0000
,  // measure 18
0100
0000
0100
0000
,  // measure 19
2002
0000
3003
0000
,  // measure 20
0010
0010
0010
0000
,  // measure 21
0100
0000
0100
0000
,  // measure 22
0010
0010
0010
0000
,  // measure 23
0100
0000
0100
0000
,  // measure 24
0001
0001
0001
0000
,  // measure 25
1000
0000
1000
0000
,  // measure 26
0001
0001
0001
0000
,  // measure 27
1000
0000
1000
0000
,  // measure 28
0001
0000
1000
0001
,  // measure 29
1000
0000
0001
0000
,  // measure 30
1000
1000
1000
0000
,  // measure 31
1000
0000
0000
0000
,  // measure 32
0001
0001
0001
0000
,  // measure 33
0001
0000
0000
0000
,  // measure 34
1000
0001
1000
0000
,  // measure 35
0001
1000
0001
0000
,  // measure 36
0100
0100
0100
0000
,  // measure 37
0100
0000
0010
0010
,  // measure 38
0010
0000
0010
0000
,  // measure 39
0100
0000
0100
0000
,  // measure 40
0001
0000
0001
0000
,  // measure 41
1000
0000
1001
0000
,  // measure 42
0010
0010
0010
0000
,  // measure 43
0010
0010
0010
0000
,  // measure 44
0100
0000
0100
0100
,  // measure 45
0100
0000
0100
0100
,  // measure 46
0100
0000
0001
0000
,  // measure 47
0010
0000
0001
0000
,  // measure 48
1000
1000
1000
0000
,  // measure 49
1000
1000
1000
0000
,  // measure 50
0001
0000
1000
0000
,  // measure 51
0001
1000
0010
1000
,  // measure 52
0001
0000
0001
0000
,  // measure 53
1000
0000
1000
0000
,  // measure 54
0010
0000
0010
0000
,  // measure 55
0100
0000
0100
0000
,  // measure 56
2002
0000
0000
0000
,  // measure 57
0000
0000
0000
3003
;
