#VERSION:0.83;
#TITLE:Buy Me A Pony;
#SUBTITLE:;
#ARTIST:Spiderbait;
#TITLETRANSLIT:;
#SUBTITLETRANSLIT:;
#ARTISTTRANSLIT:;
#GENRE:AUSSIE ROCK;
#ORIGIN:;
#TAGS:;
#CREDIT:YonabearCWY;
#BANNER:Buy Me A Pony.png;
#BACKGROUND:Buy Me A Pony-bg.png;
#PREVIEWVID:;
#JACKET:Buy Me A Pony-jacket.png;
#CDIMAGE:Buy Me A Pony-jacket2.png;
#DISCIMAGE:;
#LYRICSPATH:;
#CDTITLE:Ivy and the big apples.png;
#MUSIC:Buy Me A Pony.ogg;
#OFFSET:-0.488000;
#SAMPLESTART:6.525000;
#SAMPLELENGTH:15.000000;
#SELECTABLE:YES;
#DISPLAYBPM:159.000000;
#BPMS:0.000000=156.981995
,2.500000=154.764008
,3.500000=153.949997
,6.500000=152.800995
,7.500000=140.582993
,8.000000=160.830994
,9.000000=160.052994
,10.000000=158.554993
,11.000000=157.093994
,12.000000=156.776993
,13.000000=165.223007
,14.000000=153.550995
,14.750000=170.132004
,15.000000=168.776001
,15.250000=145.455002
,15.500000=214.669006
,15.750000=211.391998
,16.000000=152.307999
,17.000000=164.365005
,18.000000=158.817993
,19.000000=161.037994
,20.000000=156.880005
,21.000000=158.774002
,22.000000=156.529999
,23.000000=163.673996
,24.000000=154.738998
,25.000000=155.912003
,26.000000=151.181000
,27.000000=161.470993
,28.000000=155.440002
,29.000000=160.401001
,30.000000=160.876007
,31.000000=161.897995
,32.000000=155.988007
,33.000000=158.190002
,34.000000=158.016006
,35.000000=153.830002
,36.000000=158.337006
,37.000000=160.337997
,38.000000=158.223999
,39.000000=156.462006
,40.000000=159.442001
,41.000000=159.858002
,42.000000=160.061996
,43.000000=155.776993
,44.000000=158.311005
,45.000000=162.162003
,46.000000=164.177002
,47.000000=156.699997
,48.000000=161.434998
,49.000000=159.503998
,50.000000=165.783997
,51.000000=155.089005
,52.000000=157.238998
,53.000000=160.026993
,54.000000=157.059006
,55.000000=157.360001
,56.000000=162.253998
,57.000000=162.481995
,58.000000=157.903000
,59.000000=155.759995
,60.000000=158.860992
,61.000000=158.572998
,62.000000=162.216995
,63.000000=164.139999
,64.000000=155.929993
,65.000000=161.951996
,66.000000=157.973007
,67.000000=159.574005
,68.000000=156.641006
,69.000000=160.848999
,70.000000=162.098007
,71.000000=157.479996
,72.000000=162.179993
,73.000000=159.283005
,74.000000=160.195999
,75.000000=159.901993
,76.000000=160.544006
,77.000000=164.779007
,78.000000=159.955994
,79.000000=159.529999
,80.000000=161.535004
,81.000000=160.615997
,82.000000=158.589996
,83.000000=164.326996
,84.000000=152.470001
,85.000000=158.503006
,86.000000=160.785995
,87.000000=160.035995
,88.000000=158.712997
,89.000000=164.412003
,90.000000=158.563995
,91.000000=154.714005
,92.000000=157.817001
,93.000000=159.520996
,94.000000=159.212997
,95.000000=159.947006
,96.000000=162.748993
,97.000000=166.339005
,98.000000=149.992004
,99.000000=161.897995
,100.000000=155.507996
,101.000000=162.537003
,102.000000=162.307999
,103.000000=157.981003
,104.000000=157.317001
,105.000000=160.459000
,107.000000=161.444000
,108.000000=164.149002
,109.000000=162.263000
,110.000000=157.981003
,111.000000=161.662003
,112.000000=155.264008
,113.000000=160.115997
,114.000000=155.895004
,115.000000=158.042007
,116.000000=154.822006
,117.000000=161.942993
,118.000000=158.093994
,119.000000=155.005005
,120.000000=156.585999
,122.000000=156.369003
,123.000000=156.871002
,124.000000=155.970993
,125.000000=169.871002
,126.000000=153.102005
,127.000000=152.656006
,128.000000=149.160995
,129.000000=159.619003
,130.000000=156.802994
,131.000000=159.389008
,132.000000=168.401001
,132.500000=164.684006
,132.750000=204.895004
,133.000000=158.703995
,134.000000=174.143997
,135.000000=154.076996
,136.000000=169.641006
,137.000000=156.013000
,138.000000=166.638000
,139.000000=159.046005
,140.000000=160.061996
,141.000000=158.076996
,142.000000=164.807007
,143.000000=162.830994
,144.000000=162.988007
,145.000000=160.992996
,146.000000=157.791000
,147.000000=151.578995
,147.250000=171.225006
,147.500000=173.117996
,147.750000=166.128006
,148.000000=176.968994
,148.500000=164.815994
,149.000000=156.751999
,150.000000=158.677994
,151.000000=158.835007
,152.000000=163.673996
,153.000000=159.778000
,154.000000=151.787003
,155.000000=158.983994
,156.000000=156.684006
,157.000000=159.858002
,158.000000=160.089005
,159.000000=158.511993
,160.000000=155.869003
,161.000000=154.522995
,162.000000=156.419998
,163.000000=158.949005
,164.000000=161.580002
,165.000000=158.354996
,166.000000=157.119003
,167.000000=155.759995
,168.000000=157.119003
,169.000000=155.852997
,170.000000=159.539001
,171.000000=156.863007
,172.000000=154.356995
,173.000000=159.990997
,174.000000=154.291000
,175.000000=157.220001
,176.000000=157.162003
,177.000000=155.238998
,178.000000=160.125000
,179.000000=158.294006
,180.000000=157.895004
,181.000000=153.822006
,182.000000=158.024994
,183.000000=155.322998
,184.000000=157.264999
,185.000000=162.244003
,186.000000=157.705002
,187.000000=157.162003
,188.000000=155.953995
,189.000000=158.136993
,190.000000=159.867004
,191.000000=161.317001
,192.000000=156.029999
,193.000000=159.876007
,194.000000=153.386993
,195.000000=158.625000
,196.000000=157.912003
,197.000000=163.395004
,198.000000=160.544006
,199.000000=154.847000
,200.000000=152.098999
,201.000000=158.852997
,202.000000=160.382996
,203.000000=160.061996
,204.000000=153.945007
,205.000000=157.772995
,206.000000=154.356995
,207.000000=159.626999
,208.000000=160.070999
,209.000000=157.565994
,210.000000=158.748001
,211.000000=157.912003
,212.000000=158.076996
,213.000000=154.897003
,214.000000=152.873993
,215.000000=157.617996
,216.000000=161.742996
,217.000000=153.584000
,218.000000=159.751007
,219.000000=152.220001
,220.000000=154.639008
,221.000000=155.912003
,222.000000=156.123001
,223.000000=161.434998
,224.000000=153.559006
,225.000000=161.798004
,226.000000=157.136993
,227.000000=156.225006
,228.000000=156.496002
,229.000000=156.615005
,230.000000=157.626999
,231.000000=154.996994
,232.000000=154.563995
,233.000000=192.102005
,233.500000=153.257004
,233.750000=212.828995
,234.000000=154.440002
,235.000000=167.442001
,236.000000=163.070999
,237.000000=162.153000
,238.000000=155.080994
,239.000000=166.100006
,240.000000=159.414993
,241.000000=158.389999
,242.000000=155.979004
,243.000000=166.052002
,244.000000=158.589996
,245.000000=167.636993
,247.000000=163.227997
,248.000000=154.440002
,248.250000=176.774002
,248.500000=153.386993
,248.750000=172.289993
,249.000000=152.606995
,249.500000=165.024002
,249.750000=255.863998
,250.000000=160.000000
;
#STOPS:;
#DELAYS:;
#WARPS:;
#TIMESIGNATURES:0.000000=4=4
;
#TICKCOUNTS:0.000000=4
;
#COMBOS:0.000000=1
;
#SPEEDS:0.000000=1.000000=0.000000=0
;
#SCROLLS:0.000000=1.000000
;
#LABELS:0.000000=Song Start
;
#BGCHANGES:16.000=heart2.mp4=1.000=1=0=1===CrossFade==,
22.000=heart1.mp4=1.000=0=0=1=====,
28.000=sea1.mp4=1.000=0=0=1=====,
34.000=fireworks3.mp4=1.600=0=0=1=====,
41.000=fireworks4.mp4=1.800=0=0=1=====,
48.000=sheep1.mp4=1.000=0=0=1=====,
54.000=scissors1.mp4=1.400=0=0=1=====,
60.000=sphere3.mp4=1.400=0=0=1=====,
66.000=heart5.mp4=1.400=0=0=1=====,
73.000=green1.mp4=1.800=0=0=1=====,
80.000=heart2.mp4=1.000=0=0=1=====,
86.000=heart1.mp4=1.000=0=0=1=====,
92.000=sea1.mp4=1.000=0=0=1=====,
98.000=fireworks3.mp4=1.600=0=1=1=StretchRewind====,
105.000=fireworks4.mp4=1.800=0=1=1=StretchRewind====,
110.500=fireworks5.mp4=0.800=0=0=1=====,
119.000=smoke1r.mp4=1.000=0=0=1=====,
126.000=ants1.mp4=1.600=0=0=1=====,
133.000=heart2.mp4=1.000=0=0=1=====,
145.000=star2.mp4=2.000=0=0=1=====,
149.000=sea1.mp4=1.000=0=0=1=====,
155.000=sheep1.mp4=1.000=0=0=1=====,
161.000=smoke1r.mp4=1.000=0=0=1=====,
167.000=heart5.mp4=1.400=0=1=1=StretchRewind====,
174.000=heart1.mp4=1.000=0=0=1=====,
181.000=phone1.mp4=1.200=0=0=1=====,
193.000=sphere3.mp4=1.400=0=0=1=====,
199.000=scissors1.mp4=1.400=0=0=1=====,
206.000=fireworks3.mp4=1.600=0=1=1=StretchRewind====,
211.500=fireworks5.mp4=0.800=0=1=1=StretchRewind====,
220.000=ants1.mp4=1.600=0=1=1=StretchRewind====,
227.000=heart5.mp4=1.400=0=1=1=StretchRewind====,
234.000=heart2.mp4=1.000=0=0=1=====,
245.500=star2.mp4=2.000=0=1=1=StretchRewind====,
250.000=Buy Me A Pony-bg.png=1.000=0=0=1=====,
99999.000=-nosongbg-=1.000=0=0=0=StretchNoLoop====,
99999=-nosongbg-=1.000=0=0=0 // don't automatically add -songbackground-
;
#KEYSOUNDS:;
#ATTACKS:
;

//---------------dance-single - ----------------
#NOTEDATA:;
#CHARTNAME:;
#CHARTHASH:267381771;
#STEPSTYPE:dance-single;
#BANNER:;
#DESCRIPTION:;
#CHARTSTYLE:;
#DIFFICULTY:Beginner;
#METER:5;
#METERF:5.000000;
#LASTSECONDHINT:98.626915;
#RADARVALUES:0.187696,0.284672,0.097324,0.019465,0.000000,135.000000,125.000000,10.000000,2.000000,0.000000,0.000000,0.000000,0.000000,0.000000,0.187696,0.284672,0.097324,0.019465,0.000000,135.000000,125.000000,10.000000,2.000000,0.000000,0.000000,0.000000,0.000000,0.000000;
#CREDIT:;
#DISPLAYBPM:159.000000;
#NOTES:
0000
0000
0000
0000
,
0000
0000
0000
0000
,
0000
0000
0000
0000
,
0000
0000
0000
0000
,
1000
1000
1000
0000
,
0000
0000
0010
0010
,
0010
0000
0000
0000
,
0100
0100
0100
0000
,
0000
0000
0001
0001
,
0001
0000
0001
0000
,
0000
1000
1000
1000
,
0000
1000
0000
0000
,
0100
0100
0100
0000
,
0000
0000
1000
1000
,
1000
0000
0000
0000
,
0010
0010
0010
0000
,
0000
0000
0100
0100
,
0100
0000
0100
0000
,
0000
0001
0001
0001
,
0000
0001
0000
0000
,
1000
1000
1000
0000
,
0000
0000
0100
0100
,
0100
0000
0000
0000
,
1000
1000
1000
0000
,
0000
0000
0100
0100
,
0100
0000
1000
0000
,
0000
0010
0010
0010
,
0000
0100
0000
0000
,
1001
0000
0000
0000
,
0100
0100
0100
1001
,
0000
0000
0000
0010
,
0010
0010
1001
0000
,
0000
0100
0100
0100
,
0100
1001
0000
0100
,
0000
1000
0000
0010
,
0000
0100
0000
0001
,
0000
1001
0000
0000
,
0000
0001
0001
0001
,
0000
0000
0000
0100
,
0100
0100
0000
0000
,
0000
1000
1000
1000
,
0000
0000
0000
0100
,
0100
0100
0000
0000
,
0000
0000
0001
0001
,
0001
0000
0000
0000
,
0000
1000
1000
1000
,
0000
0000
0000
0010
,
0010
0010
0000
0000
,
0000
0100
0100
0100
,
0000
0000
0000
0001
,
0001
0001
0000
0100
,
0000
0000
0010
0010
,
0010
0000
1000
0000
,
0000
1001
0000
0000
,
0000
0010
0010
0010
,
1001
0000
0000
0000
,
0100
0100
0100
1001
,
0000
0000
1000
1000
,
1000
1000
1001
0000
,
0010
0000
0100
0000
,
0001
0000
0010
0000
,
0001
0000
1000
0000
,
0100
0000
2002
0000
,
0000
0000
0000
0000
,
0000
0000
0000
0000
,
3003
0000
0000
0000
;

//---------------dance-single - ----------------
#NOTEDATA:;
#CHARTNAME:;
#CHARTHASH:1400749679;
#STEPSTYPE:dance-single;
#BANNER:;
#DESCRIPTION:;
#CHARTSTYLE:;
#DIFFICULTY:Easy;
#METER:6;
#METERF:6.000000;
#LASTSECONDHINT:98.626915;
#RADARVALUES:0.311436,0.506083,0.253041,0.107056,0.000000,224.000000,198.000000,26.000000,11.000000,0.000000,0.000000,0.000000,0.000000,0.000000,0.311436,0.506083,0.253041,0.107056,0.000000,224.000000,198.000000,26.000000,11.000000,0.000000,0.000000,0.000000,0.000000,0.000000;
#CREDIT:;
#DISPLAYBPM:159.000000;
#NOTES:
0000
0000
0000
0000
,
0000
0000
0000
0000
,
1000
1000
0001
0001
,
1000
1000
0001
0001
,
0100
0100
0100
0000
,
0010
1000
0010
0010
,
0010
0000
1000
0001
,
1000
1000
1000
0000
,
0001
0100
0010
0010
,
0010
0000
0000
0100
0000
0100
0000
0100
,
0000
0010
0010
0010
,
0000
0100
0000
0100
0000
0100
0000
0000
,
0010
1000
0010
0000
,
1000
0000
0001
0100
,
0001
0000
0010
0000
,
0001
0100
1000
0000
,
0100
0000
0001
0001
,
0001
0000
0000
1000
0000
1000
0000
1000
,
0000
0010
0010
0010
,
0000
0100
0000
0100
0000
0100
0000
0000
,
0010
0000
0000
0000
1000
0000
0000
0010
,
0000
0100
0001
0000
,
0010
0000
0000
0001
0000
0000
1000
0000
,
0100
0000
0000
0000
1000
0000
0000
0001
,
0000
0100
0001
0001
,
0001
0000
0000
1000
0000
1000
0000
1000
,
0000
0010
0010
0010
,
0000
0100
0000
0100
0000
0100
0000
0000
,
0001
0000
0001
0000
1001
0000
0000
1000
,
0000
1000
0000
1001
0000
0000
0010
0000
,
0010
0000
0110
0000
0000
0100
0000
0100
,
0000
0110
0000
0000
0010
0000
0010
0000
,
1010
0000
0000
0100
0000
0100
0000
0101
,
0000
0001
2000
0000
0100
0000
0100
0000
,
0000
3002
0000
0000
,
0000
0203
0010
0010
,
0300
2001
0000
3020
,
0000
1030
1000
1000
,
0000
0010
0000
0000
0100
0000
0001
0000
,
0001
0000
0001
0000
0000
0010
0000
0000
,
0001
1000
1000
1000
,
0000
0001
0000
0000
0100
0000
0010
0000
,
0010
0000
0010
0000
0000
1000
0000
1000
,
0000
1000
0000
0000
0001
0000
0001
0000
,
0001
0000
0001
0100
0000
0010
0000
1000
,
0000
0001
1000
0000
1000
0000
1000
0000
,
0000
0010
0000
0000
1000
0000
0100
0000
,
0100
0000
0100
0000
0000
1000
0000
0000
,
0010
0100
0100
0100
,
0000
0001
0000
0000
0010
0000
0001
0000
,
0001
0000
0001
0000
0000
0100
0000
0100
,
0000
0100
0000
0000
0010
0000
0010
0000
,
0010
0000
0000
1000
0000
1000
0000
1000
,
0000
1001
1001
1001
,
0000
1001
0000
1001
0000
1001
0000
0000
,
0110
0000
0110
0000
0110
0000
0000
0110
,
0000
0110
0000
0110
0000
0000
1010
0000
,
1010
0000
1010
0000
0000
0101
0000
0101
,
0000
0101
0000
0001
2000
0000
0010
0000
,
0010
0000
3002
0000
,
0100
0000
0203
0010
,
0010
0000
0302
1000
,
1000
0003
2002
0000
,
0000
0000
0000
0000
,
0000
0000
0000
0000
,
3003
0000
0000
0000
;

//---------------dance-single - ----------------
#NOTEDATA:;
#CHARTNAME:;
#CHARTHASH:680754012;
#STEPSTYPE:dance-single;
#BANNER:;
#DESCRIPTION:;
#CHARTSTYLE:;
#DIFFICULTY:Medium;
#METER:10;
#METERF:10.000000;
#LASTSECONDHINT:98.626915;
#RADARVALUES:0.437956,0.474453,0.262774,0.107056,0.000000,315.000000,288.000000,27.000000,11.000000,0.000000,0.000000,0.000000,0.000000,0.000000,0.437956,0.474453,0.262774,0.107056,0.000000,315.000000,288.000000,27.000000,11.000000,0.000000,0.000000,0.000000,0.000000,0.000000;
#CREDIT:;
#DISPLAYBPM:159.000000;
#NOTES:
0000
0000
0000
0000
,
0000
0000
0000
0000
,
1000
0000
1000
0000
1000
0001
1000
0000
,
0001
0000
0001
0000
0001
1000
0001
0000
,
1001
0000
0000
0001
0010
0000
0001
1000
,
0000
0100
0000
1000
0001
0000
0000
1000
,
0100
0000
1000
0010
0000
1000
0000
0001
,
0010
0000
0000
0100
1000
0000
0001
0100
,
0000
0010
0000
1000
0001
0000
1000
0100
,
1000
0000
0010
0010
0000
1000
0000
0001
,
0000
1000
0001
0000
0100
0001
0100
0000
,
0001
0001
0000
1000
0000
0001
0010
0100
,
1000
0000
0000
1000
0100
0000
0100
0001
,
0000
0100
0000
0100
1000
0000
0000
1000
,
0001
0000
0001
1000
0000
0010
0000
1000
,
0001
0000
0000
0001
0100
0000
0100
0001
,
0000
0010
0000
0001
1000
0000
0100
0000
,
1000
0000
0001
0001
0000
1000
0000
0001
,
0100
0001
0010
0001
,
1000
1000
0000
0010
0000
1000
0001
0000
,
0101
0000
0000
0001
1000
0000
1000
0001
,
0000
0100
0000
0000
1010
0000
0000
1000
,
0100
0000
0100
1000
0000
0010
0000
1000
,
0001
0000
0000
0001
0100
0000
0100
0010
,
0000
0100
0000
0010
1000
0000
0100
0000
,
1000
0000
0000
0001
0000
0100
0000
0010
,
1000
0010
0100
0000
0000
0100
0001
0000
,
0001
1000
0000
0010
0000
1000
0100
0010
,
0002
0000
1000
0000
1000
0000
1003
0001
,
0000
0101
0000
1001
0000
1000
0020
0000
,
0100
0000
0100
0000
0130
0010
0000
1010
,
0000
1001
0000
0001
0200
0000
0001
0000
,
1000
0000
0301
0100
0000
0110
0000
1001
,
0000
1000
0100
0010
0001
0000
1000
0100
,
1000
0000
0001
0010
0100
0000
1000
0010
,
1000
0000
0010
0100
0001
0000
0010
0001
,
0010
1001
0100
2001
,
0000
3100
1000
0100
,
1000
0010
0000
0010
1000
0000
0001
0000
,
0100
0000
0001
0000
0010
0001
0000
0001
,
0100
0001
1000
0100
,
1000
0001
0000
0001
1000
0000
0010
0000
,
0010
0000
1010
0000
0000
1000
0000
1000
,
0000
1001
0000
0000
0001
0000
0001
0000
,
0101
0000
0001
1000
0000
1000
0000
1010
,
0000
0010
0100
0000
0010
0000
1000
0000
,
1000
0001
0000
0001
0010
0000
0001
0000
,
0010
0000
1000
0000
0010
0001
0000
0001
,
0100
0010
1000
0100
,
1000
0100
0000
0100
0001
0000
0100
0000
,
0100
0000
1001
0000
0000
0010
0000
0010
,
0000
1001
0000
0001
0100
0000
0010
0000
,
1010
0000
1000
0100
0000
1100
0000
1001
,
0000
0001
0200
0000
0010
0000
0010
0000
,
0310
0100
0000
0110
0000
2001
0000
0000
,
3200
0000
1000
0000
1000
0000
1300
0100
,
0000
1010
0000
1002
0000
0000
0023
0000
,
0001
0000
1000
0000
0031
0010
0000
0011
,
0000
1001
0000
1000
0100
1000
0010
0000
,
1000
0001
1000
0000
0001
0100
0001
0000
,
0010
0001
0010
0000
0001
0100
1000
0000
,
1000
0100
0001
0000
0001
0010
0100
0000
,
0100
0010
0001
1000
2002
0000
0000
0000
,
0000
0000
0000
0000
,
0000
0000
0000
0000
,
3003
0000
0000
0000
;

//---------------dance-single - ----------------
#NOTEDATA:;
#CHARTNAME:EXPERT;
#CHARTHASH:3713830257;
#STEPSTYPE:dance-single;
#BANNER:;
#DESCRIPTION:;
#CHARTSTYLE:;
#DIFFICULTY:Hard;
#METER:13;
#METERF:13.000000;
#LASTSECONDHINT:98.251915;
#RADARVALUES:0.699340,0.724696,0.603406,0.194647,0.165450,503.000000,441.000000,62.000000,20.000000,0.000000,0.000000,0.000000,0.000000,0.000000,0.699340,0.724696,0.603406,0.194647,0.165450,503.000000,441.000000,62.000000,20.000000,0.000000,0.000000,0.000000,0.000000,0.000000;
#CREDIT:YonabearCWY;
#DISPLAYBPM:159.000000;
#NOTES:
// measure 0
0000
0000
0000
0000
,  // measure 1
0000
0000
0000
0000
,  // measure 2
1000
0010
1000
0000
0001
0100
0000
0010
,  // measure 3
1000
0000
0100
0000
0010
0000
0000
0000
0001
0000
1000
0010
1000
0010
1000
0010
,  // measure 4
0100
0010
0100
0010
0001
0010
0001
0010
,  // measure 5
0100
0010
0100
1000
0100
0001
0100
1000
,  // measure 6
0100
0010
1000
0001
0010
0100
0000
1000
,  // measure 7
0001
0010
0001
0010
1000
0010
1000
0010
,  // measure 8
0001
1000
0100
0010
0011
0000
0011
0000
,  // measure 9
1001
0000
1000
1010
0000
0110
0000
0001
,  // measure 10
0001
0001
1010
0000
1010
0000
1001
0000
,  // measure 11
0010
0110
0000
0100
0001
0010
0010
0010
,  // measure 12
0001
1000
0100
1000
0100
0010
0100
0010
,  // measure 13
0001
0010
1000
0010
0001
0100
0010
0100
,  // measure 14
0001
0010
0100
1000
0001
1000
0000
0100
,  // measure 15
0010
0001
1000
0001
0010
0100
0001
0100
,  // measure 16
0010
0001
1000
0100
0110
0000
0110
0000
,  // measure 17
1010
0000
0100
0101
0000
0011
0000
0100
,  // measure 18
0100
0100
1010
0000
1010
0000
0110
0000
,  // measure 19
0100
0101
0000
0011
0000
1000
1000
1000
,  // measure 20
0100
0000
0010
0000
0001
0000
0010
0000
0100
0000
1000
0000
0001
0000
1000
0001
,  // measure 21
1000
0010
0100
0001
0010
0100
1000
0001
,  // measure 22
1000
0000
0010
0000
0100
0000
0001
0000
0010
0000
0001
0100
0001
0000
0010
0000
,  // measure 23
0100
1000
0001
1000
0100
0001
0100
1000
,  // measure 24
0001
0000
0010
0001
0010
0000
0001
0000
0101
0000
0000
0000
0101
0000
0000
0000
,  // measure 25
0011
0000
0100
0110
0000
1001
0000
0100
,  // measure 26
0100
0100
1010
0000
1010
0000
1100
0000
,  // measure 27
0100
0101
0000
0001
0010
0010
0010
0010
,  // measure 28
0210
0000
1000
1000
1000
0000
0001
0301
,  // measure 29
1100
0000
0000
0000
0010
0000
0100
0000
0001
0000
0010
0001
2000
0000
0000
0000
,  // measure 30
0010
0010
0010
0000
0001
3001
1010
0000
,  // measure 31
0101
0000
0000
0000
0001
0000
1000
0100
0020
0000
0001
0000
0001
0000
0000
0000
,  // measure 32
0100
0100
0100
0130
0000
1010
0000
0101
,  // measure 33
0000
0000
0001
0000
1000
0000
0100
0000
0010
0000
0001
0100
0002
0000
0010
0000
,  // measure 34
0010
0000
0013
0000
0001
0000
1000
0000
0100
0000
0010
0100
0020
0000
0100
0000
,  // measure 35
0100
0000
0130
0000
1000
0000
0001
0000
0100
0000
0001
0010
0002
0000
1000
0000
,  // measure 36
1000
0000
1003
0000
2001
0000
0000
0000
0000
0000
3001
1000
0010
1000
0010
1000
,  // measure 37
0010
0000
0100
0001
0010
0000
0001
0000
1000
0000
0001
0000
0100
0000
0001
0000
,  // measure 38
0010
0000
0100
0000
1000
0000
0120
0000
0000
0000
0130
0001
0010
0000
0100
0000
,  // measure 39
1000
0100
0010
0001
1000
0001
0100
1020
,  // measure 40
0000
1030
0001
0000
0010
0000
0100
0000
0010
0000
0001
0000
1000
0000
0010
0000
,  // measure 41
0001
0000
0010
0000
1000
0000
0010
0000
0100
0000
0001
0010
0100
0000
0000
0000
,  // measure 42
1100
0000
0101
0000
0100
0110
0000
1000
,  // measure 43
1000
1000
0100
0010
0101
0000
0011
0000
,  // measure 44
1001
0000
0001
0010
0010
0010
0010
0100
,  // measure 45
1001
0000
0100
0001
0010
0100
1000
0001
,  // measure 46
1000
0000
0100
0010
0001
0000
2010
0000
0000
0000
3001
0100
0010
0000
1000
0000
,  // measure 47
0001
0000
0010
0000
0001
0000
0100
0000
0010
0000
1000
0001
0100
0000
0210
0000
,  // measure 48
0000
0301
0010
0000
0100
0000
1000
0000
0001
0000
1000
0000
0010
0000
0100
0000
,  // measure 49
0001
0000
1000
0100
0010
0000
0102
0000
0000
1003
0100
0000
0110
0000
0000
0000
,  // measure 50
0011
0000
1001
0000
0100
0101
0000
0010
,  // measure 51
0010
0010
0001
1000
1010
0000
0101
0000
,  // measure 52
0011
0000
1000
1010
0000
0001
0001
0001
,  // measure 53
0001
0010
1200
0000
0001
0001
0001
0000
,  // measure 54
1000
0000
1300
0000
0110
0000
0000
0000
0101
0000
0000
0000
0001
0000
1000
0001
,  // measure 55
0020
0000
0001
0001
0001
0000
0100
0130
,  // measure 56
0011
0000
0000
0000
1000
0000
0010
0000
0100
0000
0001
1000
0020
0000
0100
0000
,  // measure 57
0100
0000
0001
0001
0001
0031
0000
0110
,  // measure 58
0000
0000
1001
0000
0000
0000
0100
0000
0010
0000
0001
0000
1000
0000
0010
0100
,  // measure 59
0002
0000
1000
0000
1000
0000
1003
0000
0100
0000
0010
0000
0001
0000
1000
0010
,  // measure 60
0200
0000
0001
0000
0301
0100
0010
0000
1000
0000
0001
0000
0010
0000
0100
1000
,  // measure 61
0020
0000
0100
0000
0100
0000
0130
0000
0001
0000
1000
0000
0100
0000
0010
0001
,  // measure 62
0010
0001
0010
0001
1000
0000
0010
0100
2002
0000
0000
0000
0000
0000
0000
0000
,  // measure 63
0000
0000
0000
0000
,  // measure 64
0000
0000
0000
3003
;

//---------------dance-double - ----------------
#NOTEDATA:;
#CHARTNAME:EXPERT;
#CHARTHASH:187891959;
#STEPSTYPE:dance-double;
#BANNER:;
#DESCRIPTION:;
#CHARTSTYLE:;
#DIFFICULTY:Hard;
#METER:13;
#METERF:13.000000;
#LASTSECONDHINT:98.626915;
#RADARVALUES:0.657629,0.695864,0.866180,0.126521,0.082725,473.000000,384.000000,89.000000,13.000000,0.000000,0.000000,0.000000,0.000000,0.000000,0.657629,0.695864,0.866180,0.126521,0.082725,473.000000,384.000000,89.000000,13.000000,0.000000,0.000000,0.000000,0.000000,0.000000;
#CREDIT:YonabearCWY;
#DISPLAYBPM:159.000000;
#NOTES:
00000000
00000000
00000000
00000000
,
00000000
00000000
00000000
00000000
,
10000000
00010000
10000000
00010000
00000000
00100000
01000000
00100000
,
00001000
00000000
00010000
00000000
00001000
00000000
00010000
00000000
00000000
00000000
00000010
00001000
00000010
00001000
00000010
00001000
,
00000100
00000010
00000002
00000000
00001003
00000100
00000001
00000100
,
00000000
00010100
00000000
00010000
00001000
00100000
00002000
00000000
,
00103000
00010000
00100000
01000000
00000000
11000000
00000000
00010000
,
01000000
00100000
02000000
00000000
03001000
00100000
00010000
00001000
,
00000000
00000100
00000010
00000001
00001010
00000000
00001010
00000000
,
00000110
00000000
00000001
00000101
00000000
00001001
00000000
00001001
,
00000010
00000100
00011000
00000000
00011000
00000000
01001000
00000000
,
01000000
01100000
00000000
10010000
00000000
01000000
01000000
01000000
,
01000000
10000000
00100000
00000000
01000000
00001000
00100000
00010000
,
00100000
00001000
00000000
00010000
00000010
00000100
00001000
00000000
,
00000100
00000001
00001000
00000001
00000010
00000100
00000000
00010000
,
00000100
00001000
00000100
00000000
00010000
00001000
00100000
00001000
,
00010000
00100000
01000000
00010000
00110000
00000000
00110000
00000000
,
10010000
00000000
01000000
01001000
00000000
00101000
00000000
00101000
,
00000000
00010000
00000100
00001000
00000110
00000000
00000110
00000000
,
00001000
00001001
00000000
00000011
00000000
00000011
00000100
00001000
,
00000100
00010000
00000010
00000000
00001000
00000100
00010000
00001000
,
00100000
01000000
00000000
00100000
00010000
10000000
01000000
00000000
,
10000000
00010000
00100000
01000000
00100000
00001000
00000000
00010000
,
00000100
00010000
00001000
00000000
00010000
00000010
00000100
00001000
,
00000100
00000010
00000100
00000001
00001001
00000000
00001001
00000000
,
00001010
00000000
00010000
00010100
00000000
00010100
00000000
00011000
,
00100000
00001000
01001000
00000000
01001000
00000000
01100000
00000000
,
00100000
10100000
00000000
11000000
00100000
10000000
01000000
00100000
,
00210000
00000000
01000000
00000000
00001000
00000000
01300000
00110000
,
00000000
00101000
00000000
00001000
00010000
00000010
00001020
00000000
,
00000001
00000000
00000100
00000000
00000031
00001010
00000000
00001100
,
00000000
00010000
00000100
00010000
00002000
00100000
00100000
00000000
,
00010000
00010000
00013000
00011000
00000000
00101000
00000000
01001000
,
00000000
00000000
01000000
00000000
00100000
00000000
10000000
00000000
01000000
00000000
10000000
00100000
10000000
00000000
00010000
00000000
,
00100000
00000000
01000000
00000000
00100000
00000000
00001000
00000000
00010000
00000000
00001000
00010000
00001000
00000000
00010000
00000000
,
00000010
00000000
00000100
00000000
00000001
00000000
00001000
00000000
00000100
00000000
00000010
00000001
00000010
00000000
00001000
00000000
,
00000010
00000000
00000100
00000000
00002200
00000000
00000000
00000000
00003300
00000000
00000000
00000100
00010000
00000100
00010000
00000100
,
00010000
00000000
00001000
00100000
00010000
00000000
00000000
00000000
10010000
00000000
00000000
00000000
01100000
00000000
00000000
00000000
,
10100000
00000000
01100000
01000000
00001000
00010000
00011000
00000000
,
00010010
00000000
00000110
00000000
00000101
00000000
00001001
00000100
,
00000010
00000001
00001100
00000000
00001010
00000000
00010010
00000000
,
00011000
00000000
00101000
00001000
00100000
00010000
01010000
00000000
,
00100000
00010000
00100000
00000000
00010000
10000000
00000000
01000000
,
01000000
01000000
00100000
00001000
00011000
00000000
00000100
00010000
,
00000100
00000000
00001000
00000010
00000010
00000010
00000100
00000001
,
00000010
00000100
00001100
00000000
00001010
00000000
00010010
00000000
,
00010100
00000000
00011000
00001000
00100000
00001000
00011000
00000000
,
01001000
00000000
01010000
00000000
00110000
00000000
00101000
00001000
,
01000000
00010000
00110000
00000000
00101000
00000000
00011000
00000000
,
00010100
00000000
00010010
00010000
00001000
00000010
00001100
00000000
,
00001000
00000001
00001000
00000000
00000010
00000100
00000000
00000010
,
00010000
00001000
00010000
00000100
00001000
00001000
00001000
00000100
,
00010000
00000000
00001000
00100000
00000000
01000000
01000000
01000000
,
10000000
01000000
00210000
00000000
10000000
00000000
00010000
00000000
,
10300000
10100000
00000000
00110000
00000000
00001000
00100000
00001000
,
00021000
00000000
00000100
00000000
00001000
00000000
00030100
00010100
,
00000000
00010010
00000000
00000010
00000100
00000001
00001020
00000000
,
00000100
00000000
00000001
00000000
00000130
00000110
00000000
00001010
,
00000000
00000000
00001100
00000000
00000000
00000000
00000100
00000000
00010000
00000000
00001000
00000000
00100000
00000000
00010000
01000000
,
00010000
00000000
00100000
00000000
01000000
00000000
00100000
00000000
00001000
00000000
00010000
00000000
00001000
00000000
00010000
00000100
,
00010000
00000000
00000010
00000000
00000100
00000000
00010000
00000000
00100000
00000000
00010000
00000000
01000000
00000000
00100000
10000000
,
00100000
00000000
10000000
00000000
01000000
00000000
00100000
00000000
00110000
00000000
00000000
00000000
00101000
00000000
00000000
00001000
,
00010000
00001000
00010000
00001000
00010000
00000000
00001000
00020000
00002000
00000000
00000000
00000000
00000000
00000000
00000000
00000000
,
00000000
00000000
00000000
00000000
,
00000000
00000000
00000000
00000000
,
00033000
00000000
00000000
00000000
;
