#VERSION:0.83;
#TITLE:Broadway Diva;
#SUBTITLE:;
#ARTIST:ROMANTIC PRODUCTION feat.akino;
#TITLETRANSLIT:;
#SUBTITLETRANSLIT:;
#ARTISTTRANSLIT:;
#GENRE:ELECTRO SWING;
#ORIGIN:;
#TAGS:;
#CREDIT:YonabearCWY;
#BANNER:Broadway Diva.png;
#BACKGROUND:Broadway Diva-bg.png;
#PREVIEWVID:;
#JACKET:Broadway Diva-jacket.png;
#CDIMAGE:;
#DISCIMAGE:;
#LYRICSPATH:;
#CDTITLE:pop'n music.png;
#MUSIC:Broadway Diva.ogg;
#OFFSET:-9.240000;
#SAMPLESTART:45.188885;
#SAMPLELENGTH:15.000000;
#SELECTABLE:YES;
#DISPLAYBPM:105.000000:145.000000;
#BPMS:0.000000=105.000000
,59.500000=99.669998
,60.000000=145.000000
;
#STOPS:;
#DELAYS:;
#WARPS:;
#TIMESIGNATURES:0.000000=4=4
;
#TICKCOUNTS:0.000000=4
;
#COMBOS:0.000000=1
;
#SPEEDS:0.000000=1.000000=0.000000=0
;
#SCROLLS:0.000000=1.000000
;
#LABELS:0.000000=Song Start
;
#BGCHANGES:4.000=nyc1.mp4=1.000=1=0=1===CrossFade==,
12.000=fan1.mp4=1.000=0=0=1=====,
20.000=piano3.mp4=1.000=0=0=1=====,
28.000=blinds1.mp4=1.000=0=0=1=====,
36.000=wheel6.mp4=1.000=0=0=1=====,
44.000=night1.mp4=1.000=0=0=1=====,
52.000=moon1.mp4=1.000=0=0=1=====,
60.000=text13.mp4=1.000=0=0=1=====,
64.000=jazz1.mp4=0.800=0=0=1=====,
72.000=bird1.mp4=1.000=0=0=1=====,
80.000=jazz1.mp4=0.800=0=1=1=StretchRewind====,
88.000=text1.mp4=1.000=0=0=1=====,
96.000=night1.mp4=1.000=0=1=1=StretchRewind====,
104.000=mikeneko2.mp4=1.000=0=0=1=====,
112.000=blinds2.mp4=1.000=0=0=1=====,
120.000=dance11.mp4=1.000=0=0=1=====,
128.000=blinds2.mp4=1.000=0=0=1=====,
136.000=nyc1.mp4=1.000=0=1=1=StretchRewind====,
144.000=moon1.mp4=1.000=0=1=1=StretchRewind====,
152.000=colors1.mp4=1.000=0=0=1=====,
160.000=text1.mp4=1.000=0=1=1=StretchRewind====,
168.000=piranha1.mp4=1.000=0=0=1=====,
176.000=text13.mp4=1.000=0=1=1=StretchRewind====,
184.000=dance11.mp4=1.000=0=1=1=StretchRewind====,
192.000=night1.mp4=1.000=0=1=1=StretchRewind====,
196.000=piano3.mp4=1.000=0=1=1=StretchRewind====,
200.000=Broadway Diva-bg.png=1.000=0=0=1=====,
99999=-nosongbg-=1.000=0=0=0 // don't automatically add -songbackground-
;
#KEYSOUNDS:;
#ATTACKS:
;

//---------------dance-single - ----------------
#NOTEDATA:;
#CHARTNAME:BEGINNER;
#CHARTHASH:2943624259;
#STEPSTYPE:dance-single;
#BANNER:;
#DESCRIPTION:;
#CHARTSTYLE:;
#DIFFICULTY:Beginner;
#METER:3;
#METERF:3.000000;
#LASTSECONDHINT:101.472031;
#RADARVALUES:0.135255,0.195213,0.039043,0.078085,0.000000,97.000000,93.000000,4.000000,8.000000,0.000000,0.000000,0.000000,0.000000,0.000000,0.135255,0.195213,0.039043,0.078085,0.000000,97.000000,93.000000,4.000000,8.000000,0.000000,0.000000,0.000000,0.000000,0.000000;
#CREDIT:YonabearCWY;
#DISPLAYBPM:105.000000:145.000000;
#NOTES:
0000
0000
0000
0000
,
1000
1000
1000
0000
,
0001
0000
0000
0000
,
1000
1000
1000
0000
,
0001
0000
0000
0000
,
0010
0000
0010
0000
,
0010
0000
0000
0000
,
0100
0000
0100
0000
,
0100
0000
0000
0000
,
0001
0001
0001
0000
,
1000
0000
0000
0000
,
2000
0000
0000
3000
,
1000
0000
0000
0000
,
0002
0000
0000
0003
,
0001
0000
0000
0000
,
1001
0000
0000
0000
,
0100
0100
0000
0000
,
0100
0000
0000
0000
,
0010
0010
0000
0000
,
0010
0000
0000
0000
,
1000
1000
0000
0000
,
0001
0000
0000
0000
,
0002
0000
0000
0003
,
1000
0000
0000
0000
,
0200
0000
0000
0300
,
0010
0000
0000
0000
,
0001
0001
0001
0000
,
0001
0001
0001
0000
,
0001
0001
0001
0000
,
1001
0000
0000
0000
,
1000
1000
1000
0000
,
1000
1000
1000
0000
,
1000
1000
1000
0000
,
0110
0000
0000
0000
,
0002
0000
0000
0003
,
0020
0000
0000
0030
,
0200
0000
0000
0300
,
2000
0000
0000
3000
,
0010
0010
0010
0000
,
0010
0010
0010
0000
,
0100
0100
0100
0000
,
0100
0100
0100
0000
,
1000
0000
1000
0000
,
0001
0000
0001
0000
,
0010
0000
0100
0000
,
1000
0000
0001
0000
,
1000
1000
0000
1000
,
1000
0000
0010
0010
,
0010
0010
0000
0100
,
0100
0100
0000
0001
,
1001
0000
0000
0000
;

//---------------dance-single - ----------------
#NOTEDATA:;
#CHARTNAME:BASIC;
#CHARTHASH:1580163749;
#STEPSTYPE:dance-single;
#BANNER:;
#DESCRIPTION:;
#CHARTSTYLE:;
#DIFFICULTY:Easy;
#METER:6;
#METERF:6.000000;
#LASTSECONDHINT:101.472031;
#RADARVALUES:0.249594,0.292820,0.185453,0.341623,0.000000,179.000000,160.000000,19.000000,35.000000,0.000000,0.000000,0.000000,0.000000,0.000000,0.249594,0.292820,0.185453,0.341623,0.000000,179.000000,160.000000,19.000000,35.000000,0.000000,0.000000,0.000000,0.000000,0.000000;
#CREDIT:YonabearCWY;
#DISPLAYBPM:105.000000:145.000000;
#NOTES:
0000
0000
0000
0000
,
1000
1000
0001
0001
,
0000
0100
0000
0100
0000
0100
0000
0000
,
0010
0010
0100
0100
,
0000
0001
0000
0001
0000
1001
0000
0000
,
0100
0100
0100
0100
,
0000
0010
0000
0010
0000
0010
0000
0000
,
1000
1000
1000
1000
,
0000
0001
0000
0001
0000
0001
0000
0000
,
0100
0100
0100
0100
,
0000
0010
0000
0010
0000
0010
0000
0000
,
2000
0001
0100
3001
,
0002
1000
0010
1003
,
0020
0100
0001
0130
,
0200
1000
0010
1300
,
2002
0000
0000
3003
,
1000
2000
0000
3000
,
0000
0001
0000
0001
0000
0001
0000
0000
,
1000
2000
0000
3000
,
0000
0010
0000
0010
0000
0010
0000
0010
,
0100
0200
0000
0300
,
0000
0100
0000
0100
0000
0100
0000
0100
,
0002
1000
0010
1003
,
0200
0001
0010
0301
,
0020
1000
0001
1030
,
0200
0001
1000
0301
,
0110
0220
0000
0330
,
1001
2002
0000
3003
,
1100
2200
0000
3300
,
0010
0001
1000
0010
,
0101
0202
0000
0303
,
1010
2020
0000
3030
,
0011
0022
0000
0033
,
1000
0001
0010
0100
,
2000
0001
0010
0001
,
3020
1000
0100
1000
,
0230
0001
1000
0001
,
0320
1000
0001
1000
,
0031
1010
2002
3003
,
1000
0110
0202
0303
,
1000
1000
0002
0003
,
0010
0010
0200
0300
,
1000
0001
1000
0000
,
0001
1000
0001
0000
,
0000
0100
0000
0010
0000
0100
0000
0000
,
0000
0010
0000
0100
0000
0010
0000
0000
,
1000
0000
0000
1000
0000
0000
0001
0000
,
0100
0000
0000
0100
0000
0000
0010
0000
,
1000
0100
0010
0001
,
1000
0001
0010
0100
,
1001
0000
0000
0000
;

//---------------dance-single - ----------------
#NOTEDATA:;
#CHARTNAME:DIFFICULT;
#CHARTHASH:3497612934;
#STEPSTYPE:dance-single;
#BANNER:;
#DESCRIPTION:;
#CHARTSTYLE:;
#DIFFICULTY:Medium;
#METER:9;
#METERF:9.000000;
#LASTSECONDHINT:101.472031;
#RADARVALUES:0.393215,0.439230,0.224495,0.136649,0.000000,282.000000,259.000000,23.000000,14.000000,0.000000,0.000000,0.000000,0.000000,0.000000,0.393215,0.439230,0.224495,0.136649,0.000000,282.000000,259.000000,23.000000,14.000000,0.000000,0.000000,0.000000,0.000000,0.000000;
#CREDIT:YonabearCWY;
#DISPLAYBPM:105.000000:145.000000;
#NOTES:
0000
0000
0000
0000
,
0000
1000
0000
1000
0000
0001
0100
0010
,
0000
0100
0000
0100
0000
0001
1000
0100
,
0000
0010
0000
0010
0000
0001
0100
1000
,
0000
0100
0000
0100
0000
0010
1001
0000
,
0010
0000
0001
0000
1000
0100
0010
0001
,
0100
0001
0100
0000
0010
1000
0010
0000
,
0100
0000
0001
0000
0010
0100
1000
0001
,
1000
0100
0010
0000
0001
0100
0010
0100
,
0000
0001
0000
1000
0000
0001
0000
1000
,
0100
0010
0001
0100
0010
0100
0001
0010
,
0020
0100
0000
0001
0000
0100
0000
1030
,
0010
0100
1000
0010
0100
0001
0000
1000
,
2000
0010
0000
0100
0000
0001
0000
3100
,
1000
0001
0010
0100
0010
0100
1000
0000
,
2002
0000
0000
3003
,
0010
1000
0100
0010
,
0001
0000
0100
0010
0100
0001
1000
0010
,
0000
0100
0000
0001
0000
0010
0000
0100
,
0000
1000
0000
0001
0100
0010
1000
0100
,
0010
0001
0010
1000
,
0010
0000
0100
0010
0001
0010
1000
0010
,
0200
0000
1000
0000
0001
0000
1000
1300
,
1100
1010
1001
0101
,
0002
0000
1000
0000
0010
0000
1000
1003
,
0000
0011
0000
1001
0000
0110
0000
0001
,
1000
1000
1000
0000
0100
0010
0100
0000
,
0001
0001
0001
0000
0010
0100
0010
0000
,
0001
1000
1000
0000
0100
0010
0010
0000
,
0110
0000
1001
0000
0100
0010
0100
0100
,
0000
0001
0001
0001
0000
1000
0010
1000
,
0000
0100
0100
0100
0000
0010
0001
0010
,
0000
0100
0100
1000
0000
0100
0100
0010
,
0000
1001
0000
0110
0000
1000
0001
0010
,
0100
1000
0100
1000
0100
1000
0100
0000
,
0010
0001
0010
0001
0010
0001
0010
0000
,
0100
1000
0100
0001
0100
1000
0001
0010
,
1000
0010
0001
0100
0010
0100
1000
0100
,
0101
0101
2001
0000
,
0010
0010
0020
3030
,
0110
0110
1002
0000
,
1000
1000
2000
3003
,
1000
0000
0010
0000
0100
0000
0001
0010
,
0100
0000
1000
0000
0001
0000
1000
0010
,
0100
0011
0001
1010
,
1000
1000
0001
0001
1000
0000
0110
0000
,
0002
1000
0010
1000
,
0203
0001
0010
1000
,
0302
1000
0203
0010
,
0301
0100
0001
0000
1000
0010
1000
0000
,
1001
0000
0000
0000
;

//---------------dance-single - ----------------
#NOTEDATA:;
#CHARTNAME:EXPERT;
#CHARTHASH:3992081928;
#STEPSTYPE:dance-single;
#BANNER:;
#DESCRIPTION:;
#CHARTSTYLE:;
#DIFFICULTY:Hard;
#METER:12;
#METERF:12.000000;
#LASTSECONDHINT:101.472031;
#RADARVALUES:0.518710,0.536837,0.175692,0.195213,0.141530,372.000000,354.000000,18.000000,20.000000,0.000000,0.000000,0.000000,0.000000,0.000000,0.518710,0.536837,0.175692,0.195213,0.141530,372.000000,354.000000,18.000000,20.000000,0.000000,0.000000,0.000000,0.000000,0.000000;
#CREDIT:YonabearCWY;
#DISPLAYBPM:105.000000:145.000000;
#NOTES:
0000
0000
0000
0000
,
1000
0001
0100
0001
1000
0010
1000
0100
,
0010
0000
0000
0010
0000
0000
0000
0000
0001
0000
0000
1000
0100
0000
0000
0100
0000
0000
0000
0000
0010
0000
0000
0001
,
1000
0100
0001
0100
0010
0001
0010
1000
,
0010
0000
0000
0010
0000
0000
0010
0000
0001
0000
0000
0001
1000
0000
0000
1000
0000
0000
0000
0000
1000
0000
0000
0010
,
0100
0101
0001
0011
0001
1000
0100
0010
,
0002
0000
1000
0100
1000
0000
0010
0100
,
0013
0011
0001
1010
1000
0001
0010
0100
,
0010
0000
0000
0001
0000
0020
0000
0000
0000
0100
0000
0000
1000
0000
0000
0100
0000
0000
0000
0000
0000
0031
0000
0000
,
0010
0001
1000
0100
0010
0100
0010
0001
,
2000
0001
0010
0000
0001
0100
3001
0000
,
1200
1000
1000
1000
1000
1000
1300
0200
,
0010
0000
0000
0010
0000
0000
0000
0000
0001
0000
0000
0000
1000
0000
0000
1000
0000
0000
0000
0000
0301
0000
0000
1000
,
0020
0100
0100
0100
0100
0100
0130
0002
,
1000
1000
0100
0000
0010
0010
0103
0000
,
2002
0000
0000
3003
,
1000
0010
0100
0000
1000
0010
0100
0000
,
0001
0100
1000
0100
0001
1000
0100
0010
,
0001
0100
0010
0000
0001
0100
0010
0000
,
1000
0001
0100
0001
0010
0100
1000
0001
,
0100
0010
0001
0000
0100
0010
0001
0000
,
0100
0001
0010
0100
1000
0001
1000
0100
,
0021
0000
0000
0000
1000
0000
0000
0000
0031
0000
0000
0001
1000
0000
0100
0000
,
0010
0000
0000
0020
0000
0000
0000
0000
0001
0000
0000
0000
1000
0000
0000
1000
0000
0000
0000
0000
0031
0000
0000
0010
,
0200
0000
0000
0000
1000
0000
0000
0000
0301
0000
0000
1000
0100
0000
0020
0000
,
0001
0000
0000
0001
0000
0000
0000
0000
1000
0000
0000
0000
0001
0000
0000
0031
0000
0000
2001
0000
0000
0000
0000
0000
,
3010
1000
0010
0010
0010
0010
0010
0100
,
0001
0010
0100
0100
0100
0100
0100
1000
,
0001
0010
0001
0001
0001
0001
0001
1000
,
0100
0010
0001
1000
0010
0100
0001
0010
,
0100
1000
0001
0001
0001
0001
1001
1000
,
0100
0010
0100
0100
0100
0100
1100
0001
,
0100
1000
0010
0010
0010
0010
0110
1000
,
0001
0010
0100
1000
0001
0010
1200
0000
,
2300
0000
0000
0000
0001
0000
0000
0000
3010
0000
0000
0001
0100
0000
0010
0000
,
0200
0000
0000
0000
0001
0000
0000
0000
1300
0000
0000
0100
0010
0000
0100
0000
,
0001
0010
0001
0010
0100
0010
0100
1000
,
0001
1000
0010
0001
0010
1000
0001
0100
,
0120
0000
1000
0000
0001
0000
1000
1030
,
0200
0000
0001
0001
0001
0000
0010
0010
,
0310
1000
0100
0000
0010
1000
0100
0100
,
0010
0001
0100
0000
0010
0001
0100
0100
,
1001
0000
0000
0001
0000
0000
0010
0000
0000
0100
0000
0000
1000
0000
0000
0001
0000
0000
1000
0000
0100
1000
0000
0000
,
0110
0000
0000
0001
0000
0000
0100
0000
0000
0010
0000
0000
1000
0000
0000
0100
0000
0000
0010
0000
0001
0100
0000
0000
,
0010
1000
0110
0001
0010
1000
0110
0001
,
0100
0100
1000
1000
0100
0001
0010
0100
,
1000
0000
0000
0010
0000
0000
0100
0000
0000
0001
0000
1000
0010
0000
0100
0001
,
0000
0001
0010
0000
0010
0100
0000
0100
1000
0000
0001
0000
1000
0000
0100
0000
,
0020
0000
0001
0000
1000
0000
0031
0010
,
0100
0100
1000
1000
0001
0100
0010
1000
,
1001
0000
0000
0000
;

//---------------dance-single - ----------------
#NOTEDATA:;
#CHARTNAME:CHALLENGE;
#CHARTHASH:1360089818;
#STEPSTYPE:dance-single;
#BANNER:;
#DESCRIPTION:;
#CHARTSTYLE:;
#DIFFICULTY:Challenge;
#METER:15;
#METERF:15.000000;
#LASTSECONDHINT:101.472031;
#RADARVALUES:0.698585,0.707648,0.244017,0.117128,0.644204,501.000000,476.000000,25.000000,12.000000,0.000000,0.000000,0.000000,0.000000,0.000000,0.698585,0.707648,0.244017,0.117128,0.644204,501.000000,476.000000,25.000000,12.000000,0.000000,0.000000,0.000000,0.000000,0.000000;
#CREDIT:YonabearCWY;
#DISPLAYBPM:105.000000:145.000000;
#NOTES:
// measure 0
0000
0000
0000
0000
,  // measure 1
1000
0000
0001
1000
0000
0000
0100
0000
0010
0100
0000
0000
1000
0000
0001
1000
0000
0010
0100
0000
0000
1001
0000
0000
,  // measure 2
0010
0000
0100
0010
0000
0000
1000
0000
0001
0000
0000
0001
1000
0000
0010
0100
0000
0000
0001
0000
1000
0000
0100
0010
,  // measure 3
0001
0000
1000
0001
0000
0000
0010
0000
0100
0010
0000
0000
0001
0000
1000
0001
0000
0100
0010
0000
0000
1001
0000
0000
,  // measure 4
0100
0000
0010
0100
0000
0000
0001
0000
1000
0000
0000
1000
0100
0000
0010
0001
0010
0001
0100
0000
0010
0000
1000
0001
,  // measure 5
0100
0010
1000
0010
0110
0100
0101
0100
,  // measure 6
1100
0000
0000
0000
0000
0001
0100
0000
0000
0010
0000
0000
1000
0000
0000
0100
0000
0010
0001
0000
1000
0001
0000
0000
,  // measure 7
0100
0001
0010
0001
0101
1000
1010
0100
,  // measure 8
0110
0000
0000
0000
0000
0001
1000
0000
0100
0010
0000
0000
0100
0000
1000
0001
0000
0000
0010
0000
0001
0100
0000
0000
,  // measure 9
0010
0000
0000
1000
0000
0000
0100
0000
0000
0010
0000
0000
0001
0000
0100
0010
0000
1000
0010
0000
0000
1001
0000
0000
,  // measure 10
1100
0000
0000
0000
0000
0010
0001
0000
0010
0100
0000
0000
0010
0000
0001
0000
0000
1000
0001
0000
0100
0000
0000
0010
,  // measure 11
2000
0001
0010
0001
0010
3001
0100
0010
,  // measure 12
1002
0000
0000
0100
0000
0000
0000
0000
0103
0000
0000
2000
0010
0000
0000
0010
0000
0000
3000
0000
0010
1000
0000
0000
,  // measure 13
0102
1000
0010
1000
0010
0103
0001
0010
,  // measure 14
2100
0000
0000
0001
0000
0000
3000
0000
0001
0010
0000
0001
0100
0000
0000
0010
0000
0000
1000
0000
0000
0001
0000
0000
,  // measure 15
1001
0000
1000
0001
1000
0001
1000
0001
1000
0001
1000
0001
1000
0001
1000
0001
,  // measure 16
1000
0000
0100
0000
0010
0000
0001
0000
1000
0000
0001
0010
0000
0010
0100
0000
,  // measure 17
1000
0000
0001
0000
0010
0000
0100
0000
0010
0000
0001
0000
1000
0100
1000
0000
,  // measure 18
0001
0000
0100
0000
0010
0000
1000
0000
0100
0000
0010
0001
0000
0001
1000
0000
,  // measure 19
0010
0000
0100
0000
0001
0000
0010
0000
0100
0000
1000
0001
1000
0001
1000
0000
,  // measure 20
0100
0010
0100
1000
0100
0100
1000
0001
,  // measure 21
0010
0000
0001
1000
0000
1000
0100
0000
0010
0000
0001
0000
1001
0000
0000
0000
,  // measure 22
0100
0001
0010
0001
0010
0001
0010
0001
0010
0001
0010
0001
0010
0000
0100
0000
,  // measure 23
1002
0100
0010
0100
0010
0100
0013
1000
,  // measure 24
0001
1000
0010
1000
0010
1000
0010
1000
0010
1000
0010
1000
0010
0000
0100
0000
,  // measure 25
2010
0001
0100
0001
0100
3001
1000
0100
,  // measure 26
0010
0000
0000
0001
0000
0000
0001
0000
0000
0001
0000
0000
1000
0000
0000
0000
0000
0001
0000
0000
1000
0100
0000
0000
,  // measure 27
0010
0000
0000
0000
0000
0000
0001
0000
0000
0100
0000
0000
0001
0000
0000
0100
0000
0000
0001
0000
0000
0000
0000
0000
1000
0000
0000
0000
0000
0000
0000
0000
0000
0000
0001
0000
0000
0000
0000
0000
1000
0000
0010
0000
0000
0000
0000
0000
,  // measure 28
1000
0000
0000
0000
0000
0000
0100
0000
0000
0000
0000
0000
0100
0000
0000
0000
0000
0000
0100
0000
0000
1000
0000
0000
0010
0000
0000
0000
0000
0000
0010
0000
0000
0000
1000
0000
0000
0000
0000
0000
0001
0000
0010
0000
0000
0000
0000
0000
,  // measure 29
1000
0010
0001
0010
0100
0010
0001
1000
,  // measure 30
0001
0000
0000
1000
0000
0000
1000
0000
0000
1000
0000
0000
0010
0000
0000
0000
0000
1000
0000
0000
0001
0100
0000
0000
,  // measure 31
0001
0000
0000
0000
0000
0000
1000
0000
0000
0010
0000
0000
1000
0000
0000
0010
0000
0000
1000
0000
0000
0000
0000
0000
0100
0000
0000
0000
0000
0000
0000
0000
0000
0000
1000
0000
0000
0000
0000
0000
0001
0000
0010
0000
0000
0000
0000
0000
,  // measure 32
0100
0000
0000
0000
0000
0000
0010
0000
0000
0000
0000
0000
0010
0000
0000
0000
0000
0000
0010
0000
0000
0001
0000
0000
0100
0000
0000
0000
0000
0000
0100
0000
0000
0000
0001
0000
0000
0000
0000
0000
0010
0000
0100
0000
0000
0000
0000
0000
,  // measure 33
1000
0010
0001
0010
1000
0100
0010
0001
,  // measure 34
0200
0000
0010
0000
0010
0000
0310
0000
0100
0000
0001
1000
0000
1000
0100
0000
,  // measure 35
0010
0000
0000
0000
0000
0000
0001
0000
0000
0100
0000
0000
0001
0000
0000
0100
0000
0000
0001
0000
0000
0100
0000
0000
0010
0000
0000
0000
0000
0000
1000
0000
0000
0000
0100
0000
0000
0000
0000
0000
0010
0000
0001
0000
0000
0000
0000
0000
,  // measure 36
1000
0001
0000
0001
0010
0000
0100
1000
0000
1000
0010
0000
1000
0000
0001
0000
,  // measure 37
0100
0000
0000
0010
0000
0000
1000
0000
0010
0000
0000
0010
0100
0000
0000
0100
0000
0001
0000
0000
0001
1000
0000
0000
,  // measure 38
0201
0000
0010
0000
1000
0000
0301
0100
,  // measure 39
1200
0000
0010
0000
0301
0001
0100
0010
,  // measure 40
1020
0000
0001
0001
0001
0000
0130
0010
,  // measure 41
0120
0000
1000
1000
1000
0000
0031
0000
,  // measure 42
1001
0000
0000
1000
0000
0000
0100
0000
0000
0010
0000
0000
0001
0000
0000
0100
0000
0000
0010
0000
1000
0100
0000
0000
,  // measure 43
1001
0000
0000
0001
0000
0000
0010
0000
0000
0100
0000
0000
1000
0000
0000
0001
0000
0000
0100
0000
0000
0001
1000
0001
,  // measure 44
1000
0000
0100
0000
0010
0001
0000
0001
1000
0000
0001
0100
0010
0100
0000
0001
,  // measure 45
1000
0100
0100
0001
0100
0100
1000
0010
,  // measure 46
0100
0000
0000
0001
0000
0000
0000
0000
0000
0001
0000
0000
0010
0000
0000
0000
0000
0000
0010
0000
0000
0100
0000
0000
0000
0000
0000
0100
0000
0000
1000
0000
0000
0000
0000
0000
1000
0000
0000
0000
0001
0000
0000
0000
0000
0000
0001
0000
,  // measure 47
0100
0000
0100
0010
1000
0000
1000
0100
0000
0100
0010
0000
0010
0001
1000
0001
,  // measure 48
1000
0001
0010
0001
0010
0100
1000
0100
1000
0100
0010
0001
0100
0000
0010
0000
,  // measure 49
1001
0000
0000
0010
0000
0000
0100
0000
0000
1000
0000
0000
0101
0000
0000
0010
0000
0000
0100
0000
0000
1000
0001
0100
,  // measure 50
0001
0000
0000
0000
;
