#VERSION:0.83;
#TITLE:Boom Boom Boom;
#SUBTITLE:;
#ARTIST:F.K.;
#TITLETRANSLIT:;
#SUBTITLETRANSLIT:;
#ARTISTTRANSLIT:;
#GENRE:;
#ORIGIN:;
#TAGS:;
#CREDIT:;
#BANNER:Boom Boom Boom.png;
#BACKGROUND:Boom Boom Boom-bg.png;
#PREVIEWVID:;
#JACKET:Boom Boom Boom-jacket.png;
#CDIMAGE:;
#DISCIMAGE:;
#LYRICSPATH:;
#CDTITLE:SHAKE III.png;
#MUSIC:Boom Boom Boom.ogg;
#OFFSET:-1.380000;
#SAMPLESTART:70.461990;
#SAMPLELENGTH:15.000000;
#SELECTABLE:YES;
#DISPLAYBPM:177.000000;
#BPMS:0.000000=177.020004
;
#STOPS:;
#DELAYS:;
#WARPS:;
#TIMESIGNATURES:0.000000=4=4
;
#TICKCOUNTS:0.000000=4
;
#COMBOS:0.000000=1
;
#SPEEDS:0.000000=1.000000=0.000000=0
;
#SCROLLS:0.000000=1.000000
;
#LABELS:0.000000=Song Start
;
#BGCHANGES:-5.000=Boom Boom Boom.mp4=1.000=1=0=1===CrossFade==,
268.000=Boom Boom Boom-bg.png=1.000=0=0=1===CrossFade_Fastest==,
99999.000=-nosongbg-=1.000=0=0=0=StretchNoLoop====,
99999=-nosongbg-=1.000=0=0=0 // don't automatically add -songbackground-
;
#KEYSOUNDS:;
#ATTACKS:
;

//---------------dance-single - ----------------
#NOTEDATA:;
#CHARTNAME:;
#CHARTHASH:1043711577;
#STEPSTYPE:dance-single;
#BANNER:;
#DESCRIPTION:;
#CHARTSTYLE:;
#DIFFICULTY:Beginner;
#METER:5;
#METERF:0.000000;
#LASTSECONDHINT:97.631409;
#RADARVALUES:0.165210,0.245626,0.059306,0.019769,0.000000,117.000000,111.000000,6.000000,2.000000,0.000000,0.000000,0.000000,0.000000,0.000000,0.165210,0.245626,0.059306,0.019769,0.000000,117.000000,111.000000,6.000000,2.000000,0.000000,0.000000,0.000000,0.000000,0.000000;
#CREDIT:;
#DISPLAYBPM:177.000000;
#NOTES:
0000
0000
0000
0000
,
0000
0000
0000
0000
,
0000
0000
0000
0000
,
0000
0000
0000
0000
,
0000
0000
0000
0000
,
0000
0000
0000
0000
,
0000
0000
0000
0000
,
0000
0000
0000
0000
,
1000
0000
0000
0000
,
0100
0100
1000
1000
,
0001
0000
0000
0000
,
0001
0001
0001
0000
,
0100
0000
0000
0000
,
0010
0010
1000
1000
,
0001
0000
0000
0000
,
0100
0100
0100
0000
,
0010
0000
0000
0000
,
1000
1000
0001
0001
,
1000
0000
0000
0000
,
0100
0100
0100
0000
,
1000
0000
0000
0000
,
0010
0010
0100
0100
,
0001
0000
0000
0000
,
0001
0001
0001
0001
,
1001
0000
0000
0000
,
0000
1000
0000
1000
,
0000
0010
0000
0010
,
0100
0000
0100
0000
,
0100
0000
0000
0000
,
0000
0001
0000
0001
,
0000
1000
0000
1000
,
0010
0000
0010
0000
,
0010
0000
0000
0000
,
1001
1000
0000
1000
,
0000
0010
0000
0010
,
1000
0000
1000
0000
,
1000
0000
0000
0000
,
1001
0010
0000
0010
,
0000
0100
0000
0100
,
0001
0000
0001
0000
,
0001
0000
0000
0000
,
1000
0000
0000
0000
,
1000
0000
0000
0000
,
0001
0000
0000
0000
,
0001
0000
0000
0000
,
1000
0000
0000
0000
,
1000
0000
0000
0000
,
0001
0000
0100
0000
,
0010
0000
1000
0000
,
1001
0000
0000
0000
,
0110
0000
0000
0000
,
1000
0000
1000
0000
,
1000
0000
0000
0000
,
0001
0000
0000
0000
,
0001
0000
0000
0000
,
0010
0000
0010
0000
,
0010
0000
0000
0000
,
0001
0000
0000
0000
,
0001
0000
0000
0000
,
0100
0000
0100
0000
,
0010
0000
0010
0000
,
1000
0000
1000
0000
,
0010
0000
0010
0000
,
1000
0000
1000
0000
,
0001
0001
0001
0000
,
1000
0000
1000
0000
,
0010
0000
0010
0000
,
0100
0000
0000
0000
,
0010
0000
0000
0000
,
1000
0000
0000
0000
,
2002
0000
0000
0000
,
3003
0000
0000
0000
;

//---------------dance-single - ----------------
#NOTEDATA:;
#CHARTNAME:;
#CHARTHASH:2147483647;
#STEPSTYPE:dance-single;
#BANNER:;
#DESCRIPTION:;
#CHARTSTYLE:;
#DIFFICULTY:Easy;
#METER:7;
#METERF:0.000000;
#LASTSECONDHINT:97.631409;
#RADARVALUES:0.307827,0.385984,0.266878,0.227340,0.000000,218.000000,191.000000,27.000000,23.000000,0.000000,0.000000,0.000000,0.000000,0.000000,0.307827,0.385984,0.266878,0.227340,0.000000,218.000000,191.000000,27.000000,23.000000,0.000000,0.000000,0.000000,0.000000,0.000000;
#CREDIT:;
#DISPLAYBPM:177.000000;
#NOTES:
0000
0000
0000
0000
,
0000
0000
0000
0000
,
0000
0000
0000
0000
,
0000
0000
0000
0000
,
0000
0000
0000
0000
,
0000
0000
0000
0000
,
0000
0000
0000
0000
,
0000
0000
0000
0000
,
1000
0000
0000
0001
0000
0000
1000
0000
,
0010
0010
0100
0100
,
0001
0000
0000
1000
0000
0000
0100
0000
,
1000
1000
1000
1001
,
0010
0000
0000
0001
0000
0000
0100
0000
,
0001
0001
1000
1000
,
0010
0000
0000
1000
0000
0000
0100
0000
,
1000
0010
0010
1001
,
0100
0000
0000
0001
0000
0000
0010
0000
,
0001
0001
1000
1000
,
0010
0000
0000
1000
0000
0000
0100
0000
,
1000
1000
1000
0110
,
0100
0000
0000
0001
0000
0000
0010
0000
,
0001
0001
0100
0100
,
0010
0000
0000
1000
0000
0000
0010
0000
,
1001
0100
1001
0010
,
2002
0000
0000
3003
,
2000
0010
0000
0010
,
3200
1000
0000
1000
,
1300
0001
0100
0001
,
0010
0001
1000
0001
,
0020
0001
0000
0001
,
0032
0100
0000
0100
,
0013
0001
1000
0100
,
2002
0000
0000
3003
,
1000
1000
0010
0010
,
1000
0001
0100
0000
,
0001
0001
0010
0010
,
0001
1000
0100
0000
,
1000
0100
0001
0100
,
1000
1000
0010
0000
,
1000
0010
0001
0010
,
1000
1000
0001
0000
,
0101
0000
0000
0011
0000
0000
0001
0000
,
1001
0000
0000
1100
0000
0000
0000
0000
,
1010
0000
0000
0110
0000
0000
0100
0000
,
0001
0001
1000
0010
,
2200
0000
3300
1001
,
0022
0000
0033
1001
,
0200
0000
0320
0000
,
2030
0000
3002
0000
,
0200
0000
0000
0000
,
0303
0000
0000
0000
,
1000
1000
0001
0001
,
1000
0010
0100
0001
,
0010
0001
0000
1000
,
0001
0100
0010
1000
,
0100
0000
0000
1000
0000
0000
0010
0000
,
1000
0010
0100
0001
,
0101
0000
1001
0000
,
0110
0000
1010
0000
,
2000
0000
0100
3100
,
0020
0000
0001
0031
,
0200
0000
0010
0310
,
2000
0000
0001
3001
,
1001
0010
1000
0010
,
0100
0100
1001
0010
,
1000
0000
0010
0000
,
1000
0000
0001
0000
,
0100
0000
0000
0100
0000
0000
0010
0000
,
1000
0000
0000
1000
0000
0000
0001
0000
,
1001
0000
0000
0110
0000
0000
0110
0000
,
2002
0000
0000
0000
,
3003
0000
0000
0000
;

//---------------dance-single - ----------------
#NOTEDATA:;
#CHARTNAME:;
#CHARTHASH:1335427454;
#STEPSTYPE:dance-single;
#BANNER:;
#DESCRIPTION:;
#CHARTSTYLE:;
#DIFFICULTY:Medium;
#METER:10;
#METERF:0.000000;
#LASTSECONDHINT:97.631409;
#RADARVALUES:0.519635,0.561431,0.405258,0.118612,0.148265,368.000000,327.000000,41.000000,12.000000,0.000000,0.000000,0.000000,0.000000,0.000000,0.519635,0.561431,0.405258,0.118612,0.148265,368.000000,327.000000,41.000000,12.000000,0.000000,0.000000,0.000000,0.000000,0.000000;
#CREDIT:;
#DISPLAYBPM:177.000000;
#NOTES:
0000
0000
0000
0000
,
0000
0000
0000
0000
,
0000
0000
0000
0000
,
0000
0000
0000
0000
,
0000
0000
0000
0000
,
0000
0000
0000
0000
,
0000
0000
0000
0000
,
0000
0000
0000
0000
,
1000
0000
0010
1000
0000
1000
0010
0000
,
1000
0000
1000
0000
1000
0000
0001
0000
0001
0000
0001
0000
,
0100
0000
0001
0010
0000
0010
0001
0000
,
0101
0000
1001
0000
0011
0000
0001
1000
,
0010
0000
0010
0100
0000
0100
0010
0000
,
0100
0000
0100
0000
0100
0000
0010
0000
0010
0000
0010
0000
,
1000
0000
0010
1000
0000
1000
0001
0100
,
0001
0000
1000
0001
1000
0000
0010
0010
,
0010
0000
1000
0001
0000
0001
1000
0000
,
0010
0000
0010
0000
0010
0000
1000
0000
1000
0000
1000
0000
,
0010
0000
0100
0001
0000
0001
0100
0000
,
1001
0000
0110
0000
1010
0000
1000
0001
,
0100
0000
0100
0001
0000
0001
0010
0001
,
0100
0000
0100
0000
0100
0000
0001
0000
0001
0000
0001
0000
,
0100
0010
1000
0010
0100
0001
1000
0100
,
1000
0000
0001
0100
0001
0000
1001
0000
,
0220
0000
0000
0330
,
0010
0000
1000
0000
0100
1000
0100
0000
,
1000
0000
0010
0000
0100
0001
0100
0000
,
0001
1000
0001
0000
1000
0001
1000
0000
,
0101
1001
1100
1010
,
0010
0100
0010
0000
0100
0000
0001
0000
,
1000
0001
1000
0000
0001
0000
0010
0000
,
0001
0000
1000
0100
1000
0000
0001
0010
,
0001
0100
0000
0001
1000
0100
1000
0000
,
1010
0000
0010
0100
0010
0000
0100
0000
,
0001
0000
0010
0001
0010
0000
0001
0000
,
1001
0000
0001
1000
0100
0010
0001
0000
,
0011
1001
1100
1010
,
0010
0100
0010
0000
1010
0000
1000
0000
,
0001
0000
1000
0001
1000
0000
1001
0000
,
0010
0000
0100
0010
0000
0010
1000
0001
,
0100
0000
0100
0001
1000
0001
0010
0100
,
2100
0000
0000
3200
0000
1300
1002
0000
,
0023
0000
0000
0032
0000
0000
0103
0000
,
1002
0000
0000
0013
0000
0001
0100
0010
,
1010
0000
0000
1001
0000
0000
0110
0000
,
1000
0000
1000
0000
1000
0000
1000
0000
0000
1001
0000
0000
,
0001
0000
0001
0000
0001
0000
0001
0000
0000
0100
0001
0100
,
0001
0000
0010
0000
0001
0000
1000
0000
0100
0000
1000
0000
,
0010
0000
0100
0000
0001
0000
1000
0000
0100
0000
1000
0000
,
0010
0001
0010
1000
0010
0001
0010
1000
,
0220
0000
0000
0330
,
0101
1001
1010
1100
,
1000
0010
1000
0000
1000
0001
1000
0000
,
0101
0000
0001
0000
1000
0001
1000
0000
,
0001
0100
0010
1000
,
0101
0000
0001
1000
0000
1000
0001
0000
,
0001
1000
0001
0000
1000
0001
1000
0000
,
1010
0000
0000
0010
0100
0000
0000
0100
,
0001
0000
0000
0001
1000
0100
0010
0000
,
0010
0001
0010
0001
0010
0001
0010
0000
,
0001
1000
0001
1000
0001
1000
0001
0000
,
1000
0100
1000
0100
1000
0100
1000
0000
,
1000
0100
0001
0100
1000
0100
0001
0000
,
1100
1000
1010
0010
,
0110
0100
0001
0000
1001
0000
0001
0000
,
1001
0010
0100
0001
,
1000
0000
0000
0010
1000
0000
0000
1000
,
0001
0000
0001
0100
0000
0100
0001
0000
,
0010
0000
0001
1000
0000
1000
0001
0000
,
1000
0100
0010
0001
1000
0100
0010
0001
,
2002
0000
0000
0000
,
3003
0000
0000
0000
;

//---------------dance-single - ----------------
#NOTEDATA:;
#CHARTNAME:;
#CHARTHASH:2147483647;
#STEPSTYPE:dance-single;
#BANNER:;
#DESCRIPTION:;
#CHARTSTYLE:;
#DIFFICULTY:Hard;
#METER:14;
#METERF:0.000000;
#LASTSECONDHINT:98.983528;
#RADARVALUES:0.659428,0.925175,0.731442,0.158150,0.242167,467.000000,393.000000,74.000000,16.000000,0.000000,0.000000,0.000000,0.000000,0.000000,0.659428,0.925175,0.731442,0.158150,0.242167,467.000000,393.000000,74.000000,16.000000,0.000000,0.000000,0.000000,0.000000,0.000000;
#CREDIT:;
#DISPLAYBPM:176.000000;
#NOTES:
// measure 0
0000
0000
0000
0000
,  // measure 1
0000
0000
0000
0000
,  // measure 2
0000
0000
0000
0000
,  // measure 3
0000
0000
0000
0000
,  // measure 4
0000
0000
0000
0000
,  // measure 5
0000
0000
0000
0000
,  // measure 6
0000
0000
0000
0000
,  // measure 7
0000
0000
0000
0000
,  // measure 8
1000
0000
1000
0010
0000
0010
1000
0100
,  // measure 9
0010
0000
0011
0000
0001
0000
0100
0000
0101
0000
0001
0000
,  // measure 10
1000
0000
0001
1000
0000
1000
0100
0001
,  // measure 11
0100
1100
1001
0110
,  // measure 12
1000
0000
1000
0001
0000
0001
0100
0010
,  // measure 13
1000
0000
1010
0000
0010
0000
0100
0000
0101
0000
0001
0000
,  // measure 14
1000
0000
1000
0010
0000
0010
0100
0001
,  // measure 15
0011
0000
0000
0000
0001
0000
1000
0000
0001
0000
1000
0100
1000
0000
0010
0000
,  // measure 16
1010
0000
0010
0100
0000
0100
0001
0010
,  // measure 17
0001
0000
1001
0000
1000
0000
0010
0000
1010
0000
1000
0000
,  // measure 18
0001
0000
0001
0100
0000
0100
0010
1000
,  // measure 19
0001
0000
0000
0000
0011
0000
0000
0000
1100
0000
1000
0001
1000
0000
0010
0000
,  // measure 20
0100
0000
0001
0010
0000
0010
1000
0010
,  // measure 21
0001
0000
1001
0000
1000
0000
0010
0000
0110
0000
0100
0000
,  // measure 22
0010
0010
1000
0010
0010
0100
0001
0001
,  // measure 23
0010
0000
0001
1000
0001
0000
1000
0000
0100
0000
0001
0000
0100
0000
1000
0000
,  // measure 24
0010
0000
0010
0000
0000
0000
1000
0000
0001
0000
1000
0010
1000
0000
0001
0000
,  // measure 25
0100
0001
0100
0010
0000
1000
0010
1000
,  // measure 26
0000
0001
0100
0001
0000
1000
0100
0001
,  // measure 27
0100
0010
0100
0000
1100
0000
1000
0000
,  // measure 28
1001
0001
0101
0100
,  // measure 29
0100
0010
1000
0010
0000
0100
0001
0000
,  // measure 30
0001
1000
0000
1000
0100
0010
0001
1000
,  // measure 31
0100
1000
0010
0100
0000
0001
0100
1000
,  // measure 32
0001
0000
0010
0000
0100
0000
0010
0000
1000
0000
0010
0000
0100
0001
0100
0001
,  // measure 33
0100
0000
0001
0000
1000
0000
0001
0000
0100
0000
0010
0000
0100
0010
0000
0010
,  // measure 34
0100
0000
0010
1000
0001
1000
0100
0000
,  // measure 35
1000
0000
0010
0000
1000
0100
0000
0100
1000
0000
0010
0000
0100
0000
0001
0000
,  // measure 36
0010
0000
0001
0010
1000
0010
0001
0100
,  // measure 37
0001
0000
1000
0000
0010
0000
1000
0000
0100
0000
1000
0000
0010
1000
0000
1000
,  // measure 38
0010
0000
1000
0100
0010
0001
0100
0000
,  // measure 39
0001
0000
1000
0000
0010
0000
0100
0000
0001
0000
0010
0000
0001
0010
0000
0010
,  // measure 40
0001
0000
0100
0000
0010
0000
1000
0000
0100
1000
0100
1000
0100
0000
1000
0000
,  // measure 41
1002
0000
1003
1020
0000
1030
0001
0001
,  // measure 42
0021
0000
0031
2001
0000
0000
3100
1000
,  // measure 43
1001
1000
0100
0010
0000
0010
0001
1000
,  // measure 44
1200
0000
0000
2300
0000
0000
3020
0000
,  // measure 45
1030
0000
1100
0000
1001
0000
1010
0000
0000
0110
0000
0000
,  // measure 46
0101
0000
0011
0000
1001
0000
0110
0000
0000
0010
1000
0010
,  // measure 47
0110
0000
0101
0000
1001
0000
1010
0000
0110
0000
1001
0000
,  // measure 48
0110
0000
1100
0000
0101
0000
0110
0000
0011
0000
1010
0000
,  // measure 49
0011
0000
0001
0100
0001
0000
0100
0001
0100
0000
0001
0100
0001
0000
1000
0000
,  // measure 50
2002
0000
0000
3003
,  // measure 51
1010
0110
0101
1001
,  // measure 52
1000
0100
0001
0100
1000
0010
0100
0001
,  // measure 53
0010
0000
0010
0001
0000
0001
0100
0000
,  // measure 54
0101
0000
0001
1000
0000
1000
0010
0000
,  // measure 55
1100
0000
1000
1001
0000
0001
0100
0100
,  // measure 56
0101
0011
1001
1100
,  // measure 57
2001
0000
0000
3001
0200
0000
0000
0310
,  // measure 58
1000
1100
1000
1001
,  // measure 59
0001
0100
1000
0100
0001
0001
0001
0000
,  // measure 60
1000
0100
0010
0001
1000
1000
1000
0000
,  // measure 61
0001
1000
0010
0100
0010
0010
0010
0000
,  // measure 62
1000
0100
0001
1000
0010
0100
1000
0001
,  // measure 63
0011
0001
0101
0100
,  // measure 64
0110
0100
0110
0000
1010
0000
1000
0000
,  // measure 65
1001
0000
1000
0100
0001
0000
0001
0100
,  // measure 66
1000
0000
1000
0100
0010
0100
1000
0000
,  // measure 67
1002
0000
0000
1003
0100
1000
1000
0000
,  // measure 68
2001
0000
3001
0201
0000
0310
0110
0000
,  // measure 69
1010
1000
0001
0101
0100
0010
1010
1000
,  // measure 70
2002
0000
0000
0000
,  // measure 71
0000
0000
0000
0000
,  // measure 72
3003
0000
0000
0000
;

//---------------dance-double - ----------------
#NOTEDATA:;
#CHARTNAME:;
#CHARTHASH:1224445260;
#STEPSTYPE:dance-double;
#BANNER:;
#DESCRIPTION:;
#CHARTSTYLE:;
#DIFFICULTY:Easy;
#METER:6;
#METERF:0.000000;
#LASTSECONDHINT:97.631409;
#RADARVALUES:0.296531,0.491252,0.306415,0.118612,0.000000,210.000000,179.000000,31.000000,12.000000,0.000000,0.000000,0.000000,0.000000,0.000000,0.296531,0.491252,0.306415,0.118612,0.000000,210.000000,179.000000,31.000000,12.000000,0.000000,0.000000,0.000000,0.000000,0.000000;
#CREDIT:;
#DISPLAYBPM:177.000000;
#NOTES:
00000000
00000000
00000000
00000000
,
00000000
00000000
00000000
00000000
,
00000000
00000000
00000000
00000000
,
00000000
00000000
00000000
00000000
,
00000000
00000000
00000000
00000000
,
00000000
00000000
00000000
00000000
,
00000000
00000000
00000000
00000000
,
00000000
00000000
00000000
00000000
,
10000000
10000000
10000000
00000000
,
00010000
00000000
00010000
00000000
,
00100000
00100000
00100000
00000000
,
00001000
00000000
00001000
00011000
,
00010000
00010000
00010000
00000000
,
00000010
00000000
00000010
00000000
,
00000100
00000100
00000100
00000000
,
00000001
00000000
00000001
00001001
,
00001000
00001000
00001000
00000000
,
00000100
00000000
00000100
00000000
,
00010000
00010000
00010000
00000000
,
00001000
00000000
00001000
00011000
,
00010000
00010000
00010000
00000000
,
00001000
00000000
00001000
00000000
,
00100000
00100000
00100000
00000000
,
00010000
00000000
00010000
10010000
,
02200000
00000000
00000000
03300000
,
00100000
10000000
00100000
01000000
,
00010000
00100000
00001000
00000000
,
00010000
00000000
00010000
00000000
,
00000100
00000000
00000100
00000000
,
00001000
00000010
00000001
00000010
,
00001000
00000100
00001000
00000000
,
00000100
00000000
00000100
00000000
,
00022000
00000000
00000000
00033000
,
00001000
00001000
00010000
00010000
,
00001000
00100000
00010000
10000000
,
11000000
01000000
11000000
10000000
,
10100000
00100000
01100000
01000000
,
01010000
00010000
00100000
00100000
,
00001000
00010000
00000100
00001000
,
00001010
00000010
00000110
00000100
,
00000101
00000001
00001001
00001000
,
00001100
00000000
00000000
00001100
00000000
00000000
00000000
00000000
,
00011000
00000000
00000000
00011000
00000000
00000000
00000000
00000000
,
00101000
00000000
00000000
00101000
00000000
00000000
00000000
00000000
,
10010000
00000000
00000000
10010000
00000000
00000000
00010000
00000000
,
02000000
00000000
03000000
00000000
,
00020000
00000000
00030000
00000000
,
00200000
00000000
00302000
00030000
,
00023000
00000000
00030200
00000000
,
00001300
00001000
00001000
00001000
,
00001001
00000110
00001001
00000010
,
00001000
00000000
00001000
00000000
,
00000100
00000100
00010000
00010000
,
00001000
00000000
00001000
00000000
,
00100000
00000000
00100000
00000000
,
00010000
00010000
10000000
10000000
,
01000000
00000000
01000000
00000000
,
10000000
00000000
10000000
00000000
,
00100000
00000000
00100000
00000000
,
01000000
01000000
00010000
00010000
,
00100000
00100000
00001000
00001000
,
00010000
00010000
00000010
00000010
,
00000100
00000100
00000001
00000001
,
00000010
00000011
00000001
00001001
,
00001000
00001100
00000100
00010100
,
00010000
00000000
00001000
00000000
,
00100000
00000000
00010000
00000000
,
10000000
00000000
00000000
00100000
00000000
00000000
10000000
00000000
,
00010000
00000000
00000000
00100000
00000000
00000000
00001000
00000000
,
00100000
00000000
00000000
00010000
00000000
00000000
00100000
00000000
,
00202000
00000000
00000000
00000000
,
00303000
00000000
00000000
00000000
;

//---------------dance-double - ----------------
#NOTEDATA:;
#CHARTNAME:;
#CHARTHASH:2147483647;
#STEPSTYPE:dance-double;
#BANNER:;
#DESCRIPTION:;
#CHARTSTYLE:;
#DIFFICULTY:Medium;
#METER:10;
#METERF:0.000000;
#LASTSECONDHINT:97.631409;
#RADARVALUES:0.498454,0.561431,0.425027,0.039537,0.138381,353.000000,310.000000,43.000000,4.000000,0.000000,0.000000,0.000000,0.000000,0.000000,0.498454,0.561431,0.425027,0.039537,0.138381,353.000000,310.000000,43.000000,4.000000,0.000000,0.000000,0.000000,0.000000,0.000000;
#CREDIT:;
#DISPLAYBPM:177.000000;
#NOTES:
00000000
00000000
00000000
00000000
,
00000000
00000000
00000000
00000000
,
00000000
00000000
00000000
00000000
,
00000000
00000000
00000000
00000000
,
00000000
00000000
00000000
00000000
,
00000000
00000000
00000000
00000000
,
00000000
00000000
00000000
00000000
,
00000000
00000000
00000000
00000000
,
10000000
00000000
00100000
00000000
10000000
00000000
00010000
01000000
,
00010000
00000000
00100000
00000000
00010000
00000000
00100000
00000000
00001000
00000000
00100000
00000000
,
00001000
00000000
00010000
00000000
00000100
00010000
00000100
00010000
,
00000010
00000100
00000100
00000101
,
00000001
00000000
00001000
00000000
00000001
00000000
00001000
00000100
,
00001000
00000000
00000100
00000000
00010000
00000000
00000100
00000000
00010000
00000000
00001000
00000000
,
00100000
00000000
00010000
00000000
00100000
00010000
00100000
00010000
,
10000000
00000000
00100000
01000000
00100000
00000000
10010000
00000000
,
10000000
00000000
00100000
00000000
10000000
00000000
00010000
01000000
,
00001000
00000000
00010000
00000000
00001000
00000000
00010000
00000000
00000100
00000000
00010000
00000000
,
00000100
00000000
00001000
00000000
00000010
00001000
00000100
00000001
,
00000100
00001000
00000100
00011000
,
00001000
00000000
00100000
00000000
00010000
00000000
10000000
00010000
,
10000000
00000000
00100000
00000000
10000000
00000000
00100000
00000000
01000000
00000000
00010000
00000000
,
01000000
00000000
00010000
01000000
00000000
01000000
00001000
00000000
,
00011000
00000000
00010000
00000100
00010000
00000000
00010010
00000000
,
00000010
00000010
00000000
00000100
00000100
00000000
00000001
00001000
,
00000001
00000010
00000001
00000100
,
00000010
00001000
00000100
00010000
00001000
00010000
00001000
00000000
,
00101000
00100000
00110000
00010000
,
10010000
10000000
11000000
01000000
,
10000000
00100000
10000000
00010000
,
01000000
00010000
00000000
00010000
01000000
00000000
00001000
00000000
,
00100000
00000000
00000000
00010000
00000000
01000000
00010000
00100000
,
00001000
00010000
00021000
00000000
,
00030100
00010000
00001000
00010000
,
00000010
00000000
00000100
00000010
00000001
00000010
00000100
00000000
,
00001100
00000100
00010100
00010000
,
00011000
00001000
01001000
01000000
,
01100000
00100000
10000000
00100000
,
10000000
00000000
01000000
10000000
01000000
00010000
01000000
10000000
,
00010000
00000000
00100000
00010000
00000000
00010000
00100000
00000000
,
00101000
00000000
00001000
00010000
00000010
00000000
00000110
00000000
,
00000101
00000000
00000001
00000010
00000000
00000001
00000001
00000000
,
00001000
00000010
00000100
00000001
00000000
00000000
00001000
00000000
,
00001010
00000000
00000010
00010000
00000000
00001000
00001000
00100000
,
00110000
00000000
00000000
10010000
00000000
00000000
10100000
00000000
,
00100000
00000000
00100000
00000000
00100000
00000000
00100000
00000000
00000000
01001000
00000000
00000000
,
00010000
00000000
00010000
00000000
00010000
00000000
00010000
00000000
00000000
00010010
00000000
00000000
,
00000100
00000000
00000010
00000000
00000100
00000000
00000001
00000000
00000010
00000000
00000001
00000000
,
00001000
00000000
00000100
00000000
00010000
00000000
00001000
00000000
00100000
00000000
00010000
00000000
,
10000000
01000000
00010000
01000000
00100000
00010000
00100000
00001000
,
00012000
00000000
00000000
00013000
00000000
00010000
00000010
00000100
,
00000110
00000010
00001010
00001000
,
00001100
00000100
00010100
00010000
,
00011000
00000000
00001000
00100000
00000000
00100000
00001000
00000000
,
01001000
00000000
01000000
00100000
00000000
00100000
01000000
00000000
,
01100000
00000000
00100000
00100000
00000000
10000000
00100000
01000000
,
00010000
00110000
00100000
00101000
,
00011000
00000000
00000000
00010000
00000100
00000000
00000000
00000100
,
00001000
00000000
00000000
00001000
00000001
00000000
00000000
00000001
,
00000010
00000100
00000010
00000000
00000100
00001000
00000100
00000000
,
00000100
00000001
00000100
00000000
00001000
00000100
00010000
00000000
,
00010000
00001000
00010000
00000000
00001000
00010000
00001000
00000000
,
00001000
00100000
00010000
00000000
00010000
10000000
00010000
00000000
,
10000000
10100000
00100000
01100000
,
01000000
00010000
00100000
00000000
00101000
00000000
00001000
00000000
,
00011000
00010000
00000100
00001000
,
00000010
00000001
00000010
00001000
,
00000100
00000000
00000000
00010000
00000000
00001000
00100000
00000000
,
00010000
00000000
00000000
10000000
00000000
00100000
10000000
00010000
,
01010000
00000000
00000000
00110000
00000000
00000000
00101000
00000000
,
00022000
00000000
00000000
00000000
,
00033000
00000000
00000000
00000000
;

//---------------dance-double - ----------------
#NOTEDATA:;
#CHARTNAME:;
#CHARTHASH:2147483647;
#STEPSTYPE:dance-double;
#BANNER:;
#DESCRIPTION:;
#CHARTSTYLE:;
#DIFFICULTY:Hard;
#METER:14;
#METERF:0.000000;
#LASTSECONDHINT:97.631409;
#RADARVALUES:0.652367,0.912326,0.504102,0.069190,0.281704,462.000000,411.000000,51.000000,7.000000,0.000000,0.000000,0.000000,0.000000,0.000000,0.652367,0.912326,0.504102,0.069190,0.281704,462.000000,411.000000,51.000000,7.000000,0.000000,0.000000,0.000000,0.000000,0.000000;
#CREDIT:;
#DISPLAYBPM:177.000000;
#NOTES:
00000000
00000000
00000000
00000000
,
00000000
00000000
00000000
00000000
,
00000000
00000000
00000000
00000000
,
00000000
00000000
00000000
00000000
,
00000000
00000000
00000000
00000000
,
00000000
00000000
00000000
00000000
,
00000000
00000000
00000000
00000000
,
00000000
00000000
00000000
00000000
,
10000000
00000000
01000000
00100000
00000000
00010000
01000000
00001000
,
00010000
00000000
00001000
00000000
00001000
00000000
00010000
00000000
00000100
00000000
00000100
00000000
,
00001000
00000000
00000010
00000100
00000000
00000010
00001000
00000100
,
00010100
00000000
00000000
00000000
00011000
00000000
00000000
00000000
10010000
00000000
10000000
01000000
00100000
00000000
01000000
00000000
,
10000000
00000000
10000000
00010000
00000000
00100000
00010000
00100000
,
00001000
00000000
00010000
00000000
00010000
00000000
00001000
00000000
00100000
00000000
00100000
00000000
,
00010000
00000000
01000000
00010000
00000000
00010000
10000000
01000000
,
11000000
00000000
00000000
00000000
00100000
00000000
10000000
00000000
00100000
00000000
01000000
00010000
01000000
00000000
00010000
00000000
,
00100000
00000000
00100000
00001000
00000000
00001000
00010000
00000100
,
00000010
00000000
00000001
00000000
00000001
00000000
00000100
00000000
00000010
00000000
00000010
00000000
,
00001000
00000000
00000100
00010000
00000000
00001000
00100000
00010000
,
01010000
00000000
00000000
00000000
01100000
00000000
00000000
00000000
10100000
00000000
10000000
00100000
00010000
00000000
00100000
00000000
,
10000000
00000000
10000000
01000000
00000000
10000000
00010000
01000000
,
00001000
00000000
00100000
00000000
00100000
00000000
00010000
00000000
01000000
00000000
01000000
00000000
,
00001000
00001000
00100000
00010000
00010000
00100000
00001000
00001000
,
00011000
00000000
00000000
00000000
00010000
00000000
00001000
00000000
00010000
00000000
00001000
00010000
00000100
00000000
00001000
00000000
,
00001010
00000000
00001000
00000000
00000000
00000000
00000010
00000000
00000100
00000000
00000001
00000100
00000001
00000100
00000001
00000100
,
00000010
00001000
00000100
00010000
00000000
00001000
00010000
00001000
,
00000000
00100000
00010000
01000000
00010000
10000000
01000000
00000000
,
11000000
10000000
10100000
00100000
,
01100000
01000000
01001000
00001000
,
00001000
00010000
00001000
00100000
00000000
00010000
00100000
00010000
,
01000000
00010000
00000000
00010000
00100000
00001000
00010000
00000000
,
00010000
00000100
00001000
00000010
00000000
00000010
00000100
00000001
,
00001000
00000000
00001000
00000000
00000000
00000000
00000001
00000000
00000001
00000000
00001000
00000010
00001000
00000010
00001000
00000010
,
00010000
00000000
00001000
00010000
01000000
10000000
01000000
10000000
,
00010000
00000000
00010000
00100000
00001000
00100000
00001000
00010000
,
00000100
00000000
00001000
00000010
00000000
00000010
00000100
00000001
,
00001000
00000000
00000100
00010000
00001000
00100000
00010000
00100000
,
00001000
00000000
00010000
00000010
00000100
00000010
00001000
00000100
,
00010000
00010000
00001000
00100000
00010000
10000000
01000000
00000000
,
01000000
01000000
10000000
00100000
00100000
10000000
00010000
00010000
,
01000000
00000000
00000000
00000000
00010000
00000000
10000000
00000000
00100000
00000000
01000000
00010000
01000000
00010000
01000000
00010000
,
00100000
00100000
00010000
00100000
00000000
00100000
00101000
00000000
,
00001000
00000000
00001000
00000000
00010000
00000000
00000100
00000000
00000000
00000000
00001000
00000000
00000010
00001000
00000010
00000000
,
00000100
00000100
00000001
00001000
00000000
00001000
00000100
00010000
,
00011000
00000000
00000000
00000000
00100000
00000000
00110000
00000000
00000000
00000000
00010000
00000000
10000000
00010000
10000000
00010000
,
10000000
00000000
10100000
00000000
01100000
00000000
01010000
00000000
00000000
00010000
00000000
00000000
,
00110000
00000000
00101000
00000000
00011000
00000000
00010010
00000000
00000000
00000010
00001000
00000001
,
00000101
00000000
00001001
00000000
00001100
00000000
00001010
00000000
00010010
00000000
00011000
00000000
,
00101000
00000000
00011000
00000000
01001000
00000000
01100000
00000000
10100000
00000000
10010000
00000000
,
10000000
00000000
00100000
10000000
00100000
00000000
10000000
00000000
00010000
00000000
01000000
00010000
01000000
00000000
00001000
00000000
,
00021000
00000000
00000000
00000000
00000000
00000000
00000000
00000000
00000000
00000000
00031000
00010000
00001000
00000000
00000000
00000000
00000000
00000000
00010000
00000000
00000000
00001000
00000000
00000000
,
00000011
00001001
00001100
00010100
,
00010000
00001000
00010000
00000000
00001000
00100000
00001000
00000000
,
00110000
00000000
00010000
10000000
00000000
10000000
01000000
00000000
,
11000000
00000000
00000000
00000000
10000000
00000000
00100000
00000000
00000000
00000000
00100000
00000000
01000000
00100000
01000000
00100000
,
20000000
00000000
00100000
00100000
00000000
01000000
31000000
00000000
,
01000000
10000000
00100000
01000000
00001000
00010000
00001000
00010000
,
00000020
00000000
00000000
00000100
00000100
00000000
00000000
00000001
,
00000001
00000000
00000000
00000000
00000000
00000000
00001000
00000000
00001030
00000000
00000010
00000000
00010000
00001000
00010000
00001000
,
00100000
00010000
01000000
00100000
10000000
10000000
10000000
00000000
,
00100000
10000000
01000000
00100000
00010000
00010000
00010000
00000000
,
01000000
00010000
00100000
00001000
00010000
00010000
00010000
00000000
,
00010000
00000010
00000100
00000010
00001000
00001000
00001000
00000000
,
00001100
00000100
00010100
00010000
,
00011000
00001000
00011000
00000000
00101000
00000000
00100000
00000000
,
00110000
00010000
10000000
01000000
,
10000000
00000000
00100000
00000000
01000000
00000000
00010000
00000000
10000000
00000000
00010000
00100000
00010000
00100000
00010000
00100000
,
00002000
00000000
00000000
00010000
00013000
00001000
00000010
00000001
,
00000200
00000000
00000010
00000310
00000000
00000010
00001000
00000000
,
00001100
00000100
00000000
00010000
00010100
00000000
00001000
00100000
,
00220000
00000000
00000000
00000000
,
00330000
00000000
00000000
00000000
;
