#VERSION:0.83;
#TITLE:Blueberry Stream;
#SUBTITLE:;
#ARTIST:dj TAKA;
#TITLETRANSLIT:;
#SUBTITLETRANSLIT:;
#ARTISTTRANSLIT:;
#GENRE:;
#ORIGIN:;
#TAGS:;
#CREDIT:;
#BANNER:Blueberry Stream.png;
#BACKGROUND:Blueberry Stream-bg.png;
#PREVIEWVID:;
#JACKET:Blueberry Stream-jacket.png;
#CDIMAGE:;
#DISCIMAGE:;
#LYRICSPATH:;
#CDTITLE:Beatmania IIDX.png;
#MUSIC:Blueberry Stream.ogg;
#OFFSET:-0.100000;
#SAMPLESTART:13.950000;
#SAMPLELENGTH:15.000000;
#SELECTABLE:YES;
#BPMS:0.000000=138.000000
;
#STOPS:;
#DELAYS:;
#WARPS:;
#TIMESIGNATURES:0.000000=4=4
;
#TICKCOUNTS:0.000000=4
;
#COMBOS:0.000000=1
;
#SPEEDS:0.000000=1.000000=0.000000=0
;
#SCROLLS:0.000000=1.000000
;
#LABELS:0.000000=Song Start
;
#BGCHANGES:-5.000=Blueberry Stream.mp4=1.000=1=0=0=StretchNoLoop==CrossFade==,
236.000=Blueberry Stream-bg.png=1.000=1=0=1===CrossFade==,
99999.000=-nosongbg-=1.000=0=0=0=StretchNoLoop====,
99999=-nosongbg-=1.000=0=0=0 // don't automatically add -songbackground-
;
#KEYSOUNDS:;
#ATTACKS:
;

//---------------dance-single - ----------------
#NOTEDATA:;
#CHARTNAME:;
#CHARTHASH:1979935810;
#STEPSTYPE:dance-single;
#BANNER:;
#DESCRIPTION:;
#CHARTSTYLE:;
#DIFFICULTY:Beginner;
#METER:2;
#METERF:0.000000;
#LASTSECONDHINT:102.708694;
#RADARVALUES:0.000000,0.000000,0.000000,0.000000,0.000000,0.000000,0.000000,0.000000,0.000000,0.000000,0.000000,0.000000,0.000000,0.000000,0.000000,0.000000,0.000000,0.000000,0.000000,0.000000,0.000000,0.000000,0.000000,0.000000,0.000000,0.000000,0.000000,0.000000;
#CREDIT:;
#NOTES:
0000
0000
0000
0000
,
0000
0000
0000
0000
,
0000
0000
0000
0000
,
0000
0000
0000
0000
,
0010
0000
0000
0000
,
0010
0000
0000
0000
,
0100
0000
0000
0000
,
0100
0000
0000
0000
,
0001
0000
0000
0000
,
0001
0000
0000
0000
,
1000
0000
0000
0000
,
1000
0000
0000
0000
,
0100
0100
0000
0000
,
0100
0100
0000
0000
,
0010
0010
0000
0000
,
0010
0010
0000
0000
,
0001
0000
0000
0000
,
1000
0000
0000
0000
,
0001
0000
0000
0000
,
1000
0000
0000
0000
,
0000
1001
0000
0100
,
0000
0100
0000
0100
,
0100
0000
0000
1000
,
1000
0000
0000
0001
,
0001
0000
0000
0000
,
1000
0000
0000
0000
,
0010
0000
0000
0000
,
0100
0000
0000
0000
,
0001
0000
0001
0000
,
0001
0000
0000
0000
,
1000
0000
1000
0000
,
1000
0000
0000
0000
,
0010
0000
0000
0000
,
0100
0000
0000
0000
,
0001
0000
0000
0000
,
0010
0000
0000
0000
,
1001
0000
0000
0000
,
1001
0000
0000
0000
,
1001
0000
0000
0000
,
0000
0000
0000
0000
,
0100
0000
0100
0000
,
0010
0010
0010
0000
,
0010
0000
0010
0000
,
1001
0000
0000
0000
,
1000
0000
0000
0000
,
0001
0000
0000
0000
,
1000
0000
0000
0000
,
0001
0000
0000
0000
,
1000
0000
1000
0000
,
0001
0001
0001
0000
,
0010
0000
0010
0000
,
1001
0000
0000
0000
,
0000
0110
0000
0010
,
0000
0010
1000
1000
,
1000
0000
0001
0000
,
1000
0000
0000
0000
,
2002
0000
0000
0000
,
0000
0000
0000
0000
,
0000
0000
0000
0000
,
3003
0000
0000
0000
;

//---------------dance-single - ----------------
#NOTEDATA:;
#CHARTNAME:;
#CHARTHASH:4062798361;
#STEPSTYPE:dance-single;
#BANNER:;
#DESCRIPTION:;
#CHARTSTYLE:;
#DIFFICULTY:Easy;
#METER:5;
#METERF:0.000000;
#LASTSECONDHINT:102.708694;
#RADARVALUES:0.000000,0.000000,0.000000,0.000000,0.000000,0.000000,0.000000,0.000000,0.000000,0.000000,0.000000,0.000000,0.000000,0.000000,0.000000,0.000000,0.000000,0.000000,0.000000,0.000000,0.000000,0.000000,0.000000,0.000000,0.000000,0.000000,0.000000,0.000000;
#CREDIT:;
#NOTES:
0000
0000
0000
0000
,
0000
0000
0000
0000
,
0000
0000
0000
0000
,
0000
0000
0000
0000
,
1000
0010
1000
0100
,
1000
0100
0001
0100
,
1000
0010
0100
0001
,
0011
0000
1001
0010
,
0210
0010
0010
0320
,
2030
0000
3002
0000
,
2003
0100
0100
3100
,
2002
0000
0000
3003
,
0001
0011
1000
0001
,
1000
1100
0001
1000
,
0100
1000
0010
0100
,
0102
1000
2003
0010
,
3020
0100
0100
0100
,
0230
0001
0302
1000
,
2003
0010
0010
3010
,
0220
0000
0000
0330
,
0010
1001
0000
0100
,
0010
1000
0100
0010
,
0001
1000
0001
1000
,
2200
0000
0000
3300
,
2000
0000
0000
0000
,
3020
0000
0000
0000
,
0230
0000
0000
0000
,
0302
0000
0000
0000
,
0013
0001
2001
0010
,
3100
1000
0010
0100
,
0001
0010
1002
0010
,
0203
0000
0320
0000
,
1030
1000
0010
0100
,
0001
0001
1000
0001
,
0010
0010
0001
0100
,
0010
0010
1000
0010
,
2001
0000
3200
0300
,
1002
0000
0023
0030
,
0001
0100
0010
1000
,
0001
0001
1000
1000
,
0020
0000
0100
0100
,
0230
0000
0302
0000
,
2003
0000
0001
3001
,
2002
0000
0000
3003
,
0020
1000
0000
1000
,
2030
0100
0000
0010
,
3020
1000
0000
0130
,
2002
0000
0000
3003
,
0001
1000
0010
1000
,
0200
0000
2300
0000
,
3010
1000
0001
0100
,
2002
0000
0000
3003
,
0010
1001
1000
0100
,
1000
0010
0100
0001
,
0010
0001
1000
0010
,
0001
0010
1000
0100
,
2002
0000
0000
0000
,
0000
0000
0000
0000
,
0000
0000
0000
0000
,
3003
0000
0000
0000
;

//---------------dance-single - ----------------
#NOTEDATA:;
#CHARTNAME:;
#CHARTHASH:1872652919;
#STEPSTYPE:dance-single;
#BANNER:;
#DESCRIPTION:;
#CHARTSTYLE:;
#DIFFICULTY:Medium;
#METER:8;
#METERF:0.000000;
#LASTSECONDHINT:102.708694;
#RADARVALUES:0.000000,0.000000,0.000000,0.000000,0.000000,0.000000,0.000000,0.000000,0.000000,0.000000,0.000000,0.000000,0.000000,0.000000,0.000000,0.000000,0.000000,0.000000,0.000000,0.000000,0.000000,0.000000,0.000000,0.000000,0.000000,0.000000,0.000000,0.000000;
#CREDIT:;
#NOTES:
0000
0000
0000
0000
,
0000
0000
0000
0000
,
0000
0000
0000
0000
,
0000
0000
0000
0000
,
0010
0000
0100
0000
1000
0000
0100
0010
,
0001
0000
0010
0000
0001
0000
1000
0001
,
0100
0000
0010
0000
1000
0000
0001
1000
,
0100
0100
1000
0010
0010
0100
0001
0000
,
1002
0000
1000
0000
0010
0000
1003
0001
,
0021
0000
0001
0000
0100
0000
0031
0010
,
0100
0000
1000
0000
0100
0000
1000
0010
,
0100
0000
0010
1000
0100
0010
0001
1000
,
2100
0000
0010
0000
0100
0000
3010
1000
,
1002
0000
0100
0000
0010
0000
0103
0001
,
1001
0000
0010
0000
0100
0000
0010
1000
,
0100
0010
0001
1000
0100
1000
0001
0010
,
0002
0000
1000
0000
0013
1000
0010
0001
,
0200
0010
0302
1000
,
0203
0000
0010
0000
0301
0100
1000
0100
,
0020
1000
1000
1000
,
1030
1001
0020
0130
,
1000
0100
0001
0100
1000
0010
1000
0100
,
1000
0000
0101
0000
0001
1000
0010
0100
,
0102
0000
0000
0000
1003
1000
1000
0010
,
2000
0100
0000
0100
,
3200
0010
0000
0010
,
0320
0001
0000
0001
,
0032
2003
3020
0230
,
0301
0000
0100
0010
2000
0000
0001
0000
,
3010
0000
1000
0010
0001
0000
0010
1000
,
0002
0000
0100
0000
0010
0000
0103
0001
,
1000
0100
0100
0100
1000
0010
0010
0010
,
0100
0000
0001
0000
0100
0000
0001
0100
,
1000
0100
0001
0010
,
0001
0000
1000
0000
0010
0000
1000
0010
,
0001
0010
1000
0100
,
0020
0000
0032
1000
,
0203
0000
0010
0001
,
0320
1000
0230
0001
,
0310
0100
1000
0100
0010
1000
0010
0100
,
0120
0000
1000
0000
0100
0000
1030
0010
,
0200
0000
0001
0000
0010
0000
0301
1000
,
0020
0000
1000
0000
0001
0000
1030
0010
,
0200
0000
0302
0000
0023
0000
0031
1000
,
0020
0000
1000
0000
1030
0010
0001
0010
,
2000
0000
0100
0000
3100
1000
0100
0001
,
0200
1000
2300
0010
,
3020
0100
0100
0130
,
2001
0000
0001
0000
0010
0000
3001
1000
,
0200
0000
1000
0000
0010
0000
1300
0100
,
0001
0000
0100
0000
1000
0100
0010
0001
,
2000
0001
0001
0001
,
3001
0101
0002
1003
,
1000
0010
0100
0001
0010
0100
1000
0001
,
2000
0000
0010
0000
3100
0000
1000
0100
,
0001
0001
0100
1000
1000
0010
0100
0001
,
2002
0000
0000
0000
,
0000
0000
0000
0000
,
0000
0000
0000
0000
,
3003
0000
0000
0000
;

//---------------dance-single - ----------------
#NOTEDATA:;
#CHARTNAME:;
#CHARTHASH:224856075;
#STEPSTYPE:dance-single;
#BANNER:;
#DESCRIPTION:;
#CHARTSTYLE:;
#DIFFICULTY:Hard;
#METER:13;
#METERF:13.000000;
#LASTSECONDHINT:102.708694;
#RADARVALUES:0.000000,0.000000,0.000000,0.000000,0.000000,0.000000,0.000000,0.000000,0.000000,0.000000,0.000000,0.000000,0.000000,0.000000,0.000000,0.000000,0.000000,0.000000,0.000000,0.000000,0.000000,0.000000,0.000000,0.000000,0.000000,0.000000,0.000000,0.000000;
#CREDIT:;
#NOTES:
0000
0000
0000
0000
,
0000
0000
0000
0000
,
0000
0000
0000
0000
,
0000
0000
0000
0000
,
1000
0000
0000
0001
0000
0000
0100
0000
0000
0010
0000
0000
1000
0000
0010
0000
,
0100
0000
0000
0010
0000
0000
0100
0000
0000
1000
0000
0000
0100
0000
0001
0000
,
1000
0000
0000
0100
0000
0000
0001
0000
0000
0100
0000
0000
1000
0000
0010
0000
,
1000
0000
0000
0001
0000
1000
0010
0000
0000
1000
0000
0000
0001
0000
0100
0001
0000
0000
0010
0000
0010
0000
0000
0000
,
1002
0000
0000
1000
0000
0000
0100
0000
0000
1000
0000
0000
0103
0000
0001
0000
,
2000
0000
0000
0010
0000
0000
0100
0000
0000
0010
0000
0000
3010
0000
1000
0000
,
1200
0000
0000
1000
0000
0000
0010
0000
0000
1000
0000
0000
0310
0000
0001
0000
,
1000
0000
0001
0000
0010
0000
0000
0000
0001
0000
0000
1000
0010
0000
1000
0000
,
0002
0000
0000
0000
0203
0000
0000
0320
0000
1000
0000
1030
0000
0000
0000
0000
,
2000
0000
0000
0000
3002
0000
0000
0100
0000
0103
0000
0000
0001
0000
1000
0000
,
0100
0000
1000
0000
0010
0000
0000
0100
0000
0000
0010
0000
1000
0000
0100
0000
,
0010
0000
0001
1000
0000
0100
0000
1000
0001
1000
0000
0001
0100
0000
0001
0000
,
2001
0000
0000
0001
0000
0000
0010
0000
0000
0001
0000
0000
3001
0000
1000
0000
,
0020
0000
0000
1000
0000
0000
0100
0000
0000
1000
0000
0000
1030
0000
0010
0000
,
0210
0000
0000
0001
0000
0000
0010
0000
0000
0001
0000
0000
0301
0000
1000
0000
,
0100
0000
1000
0000
0001
0000
0000
0000
0100
0000
0010
1000
0010
0000
1000
0000
,
0001
0000
0000
0000
1010
0000
0000
0000
1000
0200
0000
0000
1300
0000
0010
0000
,
0100
0000
0000
0000
0001
0010
0000
0001
1000
0001
0000
1000
0010
1000
0000
0001
,
0100
0010
1000
0010
0100
0000
0001
0100
,
0220
0000
0000
0000
0000
0000
0030
0000
0000
0000
0000
0000
0310
0000
1000
0001
0000
1000
0001
0000
0000
0100
0000
0000
,
2001
0000
3020
0000
0230
0000
0000
0001
,
0302
0010
0203
1000
,
0320
2030
3200
2300
,
3002
0000
0000
0100
0203
0000
0000
0010
,
0310
0000
0000
0000
1000
0000
0010
0000
0100
0010
0000
0000
0010
0000
1000
0000
,
0001
0000
0001
0100
0000
0000
0010
0000
1000
0000
1000
0000
1000
0010
0000
0000
,
1000
0000
0001
1000
0000
0000
0100
0000
1000
0000
0010
0000
0100
0001
0000
1000
,
0001
0001
0001
0001
1000
1000
1000
1000
,
0020
0000
0000
0000
1000
0000
0000
1030
0010
0000
0000
0000
0100
0000
0001
0000
,
2000
0000
0000
0000
0000
0000
0001
0000
0000
0000
0000
0000
3010
0000
0000
1000
0000
0001
0000
0000
0001
0010
0000
0000
,
0002
0000
0000
0000
0000
0000
0100
0000
0000
0000
0000
0000
0013
0000
0000
0001
0000
1000
0000
0000
0100
1000
0000
0000
,
0200
0000
0000
0000
0000
0000
1000
0000
0000
0000
0000
0000
0310
0000
0000
1000
0000
1000
0000
0000
0100
0000
0000
1000
,
0020
0000
0000
0000
0000
0000
0000
0100
0230
0000
0000
0000
0301
0000
0000
0000
,
2001
0000
0000
0000
0000
0000
0000
0010
3020
0000
0000
0000
0130
0000
0000
0000
,
1001
0001
1000
0100
0001
0100
1000
0010
,
0100
0000
0000
0010
0000
1000
0010
0000
1000
0010
0000
0000
0100
0000
0000
0001
0000
0000
0010
0000
0000
0001
0000
0000
,
1002
0000
0000
1000
0000
0000
0100
0000
0000
0013
0000
0001
0100
0000
0100
0000
,
0020
0000
1030
0010
0200
0000
0301
0100
,
0020
0000
0000
1000
0000
0000
0100
0000
0000
1030
0000
1000
0001
0000
0100
0000
,
0210
0000
1000
0000
0001
0301
1000
0010
,
0200
0000
0000
0000
0320
0000
0000
2030
0000
0001
0000
3001
0000
0000
0010
0000
,
0002
0000
0000
0000
0203
0000
0000
0010
0000
0310
0000
0000
0010
0000
1000
0000
,
0001
0000
1000
0000
0100
1000
0000
0100
0000
1000
0000
0010
1000
0000
0100
0000
,
1000
0010
0000
1000
0000
0001
0000
0100
0001
0100
0000
0001
0010
0000
0001
0000
,
2001
0000
0000
0001
0000
0000
0100
0000
0000
3001
0000
1000
0001
0000
0001
0000
,
0200
0000
0301
0100
0020
0000
0130
0010
,
2000
0000
0000
0001
0000
0000
0010
0000
0000
0100
0000
3100
1000
0000
0001
0000
,
0200
0000
0301
0010
0200
0000
1300
0100
,
0001
0000
0000
0000
1100
0000
0000
0000
1000
0020
0000
0000
0130
0000
0001
0000
,
0010
0000
0000
0000
0001
1000
0000
0010
1000
0010
0000
1000
0001
1000
0000
0010
,
1000
0100
0001
0100
1000
0010
0100
0001
,
0010
0000
0001
0000
1000
0001
0000
0001
1000
0000
0010
1000
0010
1000
0001
0000
,
2002
0000
0000
0000
,
0000
0000
0000
0000
,
0000
0000
0000
0000
,
3003
0000
0000
0000
;

//---------------dance-single - ----------------
#NOTEDATA:;
#CHARTNAME:;
#CHARTHASH:48044285;
#STEPSTYPE:dance-single;
#BANNER:;
#DESCRIPTION:;
#CHARTSTYLE:;
#DIFFICULTY:Challenge;
#METER:15;
#METERF:15.000000;
#LASTSECONDHINT:0.100000;
#RADARVALUES:0.656617,0.724128,0.231203,0.360677,0.952557,497.000000,472.000000,25.000000,39.000000,0.000000,0.000000,0.000000,0.000000,0.000000,0.656617,0.724128,0.231203,0.360677,0.952557,497.000000,472.000000,25.000000,39.000000,0.000000,0.000000,0.000000,0.000000,0.000000;
#CREDIT:;
#NOTES:
// measure 0
0000
0000
0000
0000
,  // measure 1
0000
0000
0000
0000
,  // measure 2
0000
0000
0000
0000
,  // measure 3
0000
0000
0000
0000
,  // measure 4
1000
0000
0001
0010
0000
0000
0100
0000
0000
1000
0000
0001
1000
0000
0010
0000
,  // measure 5
0100
0001
0100
0001
0000
1000
0001
0000
0000
0010
0000
0001
0100
0000
0010
0000
,  // measure 6
1000
0000
0100
0010
0000
0100
0001
0000
0000
0100
1000
0000
0100
0000
1000
0000
,  // measure 7
0001
0000
0000
0100
0000
0001
0100
0000
0000
0010
0000
1000
0001
0000
1000
0001
0000
0000
0100
0000
0100
0000
0000
0000
,  // measure 8
2010
0000
0000
0010
0000
0000
0001
0000
0000
0010
0000
3001
1000
0000
0001
0000
,  // measure 9
0101
0000
0010
1000
0100
0010
0001
0100
0000
0001
1000
0100
0010
0001
0100
0000
,  // measure 10
0120
0000
0000
1000
0000
0000
0001
0000
0000
1030
0010
0000
1000
0000
0100
0000
,  // measure 11
1002
0000
0000
0000
0103
0010
1000
0010
0000
1000
0001
0100
0001
0000
0010
0000
,  // measure 12
2001
0000
0000
0000
3001
0010
0000
0000
0001
1000
0000
0100
0000
0000
1000
0000
,  // measure 13
1020
0000
0000
0000
0130
0001
0000
1000
0001
1000
0000
0001
0010
0001
0000
0001
,  // measure 14
1000
0000
0010
0000
0100
0001
0000
0010
0000
0001
1000
0000
0100
0010
0000
0100
,  // measure 15
1000
0000
0001
1000
0000
0100
0000
0000
1000
0100
0010
0001
0010
0100
1000
0001
,  // measure 16
2000
0000
0000
0001
0000
0000
0010
0000
0000
3100
0000
1000
0001
0000
0010
0001
,  // measure 17
0010
0000
0001
1000
0000
0001
1000
0000
0100
0010
0001
1000
0000
0001
0100
0000
,  // measure 18
0020
0000
0000
1000
0000
0000
0001
0000
0000
0130
0010
0000
0100
0000
0001
0000
,  // measure 19
2001
0000
0000
0000
3010
1000
0000
0001
1000
0001
1000
0100
0010
0000
0001
0000
,  // measure 20
1001
0000
0000
0000
0120
0000
0000
0000
1030
0001
0000
0100
0001
0000
1000
0000
,  // measure 21
1002
0000
0000
0000
1003
0010
0000
1000
0001
1000
0000
0001
0010
0001
0000
0100
,  // measure 22
0001
0000
0010
0000
0100
1000
0000
0100
0000
1000
0001
0000
0010
0001
0000
1000
,  // measure 23
0001
0000
0000
0000
0010
0000
0001
0000
0000
0000
0010
0000
0001
0000
0000
0000
0010
0000
0001
0000
0000
0000
0010
0000
0001
0000
0000
1000
0000
0000
0100
0000
0000
1000
0000
0000
0100
0000
0000
0010
0000
0000
0001
0000
0000
1000
0000
0000
,  // measure 24
0002
0000
0010
0000
0020
0000
0030
1000
,  // measure 25
2003
0000
0000
0100
0000
0100
0000
0100
0000
0000
0001
0000
0000
0000
0010
0000
,  // measure 26
3020
0000
1000
0000
2000
0000
3000
0100
,  // measure 27
0230
0000
0000
0001
0000
0001
0000
0000
0001
0000
0001
0000
0301
1000
0000
0000
,  // measure 28
1100
0000
0000
1000
0100
0000
0100
0000
0010
0001
0000
0001
0010
0000
0001
0000
,  // measure 29
1001
0000
0000
0000
0000
0000
0100
0000
0000
0000
0100
0000
0000
0000
0000
0000
0000
0000
1000
0000
0000
0000
0000
0000
0000
0000
0000
0010
0000
0000
0000
0000
0000
0000
0100
0000
0001
0000
0000
0000
0000
0000
1000
0000
0000
0000
0000
0000
,  // measure 30
1001
0000
0000
0000
0000
0000
0010
0000
0000
0000
0010
0000
0000
0000
0000
0000
0000
0000
1000
0000
0000
0000
0000
0000
0000
0000
0000
0001
0000
0000
0000
0000
0000
1000
0000
0000
0010
0000
0000
0000
0000
0000
0100
0000
0000
0000
0000
0000
,  // measure 31
0001
0000
0000
0000
1000
0000
0100
0000
0000
0000
1000
0000
0100
0000
0000
0000
1000
0000
0100
0000
0000
0000
1000
0000
0100
0000
0000
1000
0000
0000
0001
0000
0000
1000
0000
0000
0001
0000
0000
0000
0000
0000
0010
0000
0000
0000
0000
0000
,  // measure 32
0011
0000
0000
1000
0001
0000
0010
0000
0002
0000
0000
0000
1003
0000
0010
0000
,  // measure 33
0200
0000
0000
0000
0000
0000
0302
0000
0000
0000
0000
0000
1003
0000
0000
0001
0000
0100
0000
0000
0100
0010
0000
0000
,  // measure 34
2001
0000
0000
0000
0000
0000
3200
0000
0000
0000
0000
0000
0310
0000
0000
0001
0000
0010
0000
0000
0001
1000
0000
0000
,  // measure 35
1200
0000
0000
0000
2300
0000
0000
0000
3010
0000
0010
0100
0000
0010
0000
0000
,  // measure 36
1002
0000
0000
0000
0000
0000
0000
0100
0100
0000
0000
0010
0000
0013
0000
0000
,  // measure 37
2001
0000
0000
0000
0000
0000
0000
0010
0010
0000
0000
0100
0000
3100
0000
0000
,  // measure 38
1001
0000
0000
0001
0010
0000
0000
0010
0001
0000
0000
0001
0100
0000
0000
0100
,  // measure 39
0010
0000
0000
0000
1000
0000
0001
0000
0000
0000
1000
0000
0001
0000
0000
0000
1000
0000
0001
0000
0000
0000
1000
0000
0001
0000
0000
0100
0000
0000
0001
0000
0000
0100
0000
0000
0010
0000
0000
0100
0000
0000
0010
0000
0000
1000
0000
0000
,  // measure 40
0002
0000
0000
1003
0100
0010
0001
0010
0200
0000
1000
0000
0000
1000
0000
1300
,  // measure 41
0100
0000
1000
0001
0010
0100
1000
0100
0010
0000
0001
0000
1000
0001
0000
0001
,  // measure 42
0200
0000
0000
0310
0100
0010
0100
0000
0002
0000
1000
0000
0000
1000
0000
1003
,  // measure 43
0001
0000
0010
0000
0100
1000
0000
0100
0000
1000
0001
1000
0100
0000
1000
0000
,  // measure 44
2001
0000
0000
0000
3001
0100
0000
0000
0001
1000
0000
0010
0000
0000
0100
0000
,  // measure 45
1002
0000
0000
0000
1003
0100
0000
1000
0001
1000
0000
0001
0010
0001
0000
0100
,  // measure 46
0010
0000
1000
0000
0010
0100
0000
0010
0000
0100
0001
0000
1000
0001
0000
0001
,  // measure 47
0010
0100
1000
0100
0000
1000
0000
1000
0001
1000
0001
0010
0100
1000
0100
0010
,  // measure 48
0001
0000
0100
0000
0001
1000
0010
2000
0000
0000
0100
0000
0000
0010
0000
3001
,  // measure 49
2000
0000
0000
0100
0000
3100
0000
1000
0010
0000
0100
0000
0001
0000
0010
0000
,  // measure 50
0100
0000
1000
0100
0000
1000
0002
0000
0000
1000
0000
1003
0010
0000
0100
0000
,  // measure 51
1002
0000
0000
0000
1003
0100
0010
0100
0000
1000
0001
1000
0100
0000
1000
0000
,  // measure 52
1001
0000
0000
0000
0210
0000
0000
0000
0301
0100
0000
0010
0000
0000
1000
0000
,  // measure 53
2001
0000
0000
0000
3100
0010
0000
0100
1000
0100
0000
1000
0001
1000
0000
0001
,  // measure 54
0010
0000
0001
0000
1000
0001
0000
0010
0000
0001
0100
0000
0010
1000
0000
0100
,  // measure 55
0010
0000
0100
1000
0000
0100
0001
0000
0100
1000
0100
1000
0001
0100
0001
2000
,  // measure 56
0002
0000
0000
0000
,  // measure 57
0000
0000
0000
0000
,  // measure 58
3003
0000
0000
0000
;
