#TITLE:Beginning of life;
#SUBTITLE:(THE GROUND PULSE MIX);
#ARTIST:QUADRA;
#TITLETRANSLIT:;
#SUBTITLETRANSLIT:;
#ARTISTTRANSLIT:;
#GENRE:TECHNO;
#CREDIT:YonabearCWY;
#BANNER:Beginning of life (THE GROUND PULSE MIX).png;
#BACKGROUND:Beginning of life (THE GROUND PULSE MIX)-bg.png;
#LYRICSPATH:;
#CDTITLE:Beatmania.png;
#MUSIC:Beginning of life (THE GROUND PULSE MIX).ogg;
#OFFSET:-0.520000;
#SAMPLESTART:14.202286;
#SAMPLELENGTH:15.000000;
#SELECTABLE:YES;
#BPMS:0.000000=140.000000
;
#STOPS:
;
#BGCHANGES:32.000=wave3.mp4=1.000=1=0=1===CrossFade==,
48.000=waterfall1.mp4=1.000=0=0=1=====,
64.000=wave2.mp4=1.000=0=0=1=====,
72.000=water1.mp4=1.000=0=0=1=====,
80.000=wave2.mp4=1.000=0=0=1=====,
88.000=wave1.mp4=1.000=0=0=1=====,
96.000=text5.mp4=1.000=0=0=1=====,
104.000=tunnel10.mp4=1.000=0=0=1=====,
108.000=wheel7.mp4=1.000=0=0=1=====,
112.000=wheel1.mp4=1.000=0=0=1=====,
120.000=tunnel12.mp4=1.000=0=0=1=====,
128.000=text8.mp4=1.000=0=0=1=====,
136.000=tunnel10.mp4=1.000=0=0=1=====,
144.000=wave2.mp4=1.000=0=1=1=StretchRewind====,
152.000=water1.mp4=1.000=0=1=1=StretchRewind====,
160.000=wave3.mp4=1.000=0=1=1=StretchRewind====,
168.000=waterfall1.mp4=1.000=0=1=1=StretchRewind====,
176.000=Beginning of life (THE GROUND PULSE MIX)-bg.png=1.000=0=0=1=====,
99999.000=-nosongbg-=1.000=0=0=0=StretchNoLoop====,
99999=-nosongbg-=1.000=0=0=0 // don't automatically add -songbackground-
;
#KEYSOUNDS:;
#ATTACKS:;

//---------------dance-single - ----------------
#NOTES:
     dance-single:
     BEGINNER:
     Beginner:
     2:
     0.120790,0.223372,0.012620,0.000000,0.000000,67.000000,66.000000,1.000000,0.000000,0.000000,0.000000,0.120790,0.223372,0.012620,0.000000,0.000000,67.000000,66.000000,1.000000,0.000000,0.000000,0.000000:
0000
0000
0000
0000
,
0000
0000
0000
0000
,
0000
0000
0000
0000
,
0000
0000
0000
0000
,
1000
0000
0000
0000
,
0001
0000
0000
0000
,
1000
0000
0000
0000
,
0001
0000
0000
0000
,
1000
0000
1000
0000
,
0000
0000
0000
0000
,
0001
0000
0001
0000
,
0000
0000
0000
0000
,
1000
0000
1000
0000
,
0000
0000
0000
0000
,
0001
0000
0001
0000
,
0000
0000
0000
0000
,
1000
0000
1000
0000
,
0010
0000
0010
0000
,
0100
0000
0100
0000
,
0001
0000
0001
0000
,
1000
0000
1000
0000
,
0001
0000
0001
0000
,
0100
0000
0100
0000
,
0010
0000
0010
0000
,
1000
0000
0000
0000
,
1000
0000
0000
0000
,
0001
0000
0000
0000
,
0001
0000
0000
0000
,
0100
0000
0000
0000
,
0100
0000
0000
0000
,
0010
0000
0000
0000
,
0010
0000
0000
0000
,
1000
0000
0000
0000
,
1000
0000
0000
0000
,
0001
0000
0000
0000
,
0001
0000
0000
0000
,
1000
1000
1000
0000
,
1000
1000
1000
0000
,
0001
0001
0001
0000
,
0001
0001
0001
0000
,
0100
0100
0100
0000
,
0010
0010
0010
0000
,
0100
0100
0100
0000
,
0010
0010
0010
0000
,
1000
1001
0000
0000
;

//---------------dance-single - ----------------
#NOTES:
     dance-single:
     BASIC:
     Easy:
     5:
     0.205524,0.279215,0.100959,0.126199,0.000000,114.000000,106.000000,8.000000,10.000000,0.000000,0.000000,0.205524,0.279215,0.100959,0.126199,0.000000,114.000000,106.000000,8.000000,10.000000,0.000000,0.000000:
0000
0000
0000
0000
,
0000
0000
0000
0000
,
0000
0000
0000
0000
,
0000
0000
0000
0000
,
1000
0000
0000
0000
,
0001
0000
0000
0000
,
1000
0000
0000
0000
,
0000
0000
1002
0000
,
0103
0010
0100
0010
,
2000
3000
2000
3000
,
0001
0100
0001
0100
,
0020
0030
0020
0030
,
0100
0001
0100
0001
,
2000
3000
2000
3000
,
0001
1000
0100
1000
,
0200
0300
0200
0300
,
1000
0000
1000
0000
,
0001
0000
0001
0000
,
0100
0000
0100
0000
,
0010
0000
0010
0000
,
1000
1000
1000
0000
,
0001
0001
0001
0000
,
0100
0100
0100
0000
,
0010
0010
0010
0000
,
1010
0000
1000
0010
,
0100
0000
0001
0100
,
0110
0000
0010
1000
,
0002
0000
0003
0000
,
1001
0000
1000
0010
,
1000
0000
0001
0100
,
0101
0000
0001
0010
,
0001
1000
0100
0010
,
1100
0000
1000
0001
,
1000
0000
0001
1000
,
0110
0000
0010
1000
,
0010
0000
0100
0001
,
0100
0000
0100
0000
,
0010
0000
0010
0000
,
1000
0000
1000
0000
,
0001
0000
0001
0000
,
0100
0100
0100
0000
,
0010
0010
0010
0000
,
1000
1000
1000
0000
,
0001
0001
0001
1000
,
1000
1001
0000
0000
;

//---------------dance-single - ----------------
#NOTES:
     dance-single:
     DIFFICULT:
     Medium:
     8:
     0.365977,0.390901,0.063099,0.075719,0.132509,203.000000,198.000000,5.000000,6.000000,0.000000,0.000000,0.365977,0.390901,0.063099,0.075719,0.132509,203.000000,198.000000,5.000000,6.000000,0.000000,0.000000:
0000
0000
0000
0000
,
0000
0000
0000
0000
,
0000
0000
0000
0000
,
0000
0000
0000
0000
,
0000
0100
0000
0000
0000
0000
0000
0000
,
0000
0010
0000
0010
0000
0000
0000
0000
0000
0000
0000
0000
0000
0000
0000
0000
,
0000
0100
0000
0000
0000
0000
0000
0000
,
0000
0010
0000
0010
0000
0000
0000
0000
2001
0000
0000
0000
0000
0000
0000
0000
,
3100
0000
0000
1000
0000
0000
0010
0000
0000
0100
0000
0000
0002
0000
0000
0000
,
0003
1000
0001
0000
0001
0010
0000
0001
,
1000
0000
0000
0100
0000
0000
0010
0000
0000
0100
0000
0000
2000
0000
0000
0000
,
3001
0000
0010
0000
0001
1000
0001
1000
,
0100
0000
0000
1000
0000
0000
0010
0000
0000
0100
0000
0000
0002
0000
0000
0000
,
1003
0001
0000
0001
0100
0000
0100
0010
,
1000
0000
0000
0001
0000
0000
0010
0000
0000
0001
0000
0000
2000
0000
0000
0000
,
3001
0000
1000
0000
0010
0100
0010
0100
,
0001
0000
1000
0000
0001
0000
1000
0001
,
1000
0000
0010
0000
0100
0000
0001
0010
,
0001
0000
0100
0000
0010
0000
1000
0100
,
1000
0100
0010
0100
,
1000
0001
1000
0000
0001
0000
0010
0000
,
0001
0100
0001
0000
0100
0000
0010
0000
,
1000
0000
0010
0000
1000
0000
0001
0000
1000
0000
0000
0010
0000
0000
1000
0000
,
0000
0001
0000
0000
0100
0000
0000
0001
0000
0000
1000
0000
0000
0100
0000
0000
,
1001
0000
0000
0000
1000
0000
0010
0000
0000
0100
0000
0000
0001
0000
0000
0000
,
1000
0000
0010
0000
0100
0001
0100
0000
,
0011
0000
0000
0000
0001
0000
1000
0000
0000
0100
0000
0000
1000
0000
0000
0000
,
0020
0000
0000
0000
0000
0000
0000
0000
0030
0000
0100
0000
0000
0100
0000
0000
,
1001
0000
0001
0010
0100
0000
0100
1000
,
0000
1000
0001
0000
0001
0100
0000
0100
,
0010
1000
0001
1000
0000
1000
0010
0000
,
0010
0100
0000
0100
0001
0100
0001
1000
,
0010
0000
0010
0100
0000
0010
1000
0000
,
0100
0010
0000
0100
1000
0000
0001
1000
,
0001
0100
0010
0000
0010
1000
0000
1000
,
0100
1000
0001
0100
,
0001
1000
0001
0000
1000
0000
0100
0000
,
1000
0010
1000
0000
0010
0000
0100
0000
,
0001
0010
0001
0000
0100
0000
0010
0000
,
1000
0100
1000
0000
0001
0000
0100
0000
,
0001
1000
0000
0000
0010
0000
1000
0001
,
0000
0100
0000
0100
0000
0000
0001
0000
1000
0000
0000
0000
0100
0000
0000
0000
,
0010
0001
1000
0000
0100
0000
0100
0000
,
1000
0001
1000
0000
0001
1000
0001
0000
,
1000
0001
1001
0000
0000
0000
0000
0000
;

//---------------dance-single - ----------------
#NOTES:
     dance-single:
     EXPERT:
     Hard:
     14:
     0.589529,0.587180,0.214538,0.100959,0.637304,327.000000,310.000000,17.000000,8.000000,0.000000,0.000000,0.589529,0.587180,0.214538,0.100959,0.637304,327.000000,310.000000,17.000000,8.000000,0.000000,0.000000:
0000
0000
0000
0000
,
0000
0000
0000
0000
,
0000
0000
0000
0000
,
0000
0000
0000
0000
,
0001
0000
1000
0000
0100
0000
0000
1000
0000
0100
0000
0000
1000
0000
0010
0000
,
0000
0100
0000
0001
1000
0000
0000
0000
0100
0000
0000
1000
0000
0000
0010
0000
,
1000
0000
0100
0000
0010
0000
0000
0100
0000
1000
0000
0000
0001
0000
1000
0000
,
0001
0100
0000
0100
0000
0000
0000
0001
1000
0001
1000
0001
1000
0001
1000
0001
,
1000
0000
0000
1000
0010
0000
0100
0000
0001
0000
0000
0000
0001
0000
0010
0000
,
0000
0100
0010
0000
0001
1000
0100
0010
,
0100
0000
0000
0100
1000
0000
0001
0000
0000
0000
1000
0000
0010
0000
0000
0000
,
0100
1000
0000
0100
0001
1000
0100
0010
,
0001
0000
0000
0001
1000
0000
0100
0000
0010
0000
0001
0000
1000
0000
0000
0000
,
0100
1000
0000
0100
0010
0000
1000
0100
,
0001
0000
0000
0100
1000
0000
0010
0000
0100
0000
0010
0000
0000
0000
0100
0000
,
0001
0000
0001
1000
0000
1000
0010
0100
,
0001
0000
0100
0000
0001
0100
0000
0001
0000
1000
0000
0001
1000
0000
0100
0000
,
1000
0000
0010
0000
1000
0100
0000
1000
0000
0001
0000
0001
0100
0000
0001
0000
,
0010
0000
0001
0000
1000
0100
0000
1000
0000
0010
0000
0100
0001
0000
0010
0000
,
0001
0000
0100
0000
0010
0100
0000
0010
0000
1000
0000
1000
0001
0000
0100
0000
,
0010
0000
1000
0000
0100
1000
0000
0010
0000
1000
0000
0001
0100
0000
0001
0000
,
0010
0000
0001
0000
1000
0100
0000
1000
0000
0001
0000
1000
0010
0000
0100
0000
,
0001
0100
0000
0000
0010
0000
1000
0000
1100
0000
0000
1010
0000
0000
0110
0000
,
0000
0101
0000
0000
1001
0000
0000
1000
0010
0000
0100
0000
0000
0001
0100
0000
,
0010
0000
0000
0100
0001
0000
1000
0000
0100
1000
0000
0000
0010
0000
1000
0000
,
0100
0000
1000
0100
0000
1000
0000
0001
1000
0000
1001
0000
0000
0011
0000
0000
,
1001
0000
0000
1000
0100
0000
1000
0000
0000
0001
0100
0000
0001
0000
1000
0000
,
0010
0000
0010
0100
0000
0010
0000
0100
0010
0000
0110
0000
0000
1001
0000
0000
,
0110
0000
0000
0010
1000
0000
0100
0000
0000
1000
0100
1000
0001
0000
0100
0000
,
0001
0000
0010
0000
0001
0100
0000
0001
0000
0001
0000
0000
1000
0000
0010
0000
,
0100
0000
0000
0100
0001
0000
0010
0000
0000
0001
1000
0000
0100
0000
1000
0000
,
0010
0000
0110
0000
0000
0010
0000
1000
0001
0000
0000
0001
1000
0000
0000
1000
,
0100
0000
0000
0100
1000
0000
0010
0000
0000
0100
0001
0000
1000
0000
0100
0000
,
1000
0000
1001
0000
0000
0010
0000
0001
0100
0000
0000
0010
0000
1000
0100
0000
,
1000
0000
0000
0001
0000
1000
0100
0000
1000
0000
0001
0010
0001
0000
0100
0000
,
0010
0000
1010
0000
0000
1001
0000
0000
0101
0000
0000
0110
0000
0000
1000
0000
,
0001
0000
0010
0000
0002
0000
0000
1000
0000
2003
0000
0000
3100
0000
1000
0000
,
0010
0000
0100
0000
0002
0000
0000
0010
0000
0023
0000
0000
0031
0000
1000
0000
,
0100
0000
1000
0000
0010
2000
0000
0100
0000
3200
0000
0000
1300
0000
0010
0000
,
0100
0000
0001
0000
0010
0002
0000
1000
0000
2003
0000
0000
3010
0000
1000
0000
,
0001
0000
0000
0000
0010
0000
0000
0001
0000
0100
0000
0000
0001
0000
1000
0000
,
0100
1000
0000
1000
0001
0000
0010
0000
0001
0000
0000
1000
0000
0000
0010
0000
,
0100
0000
0000
0000
0001
0000
0000
0010
0000
0001
0000
0000
1000
0000
0100
0000
,
0010
0000
0001
0000
1000
0000
0001
1000
0000
0000
1000
0000
0001
0000
0100
0000
,
0100
0000
0001
0000
1000
0001
0000
0000
0000
0000
0000
0000
0000
0000
0000
0000
;

//---------------dance-double - ----------------
#NOTES:
     dance-double:
     EXPERT:
     Hard:
     14:
     0.589529,0.587180,0.189298,0.000000,0.523725,327.000000,312.000000,15.000000,0.000000,0.000000,0.000000,0.589529,0.587180,0.189298,0.000000,0.523725,327.000000,312.000000,15.000000,0.000000,0.000000,0.000000:
// measure 0
00000000
00000000
00000000
00000000
,  // measure 1
00000000
00000000
00000000
00000000
,  // measure 2
00000000
00000000
00000000
00000000
,  // measure 3
00000000
00000000
00000000
00000000
,  // measure 4
00000000
00000000
10000000
00000000
00010000
00000000
00000000
00000000
00100000
00000000
00000000
00100000
00000000
00000000
00100000
00000000
,  // measure 5
00000000
00001000
00000000
00010000
00001000
00000000
00000000
00000000
00010000
00000000
00000000
00000100
00000000
00000000
00001000
00000000
,  // measure 6
00000001
00000000
00000010
00000000
00000001
00000000
00000000
00000000
00000100
00000000
00000000
00000100
00000000
00000000
00000100
00000000
,  // measure 7
00000000
00000010
00000000
00010000
00001000
00000000
00000000
00001000
00010000
00001000
00010000
00001000
00010000
00001000
00010000
00001000
,  // measure 8
01000000
00000000
00100000
00000000
10000000
00000000
01000000
00000000
00100000
00000000
00000000
00001000
00010000
00000000
00000100
00000000
,  // measure 9
00000010
00000000
00000000
00000000
00000001
00000000
00001000
00000000
00000010
00000000
00000000
00000010
00000000
00000000
00001000
00000000
,  // measure 10
00000001
00000000
00000010
00000000
00000100
00000000
00001000
00000000
00000100
00000000
00000000
00010000
00000000
00001000
00100000
00000000
,  // measure 11
00010000
00000000
00000000
10000000
01000000
00000000
00100000
00000000
00010000
10000000
00010000
10000000
00000000
00000000
00100000
00000000
,  // measure 12
01000000
00010000
00100000
00001000
00100000
00000000
00001000
00010000
,  // measure 13
00000100
00000000
00000000
00000010
00000001
00000000
00001000
00000000
00000001
00000000
00000000
00000001
00000000
00000000
00001000
00000000
,  // measure 14
00000010
00000000
00010000
00001000
00100000
00001000
00010000
00100000
,  // measure 15
01000000
00000000
00000000
00000000
00010000
00000000
10000000
00000000
01000000
10000000
01000000
10000000
00000000
00000000
01000000
00000000
,  // measure 16
00100000
00000000
00010000
00000000
00100000
00000000
00010000
10000000
00000000
00100000
00000000
10000000
00010000
00000000
01000000
00000000
,  // measure 17
00010000
00000000
00100000
00000000
00010000
00000000
00100000
00001000
00000000
00010000
00000000
00000100
00010000
00000000
00000010
00000000
,  // measure 18
00010000
00000000
00000100
00000000
00010000
00000000
00001000
00010000
00000000
00000100
00000000
00010000
00000100
00000000
00001000
00000000
,  // measure 19
00000001
00000000
00001000
00000000
00000010
00000100
00000000
00000001
00000000
00001000
00000000
00000100
00000010
00000000
00000001
00000000
,  // measure 20
00001000
00000000
00000100
00000000
00010000
00000000
00000100
00001000
00000000
00000100
00000000
00010000
00001000
00000000
00010000
00000000
,  // measure 21
00000010
00000000
00000100
00000000
00001000
00010000
00000000
00001000
00000000
00100000
00000000
00001000
01000000
00000000
00010000
00000000
,  // measure 22
00100000
00000000
01000000
00000000
10000000
00000000
01000000
00000000
00110000
00000000
00000000
10010000
00000000
00000000
11000000
00000000
,  // measure 23
00000000
01010000
00000000
00000000
01001000
00000000
00000000
00001000
00010000
00000000
00000100
00000000
00000000
00010000
00001000
00000000
,  // measure 24
00100000
00000000
00000000
00000000
00010000
00000000
10000000
00000000
01000000
00000000
00000000
00100000
00000000
00001000
00010000
00000000
,  // measure 25
00001000
00000010
00000001
00000100
00000010
00001000
00000001
00000010
,  // measure 26
00000100
00000000
00000000
00010000
00000100
00000000
00010000
00000000
00000010
00000000
00010000
00000000
00001000
00000000
00100000
00000000
,  // measure 27
00010000
00000000
00000000
10000000
00000000
10000000
00000000
00010000
01000000
00000000
01100000
00000000
00000000
10100000
00000000
00000000
,  // measure 28
10010000
00000000
01000000
00100000
00001000
00000000
00010000
00100000
,  // measure 29
01000000
00000000
00000000
00100000
10000000
00000000
01000000
00000000
00100000
00000000
00001000
00100000
00000000
00100000
00001000
00000000
,  // measure 30
00011000
00000000
00010000
00000010
00000100
00000000
00001000
00010000
,  // measure 31
00000100
00000000
00001100
00000000
00000000
00000001
00000100
00000000
00000010
00000000
00001000
00000000
00000100
00000000
00000010
00000000
,  // measure 32
00001001
00000000
00000010
00000100
00001000
00000000
00010000
00000010
,  // measure 33
00001000
00000000
00000100
00010000
00000000
00010000
00001000
00000000
00100000
00000000
00001000
00010000
00000000
00000000
00000100
00000000
,  // measure 34
00010100
00000000
00001000
01000000
00100000
00000000
01000000
00001000
,  // measure 35
00010000
00000000
00011000
00000000
00000000
00010100
00000000
00000000
00001100
00000000
00000000
00000001
00000100
00000000
00000010
00000000
,  // measure 36
00001000
00000000
00000100
00000000
00001000
00000000
00000100
00010000
00000000
00001000
00000000
00010000
00000010
00000000
00010000
00000000
,  // measure 37
00000100
00000000
00010000
00000000
00001000
00010000
00000000
00001000
00000000
00100000
00000000
01000000
00100000
00000000
00010000
00000000
,  // measure 38
00100000
00000000
01000000
00000000
10000000
00000000
00010000
01000000
00000000
00100000
00000000
10000000
01000000
00000000
00100000
00000000
,  // measure 39
00010000
00000000
10000000
00000000
00010000
00100000
00000000
00001000
00000000
00010000
00000000
00001000
00100000
00000000
00001000
00000000
,  // measure 40
00010000
00000000
00000000
00000000
00000010
00000000
00000100
00000000
00001000
00000000
00000000
00000100
00000000
00000000
00000001
00000000
,  // measure 41
00001000
00000000
00000100
00000000
00010000
00000000
00000000
00000000
00001000
00000000
00000000
00100000
00010000
00000000
10000000
00000000
,  // measure 42
01000000
00000000
00100000
00000000
00010000
00000000
01000000
00000000
10000000
00000000
00000000
01000000
00000000
00000000
00100000
00000000
,  // measure 43
00000000
01000000
00000000
00010000
00100000
00000000
00001000
00000000
00010000
00000000
00000100
00000000
00010000
00000000
00001000
00000000
,  // measure 44
00010000
00000000
00010000
00000000
00010000
00001000
00000000
00000000
00000000
00000000
00000000
00000000
00000000
00000000
00000000
00000000
;
