#VERSION:0.83;
#TITLE:BanBaban;
#SUBTITLE:;
#ARTIST:F.K.;
#TITLETRANSLIT:;
#SUBTITLETRANSLIT:;
#ARTISTTRANSLIT:;
#GENRE:SHAKE F.K.;
#ORIGIN:;
#TAGS:;
#CREDIT:YonabearCWY;
#BANNER:BanBaban.png;
#BACKGROUND:BanBaban-bg.png;
#PREVIEWVID:;
#JACKET:BanBaban-jacket.png;
#CDIMAGE:;
#DISCIMAGE:;
#LYRICSPATH:;
#CDTITLE:SHAKE II.png;
#MUSIC:BanBaban.ogg;
#OFFSET:-0.185000;
#SAMPLESTART:37.684998;
#SAMPLELENGTH:15.000000;
#SELECTABLE:YES;
#DISPLAYBPM:179.000000;
#BPMS:0.000000=178.949997
,111.500000=190.000000
,112.000000=178.949997
,175.500000=195.000000
,176.000000=178.949997
,211.500000=185.000000
,212.000000=178.949997
,243.500000=160.000000
,244.000000=178.949997
;
#STOPS:;
#DELAYS:;
#WARPS:;
#TIMESIGNATURES:0.000000=4=4
;
#TICKCOUNTS:0.000000=4
;
#COMBOS:0.000000=1
;
#SPEEDS:0.000000=1.000000=0.000000=0
;
#SCROLLS:0.000000=1.000000
;
#LABELS:0.000000=Song Start
;
#BGCHANGES:0.000=BbB1.mp4=1.000=1=0=0=StretchNoLoop==CrossFade==,
176.000=BbB2.mp4=1.000=1=0=0=StretchNoLoop==CrossFade==,
244.000=BbB3.mp4=1.000=1=0=0=StretchNoLoop==CrossFade==,
267.000=BanBaban-bg.png=1.000=1=0=1===CrossFade==,
99999.000=-nosongbg-=1.000=0=0=0=StretchNoLoop====,
99999=-nosongbg-=1.000=0=0=0 // don't automatically add -songbackground-
;
#KEYSOUNDS:;
#ATTACKS:
;

//---------------dance-single - ----------------
#NOTEDATA:;
#CHARTNAME:BASIC;
#CHARTHASH:1677446846;
#STEPSTYPE:dance-single;
#BANNER:;
#DESCRIPTION:;
#CHARTSTYLE:;
#DIFFICULTY:Easy;
#METER:8;
#METERF:0.000000;
#LASTSECONDHINT:89.698044;
#RADARVALUES:0.338940,0.513236,0.285589,1.054482,0.000000,216.000000,190.000000,26.000000,96.000000,0.000000,0.000000,0.000000,0.000000,0.000000,0.338940,0.513236,0.285589,1.054482,0.000000,216.000000,190.000000,26.000000,96.000000,0.000000,0.000000,0.000000,0.000000,0.000000;
#CREDIT:YonabearCWY;
#DISPLAYBPM:179.000000;
#NOTES:
0000
0000
0000
0000
,
0000
0000
0000
0000
,
0000
0000
0000
0000
,
0000
0000
0000
0000
,
2000
3020
2030
3200
,
2300
0000
0000
0001
0000
0000
3100
0000
,
0200
2300
3200
0320
,
0031
0000
0100
0000
,
0002
2003
3002
0023
,
0032
0000
0000
1000
0000
0000
0103
0000
,
0200
0320
0230
0320
,
2000
0000
0000
3030
,
1002
0000
0000
1003
0100
0000
1000
0000
,
0020
0000
0000
0100
0000
0000
0130
0000
,
2001
0000
0000
3001
0010
0000
0001
0000
,
0200
0000
0000
0010
0000
0000
0310
0000
,
0100
0010
1000
0010
,
0200
0000
0000
0302
0000
0000
0013
0000
,
0001
0100
0001
1000
,
0020
0000
0000
2030
0000
0000
3100
0000
,
1100
0000
0000
1001
0000
0000
0101
0000
,
0000
0011
0000
0000
1001
0000
0010
0000
,
0110
0000
0000
1010
0000
0000
1100
0000
,
0000
1001
0000
0000
0101
0000
0001
0000
,
1002
0000
2003
0000
,
3020
0000
2030
0000
,
3002
0000
0203
0000
,
0302
0000
0023
0000
,
0031
0001
0002
0000
,
1003
1000
2000
0000
,
3010
0010
0020
0000
,
0130
0100
0200
0000
,
0301
0001
0002
0000
,
0013
0010
0020
0000
,
0130
0100
0200
0000
,
1300
1000
2000
0000
,
3002
0203
0320
0030
,
2000
3020
0230
0300
,
0002
0203
0302
0000
,
2003
3020
2030
0000
,
3200
2300
3020
0030
,
0200
0302
0023
0030
,
0002
0203
0302
0000
,
2003
3020
2030
0000
,
0002
0000
0000
3003
,
1001
0000
1000
0000
1010
0000
0000
0001
,
0100
0001
1001
0110
,
2001
3020
0230
0302
,
2003
0001
0002
3003
,
0101
0000
0001
0000
1001
0000
0000
1000
,
0010
1000
1100
1001
,
2100
3020
0230
0302
,
0023
0001
0002
0033
,
0002
0000
1000
0000
0000
1003
0000
0000
,
2000
0010
3010
0000
,
0200
0000
0001
0000
0000
0301
0000
0000
,
0002
1000
1003
0000
,
2000
0000
0010
0000
0000
3010
0000
0000
,
0020
0100
0230
0302
,
0023
0032
2003
3001
,
2002
0000
0000
3003
,
0110
0000
0000
0010
1000
0000
0000
0001
,
0100
0000
0000
0001
0010
0000
0000
0001
,
1000
0000
0000
0100
1000
0000
0000
0000
,
2000
0000
0001
3000
,
2002
0000
0000
0000
,
0000
0000
0000
3003
;

//---------------dance-single - ----------------
#NOTEDATA:;
#CHARTNAME:DIFFICULT;
#CHARTHASH:1661525592;
#STEPSTYPE:dance-single;
#BANNER:;
#DESCRIPTION:;
#CHARTSTYLE:;
#DIFFICULTY:Medium;
#METER:11;
#METERF:11.000000;
#LASTSECONDHINT:89.698044;
#RADARVALUES:0.638652,0.623215,1.087434,0.065905,0.060413,407.000000,308.000000,99.000000,6.000000,0.000000,0.000000,0.000000,0.000000,0.000000,0.638652,0.623215,1.087434,0.065905,0.060413,407.000000,308.000000,99.000000,6.000000,0.000000,0.000000,0.000000,0.000000,0.000000;
#CREDIT:YonabearCWY;
#DISPLAYBPM:179.000000;
#NOTES:
0000
0000
0000
0000
,
0000
0000
0000
0000
,
0000
0000
0000
0000
,
0000
0000
0000
0000
,
1001
1010
1001
0101
,
1001
0000
0001
1000
0000
1000
0010
0000
,
1010
0110
0101
1001
,
1010
0000
1000
0010
0000
0010
0100
0000
,
1001
0101
0011
1001
,
0101
0000
0001
0010
0000
0010
0100
0000
,
1000
0001
1000
0000
0010
0000
0010
1000
,
0001
0000
0000
0000
1000
0000
0010
0000
0000
1000
0000
0000
0001
0000
1000
0000
,
0100
1000
0000
1000
0010
0010
1000
0000
,
1010
0000
1000
0001
0000
0001
0100
0000
,
0011
1001
0101
1001
,
1000
0100
0010
0001
0000
0001
0100
0000
,
0001
1000
0000
1000
0001
0001
0100
0000
,
1010
1100
1001
0101
,
0011
0101
1001
1010
,
0010
0100
0010
1000
0010
1000
0100
0000
,
1010
0000
0000
1001
0000
0000
0101
0000
,
0001
0011
0000
1000
1001
0000
0110
0000
,
1001
0000
0000
0101
0000
0000
0011
0000
,
1000
1010
0000
0001
0101
0000
1001
0000
,
1010
0000
0000
1100
0000
0000
0100
0000
,
1001
0000
0000
0101
0000
0000
0010
0000
,
1001
0000
0000
0110
0000
0000
1010
0000
,
0101
0010
0000
0100
1001
0000
0100
0000
,
1010
1000
0010
0000
1000
0010
1000
0000
,
0101
0001
0100
0000
0001
0100
0001
0000
,
1001
1010
0110
1001
,
1100
0000
1000
0010
0000
0010
1000
1000
,
1001
0101
0011
1001
,
1000
0010
0000
0010
0100
0000
0101
0000
,
1001
1010
0110
0101
,
0001
0001
0000
1000
1000
0000
0010
0010
,
0110
0100
0010
0000
0100
0010
0100
0000
,
1010
0010
1000
0000
0010
1000
0010
0000
,
1001
1100
1001
0011
,
0101
0000
0001
1000
0000
1000
0001
0001
,
0101
0110
1010
1001
,
1000
0010
0000
0010
0100
0000
0101
0000
,
1001
1100
1010
0110
,
0100
0100
0000
0010
0010
0000
1000
0001
,
2002
0000
0000
3003
,
1010
0000
1100
0000
1000
0001
0000
0001
,
0100
0000
0000
0001
0000
0000
0010
0000
0001
0000
0000
0000
1001
0000
0000
0000
,
0101
0000
0000
0000
1001
0000
0000
0000
1000
0000
0000
0010
0000
0000
1000
0000
,
0100
0000
0000
1000
0000
0000
0001
0000
0010
0000
0100
0000
1000
0000
0000
0000
,
1100
0000
1010
0000
0000
1001
0000
0001
,
0100
0000
0000
0001
0000
0000
1000
0000
0010
0000
0000
0000
1001
0000
0000
0000
,
1100
0000
0000
0000
1010
0000
0000
0000
0010
0000
0000
0100
0000
0000
0001
0000
,
0100
0000
0000
0001
0000
0000
1000
0000
0100
0000
0010
0000
0001
0000
0000
0000
,
0100
0001
0100
0001
0010
0001
0010
0000
,
0001
1000
0001
1000
0100
1000
0100
0000
,
1000
0100
0010
0001
0010
0100
1000
0000
,
0001
0010
0100
1000
0000
1000
0100
0000
,
1000
0010
0100
0001
0100
0010
1000
0000
,
0001
0100
0010
0100
0001
1000
0001
0000
,
0101
1001
1010
0110
,
2002
0000
0000
3003
,
1000
0010
1000
0000
0001
0100
0001
0000
,
1000
0100
1000
0000
0010
0100
0010
0000
,
1000
0100
0010
0001
0010
0100
1000
0001
,
0100
0000
0001
0000
0010
0000
0001
0000
1000
0000
0001
0000
,
2002
0000
0000
0000
,
0000
0000
0000
3003
;

//---------------dance-single - ----------------
#NOTEDATA:;
#CHARTNAME:EXPERT;
#CHARTHASH:792396993;
#STEPSTYPE:dance-single;
#BANNER:;
#DESCRIPTION:;
#CHARTSTYLE:;
#DIFFICULTY:Hard;
#METER:14;
#METERF:14.000000;
#LASTSECONDHINT:89.698044;
#RADARVALUES:0.702988,0.879833,0.670035,0.131810,0.131810,448.000000,387.000000,61.000000,12.000000,0.000000,0.000000,0.000000,0.000000,0.000000,0.702988,0.879833,0.670035,0.131810,0.131810,448.000000,387.000000,61.000000,12.000000,0.000000,0.000000,0.000000,0.000000,0.000000;
#CREDIT:YonabearCWY;
#DISPLAYBPM:179.000000;
#NOTES:
// measure 0
0000
0000
0000
0000
,  // measure 1
0000
0000
0000
0000
,  // measure 2
0000
0000
0000
0000
,  // measure 3
0000
0000
0000
0000
,  // measure 4
1001
0101
1001
0011
,  // measure 5
1001
0000
1000
0010
0000
0100
0001
0000
,  // measure 6
0001
0010
0100
1000
0001
1000
0100
0000
,  // measure 7
1000
0000
0000
1010
0000
0000
0002
0000
0000
0000
1000
0000
1003
0000
0000
0000
,  // measure 8
1100
1010
1001
1100
,  // measure 9
1010
0000
1000
0001
0000
0010
0100
1000
,  // measure 10
0001
0001
0000
1000
0001
0000
0010
0100
,  // measure 11
1001
0000
0000
0000
0001
0000
0100
0000
0000
0001
0000
0000
1000
0000
0001
0100
,  // measure 12
0001
0010
0000
0001
1000
1000
1000
0000
,  // measure 13
1200
0000
0010
0310
0000
1000
0100
0010
,  // measure 14
0001
0001
0000
0100
0001
0010
0001
0000
,  // measure 15
1000
0000
0000
1001
0000
0000
0200
0000
0000
0000
0010
0000
0310
0000
0000
0000
,  // measure 16
0001
0010
0000
0001
0100
0100
0200
0000
,  // measure 17
0010
0010
0010
0310
0000
1000
0100
0010
,  // measure 18
0001
0001
0000
1000
0001
0000
0010
0100
,  // measure 19
0010
0010
0001
0001
1000
0001
0010
0000
,  // measure 20
0100
1010
0000
0010
1001
0001
0100
0020
,  // measure 21
1000
1000
1000
1000
1030
0000
0101
0000
,  // measure 22
0010
1001
0000
0100
1001
0001
0100
0020
,  // measure 23
0100
0100
0100
0100
0130
0000
1010
0000
,  // measure 24
1000
0000
1100
0000
0000
0000
0010
0000
1001
0000
0000
0001
0000
0000
0100
0000
,  // measure 25
0011
0000
0001
0000
0000
0000
1001
0000
0000
0000
0001
0000
0010
0000
0001
0100
,  // measure 26
0001
0000
0000
1001
0000
0000
0010
0000
0101
0000
0000
0110
0000
0000
0100
0000
,  // measure 27
1010
0000
0100
0000
0000
0000
0010
0000
1000
0000
1000
0000
0100
0000
1000
0001
,  // measure 28
1000
0100
0001
0100
1000
0001
0010
0010
,  // measure 29
0000
0001
0010
1000
0010
0001
0100
0100
,  // measure 30
0001
1000
0100
0001
0100
1000
0001
0010
,  // measure 31
0101
0000
1000
0001
0000
0001
0100
0100
,  // measure 32
0100
0001
0010
0001
1000
0010
0100
0100
,  // measure 33
0000
0001
0100
0010
0001
0010
1000
1000
,  // measure 34
0000
0001
0010
0100
1000
1000
1000
1000
,  // measure 35
0001
0001
0000
0010
0010
0000
0100
1001
,  // measure 36
0001
0010
1000
0010
0001
1000
0100
0100
,  // measure 37
0000
1000
0100
0001
0100
1000
0010
0010
,  // measure 38
1000
0001
0010
0100
1000
0100
0001
0100
,  // measure 39
0011
0000
1000
0100
0000
0010
0100
0100
,  // measure 40
0100
1000
0010
1000
0100
0010
0001
0001
,  // measure 41
0000
0001
1000
0100
1000
0001
0010
0010
,  // measure 42
0000
0001
0010
0100
0010
0010
0010
0010
,  // measure 43
0100
0100
0000
0001
0001
0000
0100
1000
,  // measure 44
1001
0000
0000
0000
0000
0000
0100
0010
0100
0000
0000
0011
0000
0000
0100
1000
,  // measure 45
0001
0000
0101
0000
0001
1000
0000
0200
,  // measure 46
0010
0000
0000
0010
0000
0000
0310
0000
0100
0000
0000
0000
1001
0000
0000
0000
,  // measure 47
0101
0000
0000
1010
0000
0000
1000
0000
0001
0000
1000
0000
,  // measure 48
0010
0000
0000
1010
0000
0000
1000
0000
0010
0000
0001
0000
0010
0000
0000
0000
,  // measure 49
1010
0000
1001
0000
0000
0101
0000
0002
,  // measure 50
0010
0000
0000
0100
0000
0000
0013
0000
0001
0000
0001
0000
1000
0000
0000
0000
,  // measure 51
0101
0000
0000
0011
0000
0000
1001
0000
1000
0000
0001
0000
,  // measure 52
0101
0000
0000
0110
0000
0000
0010
0000
1000
0000
0100
0000
0010
0000
0000
0000
,  // measure 53
0001
0010
0100
1000
0000
1000
0100
0000
,  // measure 54
1000
0100
0010
0001
0000
0001
0100
0010
,  // measure 55
1000
0100
0001
0100
0000
1000
0100
0000
,  // measure 56
1000
0001
0000
0011
0000
0001
1000
0010
,  // measure 57
0100
1000
0100
0001
0000
0100
0010
0000
,  // measure 58
0010
1000
0000
0001
0100
0100
0010
0010
,  // measure 59
1000
1000
0100
0100
1000
0100
0010
0001
,  // measure 60
2002
0000
0000
3003
,  // measure 61
1001
0001
0100
0010
1010
1000
0001
0100
,  // measure 62
0110
0001
1000
0100
0110
1000
0001
0100
,  // measure 63
0101
0010
1000
0100
1100
0001
0010
0100
,  // measure 64
0101
0000
0011
0000
1001
0000
1100
0000
1001
0000
0110
0000
,  // measure 65
2002
0000
0000
0000
,  // measure 66
0000
0000
0000
3003
;

//---------------dance-single - ----------------
#NOTEDATA:;
#CHARTNAME:BEGINNER;
#CHARTHASH:823651239;
#STEPSTYPE:dance-single;
#BANNER:;
#DESCRIPTION:;
#CHARTSTYLE:;
#DIFFICULTY:Beginner;
#METER:4;
#METERF:0.000000;
#LASTSECONDHINT:89.698044;
#RADARVALUES:0.178885,0.256618,0.076889,0.021968,0.000000,114.000000,107.000000,7.000000,2.000000,0.000000,0.000000,0.000000,0.000000,0.000000,0.178885,0.256618,0.076889,0.021968,0.000000,114.000000,107.000000,7.000000,2.000000,0.000000,0.000000,0.000000,0.000000,0.000000;
#CREDIT:YonabearCWY;
#DISPLAYBPM:179.000000;
#NOTES:
0000
0000
0000
0000
,
0000
0000
0000
0000
,
0000
0000
0000
0000
,
0000
0000
0000
0000
,
1000
0000
1000
0000
,
1000
1000
1000
0000
,
0001
0000
0001
0000
,
0001
0000
0000
0000
,
0100
0000
0100
0000
,
0100
0100
0100
0000
,
0010
0000
0010
0000
,
0010
0000
0000
0000
,
1001
0000
0000
0000
,
0001
1000
0001
0000
,
0110
0000
0000
0000
,
0100
0010
0100
0000
,
1001
0000
0000
0000
,
1000
0001
1000
0000
,
0110
0000
0000
0000
,
0010
0100
0010
0000
,
1000
0000
0000
0000
,
0100
0000
0000
0000
,
1000
0000
0000
0000
,
0100
0000
0000
0000
,
0010
0000
0000
0000
,
0001
0000
0000
0000
,
0010
0000
0000
0000
,
0001
0000
0000
0000
,
0001
0000
0001
0000
,
0001
0001
0001
0000
,
1000
0000
1000
0000
,
1000
1000
1000
0000
,
0010
0000
0010
0000
,
0010
0010
0010
0000
,
0100
0000
0100
0000
,
0100
0100
0100
0000
,
0001
0000
0001
0000
,
0001
0001
0001
0000
,
0010
0000
0010
0000
,
0010
0010
0010
0000
,
0100
0000
0100
0000
,
0100
0100
0100
0000
,
1000
0000
1000
0000
,
1000
1000
1000
0000
,
1001
0000
0000
0000
,
1000
0000
1000
0000
,
1000
0000
0000
0000
,
0001
0000
0001
0000
,
0001
0000
0000
0000
,
0010
0000
0010
0000
,
0010
0000
0000
0000
,
0100
0000
0100
0000
,
0100
0000
0000
0000
,
1000
0000
0000
0000
,
1000
0000
0000
0000
,
0001
0000
0000
0000
,
0001
0000
0000
0000
,
0010
0000
0000
0000
,
0010
0000
0000
0000
,
0100
0000
0000
0000
,
1001
0000
0000
0000
,
0010
0000
0000
0000
,
0100
0000
0000
0000
,
0010
0000
0000
0000
,
1000
0000
0001
0000
,
2002
0000
0000
0000
,
0000
0000
0000
3003
;

//---------------dance-double - ----------------
#NOTEDATA:;
#CHARTNAME:EXPERT;
#CHARTHASH:2927226205;
#STEPSTYPE:dance-double;
#BANNER:;
#DESCRIPTION:;
#CHARTSTYLE:;
#DIFFICULTY:Hard;
#METER:13;
#METERF:13.000000;
#LASTSECONDHINT:89.698044;
#RADARVALUES:0.676312,0.879833,0.406415,0.098858,0.148286,431.000000,394.000000,37.000000,9.000000,0.000000,0.000000,0.000000,0.000000,0.000000,0.676312,0.879833,0.406415,0.098858,0.148286,431.000000,394.000000,37.000000,9.000000,0.000000,0.000000,0.000000,0.000000,0.000000;
#CREDIT:YonabearCWY;
#DISPLAYBPM:179.000000;
#NOTES:
00000000
00000000
00000000
00000000
,
00000000
00000000
00000000
00000000
,
00000000
00000000
00000000
00000000
,
00000000
00000000
00000000
00000000
,
10000000
00010000
00100000
00000000
01000000
00100000
00001000
00000000
,
00010000
00000100
00000010
00000001
00001000
00000010
00000100
00000000
,
00000001
00000010
00000000
00001000
00000010
00000000
00000001
00000100
,
00001000
00000000
00010000
00001000
00000000
00010000
01000000
00000000
,
10000000
00100000
01000000
00000000
00010000
01000000
00001000
00000000
,
00010000
00000000
00001000
00010000
00000000
00001000
00000010
00000001
,
00001000
00000000
00000001
00000100
00000010
00001000
00000100
00000010
,
00001002
00000000
00000000
00000000
00000100
00000000
00000103
00000000
00000000
00000010
00000000
00000000
00001000
00000000
00000100
00010000
,
00000100
00010000
00001000
00010000
00001000
00100000
01000000
00100000
,
01000000
00000000
10000000
01000000
00010000
01000000
10000000
00000000
,
00100000
01000000
00010000
01000000
00010000
10000000
01000000
00100000
,
00010000
00000000
00000000
00100000
00000000
00000000
00010000
00000000
01000000
00000000
00100000
00000000
10000000
00000000
00000000
00000000
,
01000000
00100000
01000000
00100000
00001000
00010000
00001000
00010000
,
00000100
00000010
00000001
00001000
00000000
00000010
00000100
00000000
,
00000001
00001000
00000100
00001000
00000001
00000100
00000010
00001000
,
00000100
00000100
00010000
00010000
00001000
00001000
00100000
01000000
,
11000000
00000000
00000000
01010000
00000000
00000000
02100000
00000000
,
00010000
00010000
00010000
03010000
00110000
00000000
00101000
00000000
,
00011000
00000000
00000000
00000110
00000000
00000000
00000102
00000000
,
00001000
00001000
00001000
00001003
00001100
00000000
00010010
00000000
,
00010000
00000000
00001000
00000000
00000000
00000000
00010000
00000000
01000000
00000000
00000000
00100000
00000000
00000000
01000000
00000000
,
10000000
00000000
00010000
00000000
01000000
00000000
00100000
00000000
01000000
00000000
00000000
00010000
00000000
00000000
00100000
00000000
,
00001000
00000000
00000000
00010000
00000000
00000000
00000100
00000000
00000010
00000000
00000000
00001000
00000000
00000000
00000001
00000000
,
00000100
00000000
00001000
00000000
00000000
00000110
00000000
00000000
00000001
00000000
00001000
00000000
00000100
00000000
00000010
00000001
,
00000010
00000001
00001000
00000100
00001000
00000010
00001000
00000100
,
00000000
00010000
00001000
00010000
00000100
00010000
00001000
00100000
,
00010000
00000000
00100000
01000000
00000000
10000000
01000000
00000000
,
00210000
00000000
10000000
10000000
00000000
00010000
00010000
00010000
,
00310000
01000000
00100000
10000000
01000000
00100000
00010000
01000000
,
00000000
00001000
00100000
00001000
00010000
00001000
00000100
00000010
,
00000000
00001000
00000100
00000010
00000001
00000100
00000100
00000100
,
00000100
00000010
00000000
00001000
00000001
00000000
00000010
00000100
,
00001000
00010000
00100000
01000000
00100000
00010000
00100000
01000000
,
00000000
10000000
00010000
01000000
00010000
00100000
00001000
00100000
,
00001000
00000000
00010000
00000100
00000000
00001000
00000010
00000000
,
00000201
00000000
00001000
00001000
00000000
00000001
00000001
00000001
,
00000301
00000100
00000010
00001000
00000100
00001000
00010000
00100000
,
00000000
00010000
00100000
01000000
10000000
01000000
00100000
01000000
,
00000000
00100000
00010000
00100000
00001000
00001000
00001000
00001000
,
00001000
00010000
00000000
00000100
00001000
00000000
00000001
00001000
,
00001001
00000000
00000000
00000000
00000000
00000000
00000100
00000010
00000100
00000000
00000000
00000001
00000000
00000000
00000010
00000100
,
00000010
00000000
00001100
00000000
00000100
00010000
00001000
00000000
,
00010000
00000000
00000000
00000000
00010000
00000000
00000000
00000000
00000000
00001000
00000000
00000000
00100000
00000000
00000000
00010000
00000000
00000000
01000000
00000000
00000000
00000000
00000000
00000000
,
01100000
00000000
00000000
00000000
00000000
00000000
10100000
00000000
00000000
00000000
00000000
00000000
10000000
00000000
00000000
00000000
00010000
00000000
00000000
00000000
00000000
01000000
00000000
00000000
,
00010000
00000000
00000000
00000000
00100000
00000000
00000000
00000000
00000000
00010000
00000000
00000000
01000000
00000000
00000000
00001000
00000000
00000000
01000000
00000000
00000000
00000000
00000000
00000000
,
00101000
00000000
00011000
00000000
00000000
00010100
00000000
00001000
,
00000010
00000000
00000000
00000000
00000010
00000000
00000000
00000000
00000000
00000100
00000000
00000000
00000001
00000000
00000000
00000010
00000000
00000000
00000100
00000000
00000000
00000000
00000000
00000000
,
00001100
00000000
00000000
00000000
00000000
00000000
00001010
00000000
00000000
00000000
00000000
00000000
00000010
00000000
00000000
00000000
00010000
00000000
00000000
00000000
00000000
00000100
00000000
00000000
,
00010000
00000000
00000000
00000000
00001000
00000000
00000000
00000000
00000000
00100000
00000000
00000000
00010000
00000000
00000000
10000000
00000000
00000000
01000000
00000000
00000000
00000000
00000000
00000000
,
00100000
00010000
00001000
00000100
00000000
00001000
00000100
00000010
,
00000001
00000010
00000100
00001000
00000000
00000100
00001000
00010000
,
00100000
00000000
01000000
10000000
00000000
00010000
01000000
00000000
,
00100000
10000000
01000000
00100000
00000000
00010000
00001000
00000100
,
00000010
00000100
00001000
00000001
00000000
00000100
00000010
00001000
,
00000100
00000000
00010000
00000000
00001000
00000000
00100000
00000000
01000000
10000000
00000000
00000000
10000000
00100000
00000000
00000000
,
00100000
01000000
00000000
00000000
01000000
00001000
01000000
00000000
00001000
00000000
00010000
00000000
00001000
00010000
00001000
00000000
,
00022000
00000000
00000000
00033000
,
00001010
00000010
00000100
00000001
00000011
00000010
00000100
00001000
,
00011000
00010000
01000000
10000000
11000000
01000000
00100000
01000000
,
01010000
00010000
00001000
00010000
00010100
00000100
00001000
00000010
,
00000110
00000000
00000101
00000000
00000011
00000000
00001010
00000000
00010010
00000000
00010100
00000000
,
00022000
00000000
00000000
00000000
,
00000000
00000000
00000000
00033000
;
