#VERSION:0.83;
#TITLE:Back to the Dance Floor;
#SUBTITLE:;
#ARTIST:DJ SIMON;
#TITLETRANSLIT:;
#SUBTITLETRANSLIT:;
#ARTISTTRANSLIT:;
#GENRE:TRIBAL LOUNGE;
#ORIGIN:;
#TAGS:;
#CREDIT:YonabearCWY;
#BANNER:Back to the Dance Floor.png;
#BACKGROUND:Back to the Dance Floor-bg.png;
#PREVIEWVID:;
#JACKET:Back to the Dance Floor-jacket.png;
#CDIMAGE:;
#DISCIMAGE:;
#LYRICSPATH:;
#CDTITLE:Beatmania IIDX.png;
#MUSIC:Back to the Dance Floor.ogg;
#OFFSET:-1.068000;
#SAMPLESTART:31.523809;
#SAMPLELENGTH:15.000000;
#SELECTABLE:YES;
#BPMS:0.000000=125.999992
;
#STOPS:19.250000=0.235000
,22.750000=0.235000
,24.250000=0.235000
,25.750000=0.235000
,164.750000=0.240000
,172.750000=0.230000
,180.000000=0.240000
,187.750000=0.240000
,239.250000=0.240000
,242.750000=0.240000
;
#DELAYS:;
#WARPS:;
#TIMESIGNATURES:0.000000=4=4
;
#TICKCOUNTS:0.000000=4
;
#COMBOS:0.000000=1
;
#SPEEDS:0.000000=1.000000=0.000000=0
;
#SCROLLS:0.000000=1.000000
;
#LABELS:0.000000=Song Start
;
#BGCHANGES:16.000=bricks1.mp4=0.800=1=0=1===CrossFade==,
19.250=bricks1.mp4=0.001=0=0=1=====,
19.500=kaliedoscope2.mp4=1.000=0=0=1=====,
22.750=kaliedoscope2.mp4=0.001=0=0=1=====,
23.000=bricks1.mp4=0.800=0=0=1=====,
24.250=bricks1.mp4=0.001=0=0=1=====,
24.500=kaliedoscope2.mp4=1.000=0=0=1=====,
25.750=kaliedoscope2.mp4=0.001=0=0=1=====,
26.000=colors3.mp4=1.000=0=0=1=====,
30.000=floor1.mp4=1.000=0=0=1=====,
38.000=disco4.mp4=1.000=0=0=1=====,
46.000=floor2.mp4=1.000=0=0=1=====,
54.000=disco4.mp4=1.000=0=1=1=StretchRewind====,
58.000=dance4.mp4=1.000=0=0=1=====,
62.000=disco3.mp4=1.200=0=0=1=====,
70.000=disco1.mp4=1.200=0=0=1=====,
78.000=heart10.mp4=1.200=0=0=1=====,
86.000=disco3.mp4=1.200=0=0=1=====,
88.000=heart10.mp4=1.200=0=0=1=====,
90.000=disco3.mp4=1.200=0=0=1=====,
92.000=colors3.mp4=1.000=0=1=1=StretchRewind====,
94.000=floor1.mp4=1.000=0=1=1=StretchRewind====,
102.000=disco4.mp4=1.000=0=1=1=StretchRewind====,
110.000=floor2.mp4=1.000=0=1=1=StretchRewind====,
118.000=disco4.mp4=1.000=0=1=1=StretchRewind====,
122.000=dance4.mp4=1.000=0=0=1=====,
126.000=disco3.mp4=1.200=0=1=1=StretchRewind====,
134.000=disco1.mp4=1.200=0=1=1=StretchRewind====,
142.000=disco2.mp4=1.200=0=1=1=StretchRewind====,
150.000=disco1.mp4=1.200=0=0=1=====,
152.000=disco2.mp4=1.200=0=0=1=====,
154.000=disco1.mp4=1.200=0=0=1=====,
156.000=colors3.mp4=1.000=0=1=1=StretchRewind====,
158.000=dance12.mp4=1.400=0=0=1=====,
164.750=dance12.mp4=0.001=0=0=1=====,
165.500=discoball1.mp4=1.200=0=0=1=====,
172.250=box1.mp4=2.000=0=0=1=====,
173.000=bricks1.mp4=1.200=0=1=1=StretchRewind====,
179.000=box1.mp4=2.000=0=1=1=StretchRewind====,
179.167=box1.mp4=2.000=0=1=1=StretchRewind====,
179.333=box1.mp4=2.000=0=1=1=StretchRewind====,
179.500=box1.mp4=2.000=0=1=1=StretchRewind====,
179.667=box1.mp4=2.000=0=1=1=StretchRewind====,
180.500=kaliedoscope2.mp4=1.200=0=1=1=StretchRewind====,
187.750=kaliedoscope2.mp4=0.001=0=0=1=====,
188.000=dance4.mp4=1.000=0=1=1=StretchRewind====,
196.000=bricks1.mp4=0.800=0=1=1=StretchRewind====,
200.000=colors3.mp4=1.000=0=1=1=StretchRewind====,
204.000=floor2.mp4=1.000=0=1=1=StretchRewind====,
212.000=disco4.mp4=1.000=0=1=1=StretchRewind====,
220.000=floor1.mp4=1.000=0=1=1=StretchRewind====,
228.000=disco4.mp4=1.000=0=1=1=StretchRewind====,
236.000=dance4.mp4=0.800=0=1=1=StretchRewind====,
239.250=dance4.mp4=0.001=0=0=1=====,
239.500=bricks1.mp4=0.800=0=1=1=StretchRewind====,
242.250=box1.mp4=2.000=0=1=1=StretchRewind====,
243.500=Back to the Dance Floor-bg.png=1.000=0=0=1=====,
99999.000=-nosongbg-=1.000=0=0=0=StretchNoLoop====,
99999=-nosongbg-=1.000=0=0=0 // don't automatically add -songbackground-
;
#KEYSOUNDS:;
#ATTACKS:
;

//---------------dance-single - ----------------
#NOTEDATA:;
#CHARTNAME:BEGINNER;
#CHARTHASH:412808135;
#STEPSTYPE:dance-single;
#BANNER:;
#DESCRIPTION:;
#CHARTSTYLE:;
#DIFFICULTY:Beginner;
#METER:4;
#METERF:0.000000;
#LASTSECONDHINT:119.390373;
#RADARVALUES:0.000000,0.000000,0.000000,0.000000,0.000000,0.000000,0.000000,0.000000,0.000000,0.000000,0.000000,0.000000,0.000000,0.000000,0.000000,0.000000,0.000000,0.000000,0.000000,0.000000,0.000000,0.000000,0.000000,0.000000,0.000000,0.000000,0.000000,0.000000;
#CREDIT:YonabearCWY;
#NOTES:
0000
0000
0000
0000
,
0000
0000
0000
0000
,
0000
0000
0000
0000
,
0000
0000
0000
0000
,
1000
0000
0000
0000
0000
0000
0000
0001
,
0000
0000
0000
1000
,
0000
0001
0000
0000
1001
0000
0000
0000
,
0000
0000
1000
1000
,
1000
0000
1000
1000
,
1000
0000
0010
0000
,
0010
0000
0010
0000
,
0000
0000
0100
0100
,
0100
0000
0100
0100
,
0100
0000
0010
0000
,
0010
0000
0010
0000
,
0000
0000
1000
0000
,
1000
0000
1000
0000
,
0000
0001
0001
0000
,
0001
0000
0001
0000
,
0000
1000
1000
0000
,
1000
0000
1000
0000
,
0000
0010
0010
0000
,
0100
0000
0010
0000
,
0100
0000
0010
0010
,
0010
0000
0010
0010
,
0010
0000
1000
0000
,
1000
0000
1000
0000
,
0000
0000
0100
0100
,
0100
0000
0100
0100
,
0100
0000
1000
0000
,
1000
0000
1000
0000
,
0000
0000
0001
0000
,
0001
0000
0001
0000
,
0000
0100
0100
0000
,
0100
0000
0100
0000
,
0000
0010
0010
0000
,
0010
0000
0010
0000
,
0000
1000
1000
0000
,
1000
0000
1000
0000
,
1000
1000
1001
0000
,
1000
0000
1001
0000
,
0001
0000
0000
0110
0000
0000
0000
0100
,
0000
0000
0000
0110
0000
0000
0000
0010
,
0000
1000
1000
1000
,
0000
1000
1000
0000
,
0000
0001
0000
0001
0000
0001
0000
0000
,
0000
0001
0000
0001
0000
0001
0000
0000
,
1000
0000
0100
0000
,
1000
0000
0000
0000
,
0001
0000
0010
0000
,
1001
0000
0000
0000
,
1000
1000
1000
0000
,
1000
1000
1000
0000
,
0010
0000
0100
0000
,
0001
0000
0100
0000
,
0010
0010
0010
0000
,
0010
0010
0010
0000
,
1000
0000
0010
0000
,
0100
0000
0001
0000
,
1000
0000
0000
0000
0000
0000
0000
0001
,
0000
0000
0000
0000
0000
0000
0000
0000
0000
0000
0000
2002
0000
0000
3003
0000
;

//---------------dance-single - ----------------
#NOTEDATA:;
#CHARTNAME:BASIC;
#CHARTHASH:171901423;
#STEPSTYPE:dance-single;
#BANNER:;
#DESCRIPTION:;
#CHARTSTYLE:;
#DIFFICULTY:Easy;
#METER:6;
#METERF:0.000000;
#LASTSECONDHINT:119.390373;
#RADARVALUES:0.000000,0.000000,0.000000,0.000000,0.000000,0.000000,0.000000,0.000000,0.000000,0.000000,0.000000,0.000000,0.000000,0.000000,0.000000,0.000000,0.000000,0.000000,0.000000,0.000000,0.000000,0.000000,0.000000,0.000000,0.000000,0.000000,0.000000,0.000000;
#CREDIT:YonabearCWY;
#NOTES:
0000
0000
0000
0000
,
0000
0000
0000
0000
,
0000
0000
0000
0000
,
0000
0000
0000
0000
,
2000
0000
0000
0000
3100
0000
1001
0002
,
0000
0000
0000
0103
0000
1001
2000
0000
,
3000
0002
0000
0003
2002
0000
0000
0000
,
3003
0000
1000
1000
,
1000
0000
0010
0010
,
0010
0000
0100
0100
,
0100
0001
0100
0100
,
0100
0010
1000
1000
,
1000
0000
0100
0100
,
0100
0000
1000
1000
,
1000
0001
0010
0010
,
0010
0001
1000
1001
,
0100
0110
1000
1001
,
0020
0030
0100
0101
,
0010
1010
0100
0101
,
2000
3000
0001
1010
,
1000
0101
0001
1010
,
2000
3001
2000
3010
,
2000
3100
2000
3001
,
0110
1001
0002
0100
,
0103
0000
0200
0010
,
0310
0000
0010
0010
,
0010
1000
0010
0010
,
0010
0001
0020
1000
,
0130
0000
0200
0001
,
0310
0000
0100
0100
,
0100
0001
0100
0100
,
0100
1000
0101
0001
,
1010
1000
0011
0001
,
2000
3010
0110
0010
,
1010
1000
0110
0010
,
0200
0301
0002
1003
,
2000
3001
0002
1003
,
2000
3010
0020
0130
,
0200
0310
0020
0130
,
0110
1001
2000
3010
,
2000
3100
2000
3001
,
1000
0000
0000
0001
0000
0000
0002
0000
0000
0000
1003
0000
0000
0000
0002
0000
,
0000
0013
0000
0002
0000
0103
0000
0001
,
0000
1000
0000
0000
1000
0000
0000
0000
1010
0000
0000
0000
0010
0000
0000
0000
,
0110
0100
0101
0002
,
1003
1000
0000
1010
0000
0010
0000
0110
,
0000
0000
0100
0000
0000
0000
0101
0000
0000
0000
0001
0000
0000
1000
0000
0000
,
0100
0000
0100
0000
,
1000
0000
1000
0000
,
0010
0000
0010
0000
,
0202
0000
0303
0000
,
0001
1000
0100
0000
,
1000
0001
0010
0000
,
0001
0001
0001
1000
,
0001
0001
0001
1000
,
0010
1000
0001
0000
,
1000
0001
0100
0000
,
0010
0010
0010
1000
,
0010
0010
0010
0100
,
0010
0000
0000
0000
1000
0000
0000
0000
0010
0000
0000
0010
0000
0000
0100
0000
,
0000
0000
0001
0000
0000
0000
0100
0000
0000
0000
0000
2002
0000
0000
3003
0000
;

//---------------dance-single - ----------------
#NOTEDATA:;
#CHARTNAME:DIFFICULT;
#CHARTHASH:3868816005;
#STEPSTYPE:dance-single;
#BANNER:;
#DESCRIPTION:;
#CHARTSTYLE:;
#DIFFICULTY:Medium;
#METER:10;
#METERF:10.000000;
#LASTSECONDHINT:119.390373;
#RADARVALUES:0.000000,0.000000,0.000000,0.000000,0.000000,0.000000,0.000000,0.000000,0.000000,0.000000,0.000000,0.000000,0.000000,0.000000,0.000000,0.000000,0.000000,0.000000,0.000000,0.000000,0.000000,0.000000,0.000000,0.000000,0.000000,0.000000,0.000000,0.000000;
#CREDIT:YonabearCWY;
#NOTES:
0000
0000
0000
0000
,
0000
0000
0000
0000
,
0000
0000
0000
0000
,
0000
0000
0000
0000
,
1000
0000
0100
0000
0010
0000
0001
0000
1000
0000
0000
0002
0000
0003
0001
0000
,
0010
0000
0100
0000
1000
0000
0001
0000
0000
2000
0000
3000
0010
0000
1000
0000
,
1010
0100
0001
0101
2002
0000
0000
0000
,
3003
0000
0000
0000
0100
1000
0100
0000
,
1000
0100
1000
0000
0001
0010
0001
0000
,
0010
0001
0010
0000
0001
0001
0001
0001
,
0001
0001
0001
0000
1000
1000
1000
1000
,
1000
1000
1000
0000
0001
0010
0001
0000
,
0010
0001
0010
0000
0001
1000
0001
0000
,
1000
0001
1000
0000
0010
0010
0010
0010
,
0010
0010
0010
0000
0100
0100
0100
0100
,
0100
0001
1000
0000
0002
0000
1003
0000
,
0002
0013
0020
0130
,
1001
0000
0100
0001
2000
0000
3010
0000
,
0200
0310
0200
0301
,
0110
0000
1000
0010
0002
0000
0013
0000
,
0020
1030
2000
3100
,
1100
0000
1000
0100
0001
0000
0100
1000
,
0001
0000
0010
0001
1000
0000
0001
0010
,
1000
0000
1001
0000
0001
1000
0100
1000
,
0001
0000
0000
1000
0000
0000
0000
0000
0100
0000
1000
0000
0100
0000
0010
0000
,
0100
0000
0000
1000
0000
0000
0000
0000
0010
0000
0010
0000
0010
0000
0010
0000
,
0010
0010
0010
0000
0100
0100
0100
0100
,
0100
0100
0100
0000
1000
0001
0010
0100
,
1000
0000
0000
0010
0000
0000
0000
0000
0100
0000
0001
0000
0100
0000
0010
0000
,
0100
0000
0000
0010
0000
0000
0000
0000
1000
0000
1000
0000
1000
0000
1000
0000
,
1000
1000
1000
0000
0001
0001
0001
0001
,
0001
1000
0100
0000
0002
0000
0103
0000
,
0020
1030
2000
3001
,
1010
0000
0010
0100
0002
0000
1003
0000
,
0200
0310
0002
0103
,
0101
0000
0001
1000
1200
0000
1300
0000
,
0200
0310
0020
0130
,
1001
0000
0001
1000
1100
0000
1000
0001
,
0011
0000
0001
1000
1010
0000
1000
0001
,
1001
0110
0020
1000
,
0130
0000
0000
1001
0000
0000
0000
0000
2000
0000
0000
0000
0001
0000
0000
0000
,
3010
0000
0000
1001
0000
0000
0002
0000
0000
0000
0010
0000
0000
0000
0103
0000
,
0000
0101
0000
0000
0001
0000
2000
0000
0000
0000
0100
0000
0000
0000
3010
0000
,
0000
1002
0000
0000
0103
0000
0001
0000
0100
0000
0000
0000
0010
0000
0010
0000
,
0010
0000
1000
0100
1000
0001
0102
0000
,
0003
1000
0100
1000
0000
0010
0010
0010
,
0000
0000
0001
0000
1000
0000
0001
0000
1000
0000
0010
1000
0000
1100
0000
0000
,
1000
0000
0010
0000
0100
0001
0100
0000
,
0001
0000
1000
0000
0010
1000
0010
0000
,
1000
0100
0001
0000
0001
0100
1000
0000
,
2200
0000
3300
0000
,
0010
0001
0100
0010
0100
0100
0100
0000
,
0010
1000
0010
0100
0010
0010
0010
0000
,
1000
1000
1000
1000
1000
1000
1001
0000
,
0001
0001
0001
0001
0001
0001
1001
0000
,
1000
0100
1000
0001
0010
0010
0010
0000
,
0001
1000
0100
0010
0001
0001
0001
0000
,
0100
0100
0100
0100
0100
0100
0110
0000
,
0010
0010
0010
0010
0010
0010
0110
0000
,
1000
0000
0000
0000
0101
0000
0000
0000
0001
0000
0000
2001
0000
0000
3100
0000
,
0000
0000
1100
0000
0000
0000
1000
0000
0000
1000
0000
2002
0000
0000
3003
0000
;

//---------------dance-single - ----------------
#NOTEDATA:;
#CHARTNAME:EXPERT;
#CHARTHASH:2442625957;
#STEPSTYPE:dance-single;
#BANNER:;
#DESCRIPTION:;
#CHARTSTYLE:;
#DIFFICULTY:Hard;
#METER:11;
#METERF:11.000000;
#LASTSECONDHINT:119.390373;
#RADARVALUES:0.000000,0.000000,0.000000,0.000000,0.000000,0.000000,0.000000,0.000000,0.000000,0.000000,0.000000,0.000000,0.000000,0.000000,0.000000,0.000000,0.000000,0.000000,0.000000,0.000000,0.000000,0.000000,0.000000,0.000000,0.000000,0.000000,0.000000,0.000000;
#CREDIT:YonabearCWY;
#NOTES:
0000
0000
0000
0000
,
0000
0000
0000
0000
,
0000
0000
0000
0000
,
0000
0000
0000
0000
,
1000
0001
1000
0000
0001
0010
0110
0001
,
1000
0001
0000
1000
0100
0110
0001
0001
,
0101
1000
1000
1010
0220
0000
0000
0000
,
0330
0000
0000
0000
0001
0010
0001
0000
,
1000
0000
0000
0010
0000
1000
0001
0000
0010
0000
0100
0000
0010
0000
0000
0000
,
0100
1000
1001
0000
0100
0100
0100
0100
,
0100
0000
0100
0000
0100
0010
0100
0000
0010
0000
0010
0000
0010
0000
0010
0000
,
0010
0000
0010
0000
0010
0100
0010
0000
1000
0000
0001
0000
0100
0000
0000
0000
,
0001
0000
0000
1000
0000
0100
0010
0000
0100
0000
1000
0000
0001
0000
0000
0000
,
0010
0001
1001
0000
1000
1000
1000
1000
,
1000
0000
1000
0000
1000
0001
1000
0000
0001
0000
0001
0000
0001
0000
0001
0000
,
0001
0010
0100
0000
1200
0000
0301
0000
,
1200
0301
0021
1030
,
0001
0010
0000
0001
1000
0000
0100
0000
0201
0000
0000
0000
1300
0000
0000
0000
,
0201
1300
1020
0031
,
1000
0010
0000
1000
0001
0000
0100
0000
1000
0000
0100
0000
0001
0000
0000
0000
,
0001
0100
1000
0000
0001
0010
1000
0000
,
1000
0010
0000
0100
0001
0000
0010
0000
0100
0000
0000
1000
0001
0000
0000
0000
,
0010
0000
0000
0001
1000
0000
0000
0000
0100
0000
0000
1000
0010
0000
0100
0000
,
0001
0000
0110
0000
1000
0001
0100
0001
,
0010
0000
0000
1001
0000
0000
0000
0000
0100
0000
1000
0000
0100
0000
0010
0000
,
0100
0000
1000
0001
0000
0010
0000
0000
0001
0000
0001
0000
0001
0000
0001
0000
,
0001
0000
0001
0000
0001
0010
0001
0000
1000
0000
1000
0000
1000
0000
1000
0000
,
1000
0000
1000
0000
1000
0010
1000
0000
0100
0000
0010
0000
0001
0000
1000
0000
,
0001
0000
0000
0110
0000
0000
0000
0000
0001
0000
0010
0000
0100
0000
1000
0000
,
0100
0000
0010
0001
0000
1000
0000
0000
0010
0000
0010
0000
0010
0000
0010
0000
,
0010
0000
0010
0000
0010
1000
0010
0000
0100
0000
0100
0000
0100
0000
0100
0000
,
0100
0001
1000
0000
0210
0000
1300
0000
,
0210
1300
0120
0031
,
0100
0001
0000
1000
0001
0000
0010
0000
2100
0000
0000
0000
3001
0000
0000
0000
,
2100
3001
0012
1003
,
0100
0010
0000
0100
0001
0000
0100
0000
0001
0000
0010
0000
1000
0000
0000
0000
,
1000
0010
0001
0000
1000
0100
0001
0000
,
0100
1000
0000
0001
1000
0000
0010
0000
0100
0000
0000
0001
0010
0000
0000
0000
,
0100
0000
0000
1000
0010
0000
0000
0000
0100
0000
0000
0001
1000
0000
0010
0000
,
0100
0000
1001
0000
0010
0010
0010
0000
,
1000
0000
0000
0101
0000
0000
0010
0000
1000
0000
1000
0000
1000
0000
0000
0000
,
0001
1000
0000
0020
0000
0000
0130
0000
0100
0000
0100
0000
0000
0000
0001
0000
,
0000
1010
0000
0000
0100
0000
0001
0000
0001
0000
0001
0000
0000
0000
1000
0001
,
0000
0210
0000
0000
1300
0000
0010
0000
0010
0000
1000
0000
0010
0000
0001
0000
,
0010
0100
0001
1000
1000
0000
0102
0000
,
0013
0000
0100
0000
1000
0000
0100
0000
0001
0000
1000
0000
0000
0100
0010
0000
,
0000
0000
0001
0000
1000
0000
0010
0000
0100
0000
0001
1000
0000
0210
0000
0000
,
0302
0000
1000
0000
0010
0000
0103
0001
,
0020
0000
0001
0000
1000
0000
0130
0010
,
0002
0000
1000
0000
0000
1000
0000
0000
2003
0000
0001
0000
0000
3001
0000
0000
,
2002
0000
3003
0000
,
0001
0000
1000
0000
0100
0000
0010
0000
0001
0000
0000
1000
0000
0001
0010
0000
,
0100
0000
1000
0000
0001
0000
0010
0000
0100
0000
0010
0001
0000
1000
0000
0000
,
0001
0000
0001
0000
0001
0000
0001
0000
0001
0000
0001
0000
0001
0100
0001
0000
,
1000
0000
1000
0000
1000
0000
1000
0000
1000
0000
1000
0000
1000
0010
1000
0000
,
0010
0000
0100
0000
0001
0000
0100
0000
0010
0000
0000
1000
0000
0100
0010
0000
,
0001
0000
1000
0000
0100
0000
0001
0000
0100
0000
1000
0010
0000
0100
0000
0000
,
0010
0000
0010
0000
0010
0000
0010
0000
0010
0000
0010
0000
0010
1000
0001
0000
,
0100
0000
0100
0000
0100
0000
0100
0000
0100
0000
0100
0000
0100
0001
1000
0000
,
0100
0000
0000
0000
1001
0000
0000
0000
0010
0000
0000
1002
0000
0000
0013
0000
,
0000
0000
1001
0000
0000
0000
0100
1000
0000
0001
0000
2002
0000
0000
3003
0000
;

//---------------dance-single - ----------------
#NOTEDATA:;
#CHARTNAME:CHALLENGE;
#CHARTHASH:787513451;
#STEPSTYPE:dance-single;
#BANNER:;
#DESCRIPTION:;
#CHARTSTYLE:;
#DIFFICULTY:Challenge;
#METER:15;
#METERF:15.000000;
#LASTSECONDHINT:119.390373;
#RADARVALUES:0.614873,0.784015,0.373909,0.216037,0.560864,518.000000,473.000000,45.000000,26.000000,0.000000,0.000000,0.000000,0.000000,0.000000,0.614873,0.784015,0.373909,0.216037,0.560864,518.000000,473.000000,45.000000,26.000000,0.000000,0.000000,0.000000,0.000000,0.000000;
#CREDIT:YonabearCWY;
#NOTES:
// measure 0
0000
0000
0000
0000
,  // measure 1
0000
0000
0000
0000
,  // measure 2
0000
0000
0000
0000
,  // measure 3
0000
0000
0000
0000
,  // measure 4
1000
0000
0001
0010
0001
0000
0010
0000
0100
0000
1000
0001
0000
0100
0001
0000
,  // measure 5
0010
0001
0010
0000
0001
0000
1000
0000
0100
0010
0000
0001
1010
0000
1000
0001
,  // measure 6
1000
0000
0000
0000
0000
0000
0101
0000
0000
0000
0000
0000
0001
0000
0000
1000
0000
0000
0001
0000
0000
0000
0000
0000
1000
0000
0001
0000
1000
0000
0001
0000
1000
0000
0001
0000
1000
0000
0001
0000
1000
0000
0001
0000
1000
0000
0001
0000
,  // measure 7
1000
0000
0000
0010
0000
0100
0001
0010
0100
0000
1000
0000
0001
0000
1000
0000
,  // measure 8
0100
1000
0000
0001
0000
0000
0000
0000
1000
0000
0001
0000
0010
0000
0001
0000
,  // measure 9
0100
0000
0010
1000
0000
0001
0000
0000
0100
0000
0100
0000
0100
0000
0100
0000
,  // measure 10
0100
0000
0100
0000
0100
0001
1000
0001
0010
0000
0010
0000
0010
0000
0010
0000
,  // measure 11
0010
0000
0010
0000
0010
0001
0010
0100
1000
0000
0010
0000
0100
0000
0001
0000
,  // measure 12
0010
0001
0000
1000
0000
0000
0000
0000
0001
0000
0010
0000
0100
0000
1000
0000
,  // measure 13
0001
0000
1000
0100
0000
0010
0000
0000
0001
0000
0001
0000
0001
0000
0001
0000
,  // measure 14
0001
0000
0001
0000
0001
1000
0100
0010
0100
0000
0100
0000
0100
0000
0100
0000
,  // measure 15
0100
1001
1001
0000
1020
0000
0031
0000
,  // measure 16
1200
0301
2001
3010
,  // measure 17
1000
0001
0000
1000
0010
0000
0010
0000
0201
0000
0000
0000
1300
0000
0000
0000
,  // measure 18
0021
1030
1002
0103
,  // measure 19
0001
1000
0000
0001
0100
0000
0100
0000
1010
0000
1000
0000
0001
0000
0000
0000
,  // measure 20
0011
0001
1000
0000
1100
1000
0001
0000
,  // measure 21
0100
0010
0000
1000
0010
0000
0110
0000
0100
0001
0000
1000
0001
0000
0101
0000
,  // measure 22
0001
1000
0000
0010
1000
0000
1100
0000
1000
0010
0000
0100
0001
0100
0010
0000
,  // measure 23
0100
0000
1001
0000
0010
1000
0100
0010
,  // measure 24
0001
1000
0001
1000
0000
0000
0000
0000
0100
0000
0010
0000
0001
0000
1000
0000
,  // measure 25
0010
0000
0100
0001
0000
0010
0000
0000
0100
0000
0100
0000
0100
0000
0100
0000
,  // measure 26
0100
0000
0100
0000
0100
1000
0001
0010
0001
0000
0001
0000
0001
0000
0001
0000
,  // measure 27
0001
0000
0001
0000
0001
1000
0010
1000
0100
0000
1000
0000
0001
0000
0010
0000
,  // measure 28
0100
0010
0100
0010
0000
0000
0000
0000
1000
0000
0001
0000
0100
0000
0010
0000
,  // measure 29
0100
0000
0001
1000
0000
0100
0000
0000
1000
0000
1000
0000
1000
0000
1000
0000
,  // measure 30
1000
0000
1000
0000
1000
0001
0010
0100
0010
0000
0010
0000
0010
0000
0010
0000
,  // measure 31
0010
1001
1001
0000
0021
0000
1030
0000
,  // measure 32
0201
1300
1002
0013
,  // measure 33
1000
0001
0000
0010
0001
0000
1000
0000
1200
0000
0000
0000
0301
0000
0000
0000
,  // measure 34
1020
0031
2001
3100
,  // measure 35
0001
1000
0000
0001
0100
0000
0010
0000
1010
0000
0100
0000
0001
0000
0000
0000
,  // measure 36
1100
1000
0001
0000
0110
0001
1000
0000
,  // measure 37
0001
0010
0000
0001
0100
0000
1010
0000
1000
0100
0000
0010
0001
0000
0110
0000
,  // measure 38
0001
0100
0000
0010
0001
0000
1001
0000
1000
0010
0000
0100
1000
0000
0101
0000
,  // measure 39
0010
0000
0110
0000
1000
0001
0010
0000
,  // measure 40
0100
0000
0000
1000
0000
0001
0010
0000
0001
0000
0100
0000
1000
0000
0000
0000
,  // measure 41
0010
0100
0000
1002
0000
0000
0013
0000
0001
0000
1000
0000
0000
0000
0100
0000
,  // measure 42
0000
1000
0000
0010
0100
0000
0001
0000
0010
0000
1000
0000
0000
0000
0100
0010
,  // measure 43
0000
2002
0000
3003
0100
0000
0001
0000
0100
0000
0010
0000
1000
0001
0000
0010
,  // measure 44
0000
0000
0000
0001
0000
0000
0100
0000
0000
0000
0000
0000
0010
0000
0000
0000
0000
0000
1000
0000
0000
0000
0000
0000
0100
0000
0000
0000
0000
0000
0010
0000
0000
0000
0000
0000
0001
0000
1000
0000
0001
0000
1000
0000
0001
0000
1000
0000
,  // measure 45
0002
0000
0103
0000
0001
0000
0010
0000
0001
0000
1000
0100
0000
0010
0000
0001
,  // measure 46
0100
0000
0010
0000
1000
0000
0001
0000
1000
0000
0100
0010
0000
2002
0000
3003
,  // measure 47
1000
0000
2010
0000
0000
0100
0000
0000
3001
0000
0000
0010
0100
0000
1000
0001
,  // measure 48
0100
0000
0000
0000
0000
0000
0102
0000
0000
0000
0000
0000
0000
0000
0000
1000
0000
0000
0000
0000
0000
0000
0000
0000
0013
0000
0000
0001
0000
0000
0000
0000
0000
1000
0000
0000
0001
0000
0000
0000
0000
0000
0010
0000
0100
0000
0010
0000
,  // measure 49
0100
0000
1000
0000
0001
0020
0000
0000
0130
0000
1000
0000
0100
0020
0000
0000
,  // measure 50
0130
0000
0000
0000
1000
0000
0000
0000
0001
0000
0000
0000
0010
0000
0000
0000
1000
0000
0000
0000
0010
0000
0000
0000
0001
0000
0000
0000
0000
0000
0000
0000
0000
0110
0000
0000
0000
0000
0000
1000
0000
0000
0100
0000
0000
0010
0000
0000
,  // measure 51
0001
0000
1000
0000
0100
0000
0001
0000
0100
1000
0000
1001
0000
0000
0000
0000
,  // measure 52
0001
0000
0010
0000
0100
0000
0001
0000
1000
0000
0010
0001
0000
1001
0000
0000
,  // measure 53
0010
0000
0010
0000
0010
0000
0010
0000
0010
0000
0010
0000
0010
0001
1000
0100
,  // measure 54
1000
0000
1000
0000
1000
0000
1000
0000
1000
0000
1000
0000
1000
0001
0010
0100
,  // measure 55
0010
0000
0001
0000
1000
0000
0100
0000
0001
0100
0000
0110
0000
0000
0000
0000
,  // measure 56
0001
0000
1000
0000
0100
0000
0010
0000
0100
0000
1000
0001
0000
0011
0000
0000
,  // measure 57
0100
0000
0100
0000
0100
0000
0100
0000
0100
0000
0100
0000
0100
1000
0001
1000
,  // measure 58
0010
0000
0010
0000
0010
0000
0010
0000
0010
0000
0010
0000
0010
0100
1000
0001
,  // measure 59
0100
0000
0001
0010
0001
0000
0010
0000
0100
1000
0000
2002
0000
3003
0010
0000
,  // measure 60
0100
0001
0100
0000
0010
0000
1000
0001
1000
0010
0000
2002
0000
0000
3003
0000
;
