#VERSION:0.83;
#TITLE:BabeL;
#SUBTITLE:~Grand Story~;
#ARTIST:Ako Atak;
#TITLETRANSLIT:;
#SUBTITLETRANSLIT:;
#ARTISTTRANSLIT:;
#GENRE:SPIRAL STAIRS;
#ORIGIN:;
#TAGS:;
#CREDIT:YonabearCWY;
#BANNER:BabeL ~Grand Story~.png;
#BACKGROUND:BabeL ~Grand Story~-bg.png;
#PREVIEWVID:;
#JACKET:BabeL ~Grand Story~-jacket.png;
#CDIMAGE:;
#DISCIMAGE:;
#LYRICSPATH:;
#CDTITLE:pop'n music.png;
#MUSIC:BabeL ~Grand Story~.ogg;
#OFFSET:-0.175000;
#SAMPLESTART:41.170002;
#SAMPLELENGTH:15.000000;
#SELECTABLE:YES;
#BPMS:0.000000=163.000000
;
#STOPS:;
#DELAYS:;
#WARPS:;
#TIMESIGNATURES:0.000000=4=4
;
#TICKCOUNTS:0.000000=4
;
#COMBOS:0.000000=1
;
#SPEEDS:0.000000=1.000000=0.000000=0
;
#SCROLLS:0.000000=1.000000
;
#LABELS:0.000000=Song Start
;
#BGCHANGES:16.000=wheel4.mp4=1.000=1=0=1===CrossFade==,
24.000=tunnel2.mp4=1.000=0=0=1=====,
33.000=water2.mp4=1.000=0=0=1=====,
41.000=rain2.mp4=1.000=0=0=1=====,
49.000=water2.mp4=1.000=0=0=1=====,
57.000=rain2.mp4=1.000=0=0=1=====,
65.000=wheel1.mp4=1.000=0=0=1=====,
74.000=vortex1.mp4=1.000=0=0=1=====,
82.000=text5.mp4=1.000=0=0=1=====,
91.000=rain3.mp4=1.000=0=0=1=====,
97.000=tunnel2.mp4=1.600=0=1=1=StretchRewind====,
111.000=tunnel12.mp4=1.400=0=0=1=====,
113.000=water1.mp4=1.000=0=0=1=====,
126.667=tunnel10.mp4=1.000=0=0=1=====,
137.000=rain2.mp4=1.000=0=1=1=StretchRewind====,
145.000=rain3.mp4=0.500=0=1=1=StretchRewind====,
157.000=tunnel2.mp4=1.600=0=1=1=StretchRewind====,
161.000=wheel4.mp4=1.000=0=1=1=StretchRewind====,
169.000=wheel1.mp4=1.000=0=1=1=StretchRewind====,
177.000=water2.mp4=1.000=0=1=1=StretchRewind====,
185.000=rain2.mp4=1.000=0=1=1=StretchRewind====,
193.000=wheel4.mp4=1.000=0=1=1=StretchRewind====,
209.000=water1.mp4=1.000=0=1=1=StretchRewind====,
217.000=tunnel2.mp4=1.600=0=1=1=StretchRewind====,
223.000=tunnel12.mp4=1.400=0=1=1=StretchRewind====,
225.000=water1.mp4=1.000=0=1=1=StretchRewind====,
233.000=tunnel10.mp4=1.000=0=1=1=StretchRewind====,
241.000=rain2.mp4=1.000=0=1=1=StretchRewind====,
249.000=water2.mp4=1.000=0=1=1=StretchRewind====,
257.000=wheel4.mp4=1.000=0=1=1=StretchRewind====,
265.000=wheel1.mp4=1.000=0=1=1=StretchRewind====,
273.000=tunnel12.mp4=1.000=0=1=1=StretchRewind====,
281.000=tunnel2.mp4=1.000=0=1=1=StretchRewind====,
289.000=rain2.mp4=0.800=0=1=1=StretchRewind====,
297.000=water2.mp4=0.800=0=1=1=StretchRewind====,
298.000=wheel4.mp4=0.800=0=1=1=StretchRewind====,
299.000=rain3.mp4=0.500=0=1=1=StretchRewind====,
311.000=wheel4.mp4=0.500=0=1=1=StretchRewind====,
319.000=BabeL ~Grand Story~-bg.png=1.000=0=0=1=====,
99999.000=-nosongbg-=1.000=0=0=0=StretchNoLoop====,
99999=-nosongbg-=1.000=0=0=0 // don't automatically add -songbackground-
;
#KEYSOUNDS:;
#ATTACKS:
;

//---------------dance-single - ----------------
#NOTEDATA:;
#CHARTNAME:BEGINNER;
#CHARTHASH:4116301001;
#STEPSTYPE:dance-single;
#BANNER:;
#DESCRIPTION:;
#CHARTSTYLE:;
#DIFFICULTY:Beginner;
#METER:5;
#METERF:0.000000;
#LASTSECONDHINT:119.806900;
#RADARVALUES:0.184800,0.266088,0.114623,0.057311,0.000000,158.000000,144.000000,14.000000,7.000000,0.000000,0.000000,0.000000,0.000000,0.000000,0.184800,0.266088,0.114623,0.057311,0.000000,158.000000,144.000000,14.000000,7.000000,0.000000,0.000000,0.000000,0.000000,0.000000;
#CREDIT:YonabearCWY;
#NOTES:
// measure 0
0000
0000
0000
0000
,  // measure 1
0000
0000
0000
0000
,  // measure 2
0000
0000
0000
0000
,  // measure 3
0000
0000
0000
0000
,  // measure 4
1000
1000
1000
0000
,  // measure 5
1000
1000
1000
0000
,  // measure 6
1001
0000
0000
1001
,  // measure 7
0000
0000
0000
1001
,  // measure 8
1000
0100
0000
0100
,  // measure 9
0000
0100
0000
0100
,  // measure 10
0000
0010
0000
0010
,  // measure 11
0000
0010
0000
0010
,  // measure 12
0000
0001
0000
0001
,  // measure 13
0000
0001
0000
0001
,  // measure 14
0000
1000
0000
1000
,  // measure 15
0000
1000
0000
1000
,  // measure 16
0000
0100
0000
0000
,  // measure 17
0000
0000
1001
0000
,  // measure 18
0000
0000
0110
0000
,  // measure 19
0001
0000
1000
0000
,  // measure 20
0100
0000
1000
0000
,  // measure 21
1000
0000
1000
0000
,  // measure 22
0000
0000
0000
0001
,  // measure 23
0000
1000
0000
0010
,  // measure 24
0000
0100
0000
0100
,  // measure 25
0000
0010
0000
1001
,  // measure 26
0000
0100
0000
0100
,  // measure 27
0000
0010
0000
1001
,  // measure 28
0000
1000
0000
0100
,  // measure 29
0000
1000
0000
0010
,  // measure 30
0000
0100
0000
0001
,  // measure 31
0000
0010
0010
1001
,  // measure 32
0000
0001
0000
0100
,  // measure 33
0000
0010
0000
1000
,  // measure 34
0000
0100
0000
1000
,  // measure 35
0000
0110
0000
0000
,  // measure 36
0000
2000
0000
3010
,  // measure 37
0000
2000
0000
3010
,  // measure 38
0000
0200
0000
0301
,  // measure 39
0000
0200
0000
0302
,  // measure 40
0000
1003
0000
0001
,  // measure 41
0000
1000
0000
0010
,  // measure 42
0000
1000
0000
0100
,  // measure 43
0000
1000
0000
0100
,  // measure 44
0000
0010
0000
0001
,  // measure 45
0000
0010
0000
0001
,  // measure 46
0000
1000
0000
0001
,  // measure 47
0000
1000
0000
0100
,  // measure 48
0000
1000
0000
0010
,  // measure 49
0000
0100
0000
0001
,  // measure 50
0000
0010
0000
1000
,  // measure 51
0000
0010
0000
0001
,  // measure 52
0000
1000
0000
0001
,  // measure 53
0000
1000
0000
0001
,  // measure 54
0000
0100
0000
0010
,  // measure 55
0000
0100
0000
0110
,  // measure 56
0000
0010
0000
1000
,  // measure 57
0000
0010
0000
1000
,  // measure 58
0000
0001
0000
0100
,  // measure 59
0000
0001
0001
1000
,  // measure 60
1000
0010
0000
0100
,  // measure 61
0000
0001
0000
0010
,  // measure 62
0000
0001
0000
1000
,  // measure 63
0000
1001
0000
0000
,  // measure 64
0000
1000
0000
0010
,  // measure 65
0000
0100
0000
0001
,  // measure 66
0000
0010
0000
0100
,  // measure 67
0000
1000
1000
0001
,  // measure 68
0001
1010
0000
1000
,  // measure 69
0000
0001
0000
0100
,  // measure 70
0000
0001
0000
1000
,  // measure 71
0000
1001
0000
0000
,  // measure 72
0000
0010
0000
0010
,  // measure 73
0000
0100
0000
0100
,  // measure 74
0000
0001
1000
2001
,  // measure 75
0000
0000
0000
0000
,  // measure 76
0000
0000
0000
0000
,  // measure 77
0000
0000
0000
0002
,  // measure 78
0000
0000
0000
0000
,  // measure 79
0000
0000
0000
0000
,  // measure 80
0000
0000
0000
0000
,  // measure 81
0000
3003
0000
0000
;

//---------------dance-single - ----------------
#NOTEDATA:;
#CHARTNAME:BASIC;
#CHARTHASH:1390302385;
#STEPSTYPE:dance-single;
#BANNER:;
#DESCRIPTION:;
#CHARTSTYLE:;
#DIFFICULTY:Easy;
#METER:8;
#METERF:0.000000;
#LASTSECONDHINT:119.806900;
#RADARVALUES:0.285387,0.465654,0.253807,0.114623,0.073686,244.000000,213.000000,31.000000,14.000000,0.000000,0.000000,0.000000,0.000000,0.000000,0.285387,0.465654,0.253807,0.114623,0.073686,244.000000,213.000000,31.000000,14.000000,0.000000,0.000000,0.000000,0.000000,0.000000;
#CREDIT:YonabearCWY;
#NOTES:
0000
0000
0000
0000
,
0000
0000
0000
0000
,
0000
0000
0000
0000
,
0000
0000
0000
0000
,
1000
0100
1000
0000
,
0001
0100
0001
0000
,
1001
1000
0010
0110
,
0100
0001
1000
1001
,
0000
0010
1000
0100
,
0001
0000
0000
0100
0000
0000
1000
0000
0000
0001
0000
1000
,
0000
1000
0000
1000
0000
0000
0010
0000
0000
0100
0000
0000
,
0001
0000
0000
0010
0000
0000
0100
0000
0000
1000
0000
0001
,
0000
0001
0000
0001
0000
0000
0010
0000
0000
0001
0000
0000
,
0100
0000
0000
0010
0000
0000
1000
0000
0000
0100
0000
1000
,
0000
1000
0000
1000
0000
0000
0010
0000
0000
0100
0000
0000
,
0001
0000
0000
1000
0000
0000
0100
0000
0000
1000
0000
0001
,
0000
0001
0000
0001
0000
0000
1000
0000
0000
0010
0000
0000
,
0010
1000
1010
0000
,
1001
0000
0102
0000
,
2003
0000
3200
0000
,
1300
0100
1002
0000
,
1000
1000
0103
0000
,
0010
0000
1010
0000
0000
1001
0000
0000
,
0001
0000
0000
0000
0000
0000
1001
0000
0000
0000
0000
0000
0000
0000
0000
1100
0000
0000
0000
0000
0000
0000
1000
0000
,
0000
0010
0000
1000
0000
0000
0000
0000
0000
0100
0000
0000
,
0000
0000
0000
1000
0000
0000
0000
0000
1001
0000
0000
0000
,
0000
0001
0000
0010
,
0000
0001
0000
1001
,
0000
1000
0100
1000
,
0010
0100
0001
0010
,
0001
1000
0100
1000
,
0001
0000
0000
1001
0000
0000
0110
0000
0000
0000
0000
0001
,
0000
1000
0100
1000
,
0010
0100
0001
0010
,
0100
1000
0001
0100
,
0010
0000
0000
1000
0000
0001
0000
0001
0000
0001
0000
0000
,
0000
2001
0000
0100
,
0000
0100
0000
0010
,
0000
0010
0000
0100
,
0000
3200
0000
2300
,
0000
3001
0000
0001
,
0000
0100
0000
0100
,
0000
0010
0000
0010
,
0000
1000
0000
1000
,
0000
0001
0000
0100
,
0000
0010
0000
1000
,
0000
0100
0000
1000
,
0000
0010
0000
2001
,
0000
3001
0000
0001
,
0000
1000
0000
1000
,
0000
0010
0000
0010
,
0000
0100
0000
0101
,
0000
0001
0000
0001
,
0000
1000
0000
1000
,
0000
0010
0000
0010
,
0000
1000
0000
1001
,
0000
1000
0010
0100
,
0001
0010
0100
1000
,
0100
1000
0010
0100
,
0001
1001
0110
1001
,
0110
1001
0000
0100
,
0000
0010
0000
0001
,
0000
0010
0000
0001
,
0000
0000
0000
1000
0000
0100
0000
0100
0000
0100
0000
0000
,
0000
1000
1000
0010
,
0010
0100
0100
0001
,
0001
1000
1000
0001
,
0001
1010
0101
1010
,
0101
1010
0000
0010
,
0000
0100
0000
0001
,
0000
1000
0000
0001
,
0000
0000
0000
1000
0000
0001
0000
0001
0000
0001
0000
0000
,
0000
0200
0000
0320
,
0000
2030
0000
3002
,
0000
0103
0101
2001
,
0000
0000
0000
0000
,
0000
0000
0000
0000
,
0000
0000
0000
0002
,
0000
0000
0000
0000
,
0000
0000
0000
0000
,
0000
0000
0000
0000
,
0000
3003
0000
0000
;

//---------------dance-single - ----------------
#NOTEDATA:;
#CHARTNAME:DIFFICULT;
#CHARTHASH:2492128060;
#STEPSTYPE:dance-single;
#BANNER:;
#DESCRIPTION:;
#CHARTSTYLE:;
#DIFFICULTY:Medium;
#METER:11;
#METERF:0.000000;
#LASTSECONDHINT:119.806900;
#RADARVALUES:0.370769,0.498915,0.139185,0.564925,0.466678,317.000000,300.000000,17.000000,69.000000,0.000000,0.000000,0.000000,0.000000,0.000000,0.370769,0.498915,0.139185,0.564925,0.466678,317.000000,300.000000,17.000000,69.000000,0.000000,0.000000,0.000000,0.000000,0.000000;
#CREDIT:YonabearCWY;
#NOTES:
0000
0000
0000
0000
,
0000
0000
0000
0000
,
0000
0000
0000
0000
,
0000
0000
0000
0000
,
1000
0010
2000
0000
,
3001
0100
0002
0000
,
1003
0001
0101
0010
,
1000
1010
0010
0110
,
1000
0000
0000
0001
0000
0001
0000
0000
0000
1000
0000
1000
,
0000
0000
0000
0010
0000
0010
0000
0000
0000
0100
0000
0001
,
0000
0010
0000
0100
0000
0100
0000
0000
0000
1000
0000
1000
,
0000
0000
0000
0100
0000
0100
0000
0000
0000
1000
0000
0100
,
0000
0010
0000
0001
0000
0001
0000
0000
0000
1000
0000
1000
,
0000
0000
0000
0001
0000
0001
0000
0000
0000
0010
0000
0001
,
0000
0010
0000
0100
0000
0100
0000
0000
0000
0001
0000
0001
,
0000
0000
0000
0100
0000
0100
0000
0000
0000
1000
0000
0100
,
0000
1000
0000
0001
0000
0000
1000
0000
0000
0001
0000
0000
,
0100
0001
0010
0000
0102
0000
0000
1003
,
0001
0000
0100
0000
0010
0100
0000
0100
,
0001
1000
0010
0000
0010
1000
0001
0000
,
0001
1000
0100
0000
1100
0000
1000
0000
,
0010
0000
0000
1000
0000
0000
0001
0000
0000
0000
0000
0000
0100
0000
0000
0000
0100
0000
0000
0000
0001
0000
0000
0000
,
1000
0000
0011
0000
0001
1000
0000
1000
,
0001
0000
0000
0000
0000
0000
0001
0000
0010
0000
0001
0000
0010
0000
0000
0001
0000
0000
1000
0000
0000
0000
0100
0000
,
0000
1000
0000
0010
0000
0010
0000
0000
0000
1000
0000
1000
,
0000
0000
0000
0001
0000
0001
0000
0000
1001
0000
0000
1000
,
0000
0010
0000
0100
0000
0100
0000
0000
0000
0001
0000
0001
,
0000
0000
0000
0010
0000
0010
0000
0001
0000
1000
0000
0000
,
0000
0000
0000
0200
0000
0000
0000
0000
0000
1300
0000
0100
,
0000
1000
0000
0002
0000
0000
0000
0000
0000
1003
0000
0001
,
0000
0010
0000
0002
0000
0000
0000
0000
0000
0103
0000
0010
,
0000
1000
0000
0010
0000
0010
1000
0000
1001
0000
0000
0100
,
0000
0000
0001
0100
0000
0010
0000
1000
0000
0100
0000
1000
,
0000
0100
0000
0020
0000
0000
0000
0000
0000
0031
0000
0010
,
0000
0010
0000
0002
0000
0000
0000
0000
0000
1003
0000
0100
,
0000
0100
0000
0010
0000
0001
0000
1000
0000
1001
0000
0001
,
0000
0100
0000
0020
0000
0000
0000
0000
0000
2030
0000
0000
,
0000
3200
0000
0302
,
0000
2003
0000
3020
,
0000
0000
0000
0031
0000
0001
0000
0001
0000
0100
0000
0100
,
0000
0100
0000
0010
0000
0020
0000
0000
0000
1000
0000
1000
,
0000
0000
0000
0001
0000
0001
0000
0000
0000
0230
0000
0000
,
0000
0000
0000
0301
0000
0002
0000
0000
0000
1000
0000
1000
,
0000
0000
0000
0100
0000
0100
0000
0000
0000
2003
0000
0000
,
0000
3020
0000
2030
,
0000
0000
0000
3002
0000
0000
0000
0000
0000
1003
0000
0001
,
0000
1000
0000
0020
0000
0000
0000
0000
0000
0230
0000
0000
,
0000
0000
0000
0302
0000
0000
0000
0000
0000
0013
0000
0001
,
0000
1000
0000
0200
0000
1000
0000
0000
0000
1000
0000
1000
,
0000
0000
0000
2300
0000
0010
0000
0000
0000
0010
0000
0010
,
0000
0000
0000
3020
0000
0100
0000
0000
0000
0100
0000
0100
,
0000
0000
0000
0230
0000
0001
0000
0000
0000
0001
0000
0301
,
0000
1000
0000
0020
0000
0000
0000
0000
0000
2030
0000
0000
,
0000
3200
0000
2300
,
0000
3002
0000
0023
,
0000
0000
0000
0031
0000
0001
1000
0001
1000
0010
0000
0000
,
0000
0000
0000
0120
0000
0100
0000
0000
0000
0130
0000
0001
,
0000
1000
0000
2010
0000
0010
3000
0000
0000
1002
0000
0000
,
0000
0000
0000
0203
0000
0001
0000
0000
0000
0301
0000
0100
,
0000
0010
0000
1000
0000
1000
0010
0000
0010
1000
0000
1000
,
0010
0000
0010
2000
0000
0000
0000
0100
0000
3200
0000
0000
,
1000
0000
0000
0320
0000
0000
0000
0001
0000
0032
0000
0000
,
1000
0203
0320
2030
,
3200
0000
0000
1300
0000
0001
0000
1000
0000
0002
0000
0000
,
0000
0000
0000
0203
0000
0010
0000
0000
0000
0320
0000
1000
,
0000
0000
0000
2030
0000
0001
0000
0000
0000
3002
0000
0000
,
0000
0000
0000
2003
0000
0100
0000
0000
0000
3200
0000
0010
,
0000
0000
0000
0310
0000
0010
0001
0000
0001
0010
0000
0010
,
0001
0000
0001
0020
0000
0000
0000
0001
0000
0032
0000
0000
,
1000
0000
0000
0203
0000
0000
0000
0010
0000
0320
0000
0000
,
0001
2030
3200
2300
,
3002
0000
0000
1003
0000
1001
0000
1100
0000
1001
0000
0001
,
0000
0100
0000
0020
0000
0000
0000
0000
0000
2030
0000
0000
,
0000
3200
0000
0302
,
0000
0103
1100
2002
,
0000
0000
0000
0000
,
0000
0000
0000
0000
,
0003
3020
0000
0200
,
0000
0000
0000
0000
,
0000
0000
0000
0000
,
0000
0000
0000
0000
,
0000
0330
0000
0000
;

//---------------dance-single - ----------------
#NOTEDATA:;
#CHARTNAME:EXPERT;
#CHARTHASH:195370362;
#STEPSTYPE:dance-single;
#BANNER:;
#DESCRIPTION:;
#CHARTSTYLE:;
#DIFFICULTY:Hard;
#METER:14;
#METERF:0.000000;
#LASTSECONDHINT:119.806900;
#RADARVALUES:0.609371,0.698481,0.417554,0.360242,1.002947,521.000000,470.000000,51.000000,44.000000,0.000000,0.000000,0.000000,0.000000,0.000000,0.609371,0.698481,0.417554,0.360242,1.002947,521.000000,470.000000,51.000000,44.000000,0.000000,0.000000,0.000000,0.000000,0.000000;
#CREDIT:YonabearCWY;
#NOTES:
0000
0000
0000
0000
,
0000
0000
0000
0000
,
0000
0000
0000
0000
,
0000
0000
0000
0000
,
1000
0000
1000
0010
0000
0010
0100
0000
0001
0000
0100
0000
,
0010
0000
0010
1000
0000
1000
0001
0000
1000
0000
0100
0000
,
2001
0001
3010
1002
,
1000
0103
0001
1001
,
0100
0000
0000
1000
0000
1000
0000
0010
0000
1000
0000
1000
,
0000
0001
0000
0100
0000
0100
0000
0001
0000
0010
0000
0110
,
0000
1100
0000
1000
0000
1000
0000
0001
0000
1000
0000
1000
,
0000
0001
0000
0010
0001
0010
0001
0000
0001
0100
0000
0110
,
0000
0101
0000
0001
0000
0001
0000
1000
0000
0100
0000
0100
,
0000
1000
0000
0010
0000
0010
1000
0000
1000
0100
0000
1100
,
0000
1001
0000
1000
0000
1000
0000
0010
0000
1000
0000
1000
,
0000
0001
0000
1000
0000
1000
0010
0000
0010
0100
0000
0101
,
0000
0000
1001
0000
0000
0000
0010
0000
0000
0000
0000
0000
0210
0000
0000
0000
0000
0000
0000
0000
0000
0301
0000
0000
,
0100
0000
0000
0010
0000
0000
1000
0000
0000
0000
0000
0000
1000
0000
0100
0000
1000
0000
0100
0000
0000
0000
0100
0000
,
1000
0010
0100
0001
0001
1000
0020
0000
,
0130
0000
0000
0001
0000
0000
2000
0000
0000
0000
0000
0000
3001
0000
0000
1000
0000
0000
0100
0000
0000
0000
0100
0000
,
0000
0000
1000
0000
0000
0000
1001
0000
0000
0000
0000
0000
0210
0000
0000
0000
0000
0000
0000
0000
0000
0301
0000
0000
,
0100
0000
0000
0001
0000
0000
1000
0000
0000
0000
0000
0000
1000
0000
0100
0000
0010
0000
0001
0000
0000
0010
0000
0000
,
0001
1000
0100
1000
1000
0010
2000
0000
,
3001
0000
0000
0100
0000
0000
0020
0000
0000
0000
0000
0000
1030
0000
0000
0001
0000
0000
0100
0000
0000
0000
0101
0000
,
0000
1001
0000
1010
0000
0000
0010
0100
0000
0101
0000
0101
,
0000
1000
0001
1000
0000
1010
0000
0000
1100
0000
0000
1001
,
0000
0011
0000
0101
0000
0000
0001
1000
0000
1100
0000
1100
,
0000
1000
0001
1000
0000
1100
0000
1001
0000
0110
0000
0000
,
0000
0000
0000
1000
0000
1000
0000
0010
0000
0100
0000
0001
,
0000
0001
0000
0010
0000
0001
0000
1000
0000
0100
0000
0100
,
0000
1000
0000
0010
0000
1000
0000
1000
0000
0100
0000
1000
,
0000
0100
0000
0010
0001
0010
0001
0000
1001
0000
0000
1100
,
0000
0001
1000
0010
0000
0010
1000
0010
1000
0001
0000
0001
,
0000
0100
0000
0010
1000
0010
1000
0100
1000
0100
0000
1000
,
0000
0010
0100
0001
0000
0011
0000
0001
1000
0100
0000
1100
,
0000
1000
0010
0100
0000
0010
0000
0010
0000
1000
0000
1000
,
0000
0001
0000
0200
0000
0000
0000
0000
0000
0301
0000
0010
,
0000
0100
0000
2000
0000
0000
0000
0000
0000
3010
0000
1000
,
0000
0001
0000
2000
0000
0000
0000
0000
0000
3001
0000
1000
,
0000
0100
0000
0001
0000
0100
0000
1000
0000
0010
0000
0100
,
0000
0001
0000
0010
0000
0001
0000
0100
0001
0200
0000
0001
,
0000
0001
0000
0301
0000
1000
0000
0100
1000
0200
0000
1000
,
0000
1000
0000
1300
0000
1000
0001
0000
0001
1000
0000
0010
,
0000
1000
0000
0001
0000
0001
0100
0000
0100
0010
0000
1000
,
0000
0010
0000
0100
0000
0100
0001
0100
0000
0001
0000
0010
,
0001
0010
0000
0001
0000
1000
0001
1000
0000
0100
0000
1000
,
0100
1000
0000
0010
0000
0010
1000
0000
1000
0010
0000
0100
,
0000
0001
0000
0100
0000
0100
0010
0000
0010
1000
0000
0100
,
0000
0001
0000
0200
0000
0000
1000
0000
0000
2300
0000
0010
,
0000
0010
0000
3020
0000
0000
0100
0000
0000
0230
0000
0001
,
0000
1000
0000
0310
0000
0010
0100
0000
0100
0002
0000
1000
,
0000
0100
0000
1003
0000
1000
0010
0000
0010
0200
0000
0001
,
0000
1000
0000
0310
0000
0100
0010
0100
0000
0201
0000
0010
,
0000
0302
0000
1003
0000
0100
1000
0100
0000
1200
0000
0010
,
0000
2300
0000
3001
0000
1000
0100
0010
0000
0001
0000
0010
,
0100
1000
0000
0001
1000
0000
0100
1000
0001
0100
0000
0000
,
0000
0000
0000
2001
0000
0000
0000
3001
0100
0001
0000
0010
,
0000
0001
0000
1002
0000
1000
0000
1003
0100
1000
0000
1100
,
0000
1001
0000
0120
0000
0000
0000
1030
0100
1000
0000
0010
,
0000
0100
0000
0001
0000
0001
0010
0000
0010
0001
0000
0001
,
1000
0000
1000
0200
0000
0000
1300
0010
1000
0001
0000
0010
,
0000
0001
0000
0201
0000
0301
1000
0001
1000
0100
0000
1000
,
0000
0010
1000
0001
0000
0010
0000
0001
0000
0101
0000
0001
,
0000
1000
0000
1010
0000
1000
0000
1001
0000
0110
0000
0010
,
1000
0001
0100
0002
0000
0000
1000
0000
0000
0203
0000
0010
,
0000
0320
0000
2030
0000
0010
0000
0000
0000
3200
0000
0001
,
0000
1300
0000
0100
0000
1000
0000
1000
0000
0100
0000
1000
,
0000
1000
0000
0010
0000
0010
1000
0000
1000
0001
0000
0001
,
0100
0000
0100
0020
0000
0000
1030
0001
1000
0010
0000
0100
,
0000
0001
0000
0021
0000
0031
1000
0100
1000
0100
0000
1000
,
0000
0010
1000
0100
0000
0100
0000
1000
0010
1000
0000
0001
,
0000
0100
0001
0100
0000
0101
0000
1001
0000
1010
0000
1000
,
0010
0100
0001
2000
0000
0000
0010
0000
0000
3020
0000
0000
,
0100
0230
0001
0302
,
1000
1003
1010
2001
,
0000
0001
0000
0001
,
0000
0001
0000
3002
,
0000
0203
0000
0320
,
0000
1000
0000
1000
,
0000
1000
0000
2000
,
0000
0000
0000
0000
,
0000
3030
0000
0000
;

//---------------dance-single - ----------------
#NOTEDATA:;
#CHARTNAME:CHALLENGE;
#CHARTHASH:3338048468;
#STEPSTYPE:dance-single;
#BANNER:;
#DESCRIPTION:;
#CHARTSTYLE:;
#DIFFICULTY:Challenge;
#METER:16;
#METERF:0.000000;
#LASTSECONDHINT:119.806900;
#RADARVALUES:0.743877,0.798264,0.679548,0.417554,1.293597,636.000000,553.000000,83.000000,51.000000,0.000000,0.000000,0.000000,0.000000,0.000000,0.743877,0.798264,0.679548,0.417554,1.293597,636.000000,553.000000,83.000000,51.000000,0.000000,0.000000,0.000000,0.000000,0.000000;
#CREDIT:YonabearCWY;
#NOTES:
0000
0000
0000
0000
,
0000
0000
0000
0000
,
0000
0000
0000
0000
,
0000
0000
0000
0000
,
1000
0000
1000
0010
0000
0010
1000
0000
0100
0000
1000
0000
,
0010
0000
0010
0100
0000
0100
0001
0000
0010
0000
0001
0000
,
1001
0000
0000
0100
0000
0000
1000
0100
0000
1000
0000
0010
,
1000
0000
0000
1000
0001
1000
0001
0000
0010
0001
0100
0000
,
0001
0000
0000
1001
0000
1000
0000
0100
0000
1100
0000
1000
,
0000
0010
0000
0110
0000
0100
0000
0001
0010
0001
0000
1001
,
0000
1100
0000
1010
0000
0010
0000
1000
0000
1001
0000
0001
,
0000
1001
0000
1000
0010
0100
0001
0000
0001
0010
0001
0010
,
0001
1000
0001
1000
0000
0100
1000
0100
0000
1000
0000
0010
,
0100
0010
0000
0100
0000
0001
1000
0001
0000
1000
0000
1100
,
0000
1010
0000
1001
0000
1000
0100
0010
0000
0001
0000
0010
,
0001
0100
0000
0001
1000
0001
1000
0100
0000
0011
0000
1010
,
0000
1001
0000
0210
0000
0000
0320
0000
0000
1000
0000
0000
,
2030
0000
0000
0000
0100
0000
0000
0000
3100
0000
1000
0000
0010
0000
1000
0100
,
1000
0000
0001
0000
0010
0000
0001
1000
0200
0000
1000
0000
1000
0000
1300
0001
,
0200
0000
0000
0000
0000
0000
0010
0000
0000
0000
0000
0000
0310
0000
0000
0000
0000
0000
0100
0000
0000
0001
0000
0000
2000
0000
0000
0000
0000
0000
0100
0000
0000
0000
0000
0000
3100
0000
0000
0000
0000
0000
0000
0000
1100
0000
0000
0000
,
0000
0000
1001
0000
0000
0000
0110
0000
0000
0000
0000
0000
1020
0000
0000
0000
0000
0000
0000
0000
0000
1030
0000
0000
,
0010
0000
0000
0100
0000
0000
0001
0000
0000
0000
0000
0000
0001
0000
0010
0000
0100
0000
1000
0000
0100
0000
0001
0000
,
0100
0000
0000
0000
1000
0000
0000
0000
0100
0000
0000
0000
0010
0000
0000
0000
0000
0000
0001
0000
0000
1000
0000
0000
0001
0000
0000
0000
0000
0000
1000
0000
0000
0000
0000
0000
1010
0000
0000
0000
0000
0000
0000
0000
0000
0000
0000
0000
,
1001
0000
0000
0001
0000
0000
0100
0000
0000
0010
0000
0000
1000
0000
0100
0000
0010
0000
0001
0000
0100
0000
0010
0000
,
0000
1010
0000
1001
0000
0001
0010
0001
0000
1001
0000
1000
,
0100
0001
0000
1100
0000
1000
0010
0100
0010
0000
0000
1010
,
0000
1001
0000
0110
0000
0010
1000
0001
0000
0011
0000
0001
,
0100
0010
1000
1001
0000
0011
0000
1001
0000
0110
0000
0000
,
0000
0000
0000
2001
0000
0001
0000
0001
0000
3002
0000
0100
,
0000
0100
0000
0203
0000
0010
0000
0010
0000
0320
0000
1000
,
0000
1000
0000
2030
0000
0001
0000
0100
0000
3002
0000
1000
,
0000
0010
0000
1003
0001
0100
0001
0000
1001
0000
0000
0120
,
0000
1030
0010
0200
0000
0301
1000
0001
1000
0100
0000
1100
,
0000
1010
0000
1001
0000
1000
0100
0010
0001
0010
0000
0011
,
0000
0001
1000
0200
0000
1000
0000
1300
0100
0020
0000
0001
,
0000
0031
1000
0000
0000
1100
0000
1010
0000
1001
0000
0100
,
0001
0100
0001
2000
0000
0000
0000
0000
0000
0020
0000
0000
,
3000
0200
0030
0002
,
0300
0000
0000
0000
0000
0000
2000
0000
0000
0000
0000
0000
3003
0000
0000
0000
0001
0100
0001
0000
0000
0000
1000
0000
,
0010
1000
0010
0100
0001
0100
1000
0100
0010
0100
0001
0100
,
0001
0010
0001
2000
0000
0001
0000
0001
0000
3002
0000
0010
,
0000
0010
0000
0023
0000
0001
0000
0001
0000
0032
0000
0100
,
0000
0100
0000
0203
0000
0010
0000
0010
0000
0320
0000
1000
,
0000
1000
0000
1030
0000
0100
1000
0100
1000
0010
0100
0010
,
0100
0001
0010
0001
0000
0001
0010
0100
0000
1000
0000
0100
,
1000
0001
0000
0100
0000
0100
0001
0000
0001
1000
0000
1001
,
0000
0110
0000
0101
0000
0001
1000
0010
0000
0100
0000
0010
,
1000
0000
0100
0000
0000
0000
1000
0000
0000
0000
1000
0000
0010
0000
0000
0000
0010
0000
0100
0001
0100
0000
0001
0000
,
1000
0000
0010
0000
1000
0000
0100
0000
0000
0000
0100
1000
0100
0000
1000
0000
0010
0000
0200
0000
0000
0000
0001
0000
,
0000
0302
0000
1000
0000
1003
0000
0001
1000
0100
0010
0002
,
0000
0100
0000
0103
0000
0001
1000
0010
0000
1010
0000
1000
,
0100
0001
0000
1100
0000
1000
0010
0100
0001
0010
0000
0011
,
0000
1001
0000
0110
0000
0010
1000
0010
0100
0001
0100
0010
,
1000
0100
0001
0100
0000
0100
1000
0100
0010
0100
0000
1100
,
0000
1001
0000
0110
0000
0100
0001
0100
0000
0101
0000
0001
,
1000
0001
1000
0000
1001
0000
0010
0100
0001
1001
0000
0000
,
0000
0000
0000
1200
0000
1000
0000
1000
0000
2300
0000
0010
,
0000
0000
0010
0000
0000
0000
3020
0000
0000
0000
0100
0000
0000
0000
0130
0010
0100
0000
0001
0000
0000
0000
1001
0000
,
0000
1100
0000
2001
0000
0001
0000
0010
0000
3200
0000
1000
,
0000
0000
0001
0000
0000
0000
1300
0000
0000
0000
1000
0100
0010
0000
0000
0000
0010
0100
1000
0000
0000
0000
1000
0001
,
0100
0001
0100
0001
0000
0001
1000
0010
1000
0100
0000
1100
,
0000
1010
0000
1001
0000
0001
0100
1000
0100
0001
0000
0011
,
0000
1000
0001
0100
0000
0110
0000
0010
1000
0100
0000
1100
,
0000
0001
1000
0100
0000
1100
0000
1001
0000
0110
0000
0010
,
1000
0000
0100
0000
1000
0000
0002
0000
0000
0000
0010
0000
0003
0000
0000
0000
0010
0001
0020
0000
0000
0000
0001
0000
,
0000
0000
0001
0000
0000
0000
0032
0000
0000
0000
1000
0000
0003
0000
1000
0001
1000
0000
0100
0000
0000
0000
0100
0000
,
1000
0100
1000
0010
0000
0100
0000
0100
0001
0010
0000
0001
,
0000
0000
1000
0000
0001
0000
0101
0000
0000
0000
0001
1000
0010
0000
0000
0000
1000
0001
0010
0000
0000
0000
1002
0000
,
0000
1003
0100
0010
0000
0001
1000
0001
0010
0002
0000
1000
,
0000
1000
0000
2003
0000
3010
1000
0100
1000
0020
0000
0100
,
0000
0130
0001
0100
0001
1000
0010
1000
0001
0100
0001
1000
,
0000
0001
1000
0010
0000
0110
0000
1001
0000
0110
0000
0010
,
1000
0000
0100
0000
0010
0000
0002
0000
0000
0000
0000
0000
0000
0000
0000
0000
1003
0100
1000
0000
0000
0000
1001
0000
,
0000
0000
0001
0000
0000
0000
0201
0000
0000
0000
0000
0000
0000
0000
0310
0100
0010
0000
0100
0000
0000
0000
0101
0000
,
0000
1001
0000
1010
0000
0000
0110
0000
0000
2002
0000
0000
,
0003
0100
0000
0100
,
0000
0100
0000
0200
,
3000
2300
0000
0002
,
3000
0100
0000
0100
,
0000
0100
0000
0200
,
0000
0000
0000
0000
,
0000
0303
0000
0000
;
