#VERSION:0.83;
#TITLE:BREATHE;
#SUBTITLE:;
#ARTIST:PRODIGY;
#TITLETRANSLIT:;
#SUBTITLETRANSLIT:;
#ARTISTTRANSLIT:;
#GENRE:BIG BEAT;
#ORIGIN:;
#TAGS:;
#CREDIT:YonabearCWY;
#BANNER:BREATHE.png;
#BACKGROUND:BREATHE-bg.png;
#PREVIEWVID:;
#JACKET:BREATHE-jacket.png;
#CDIMAGE:;
#DISCIMAGE:;
#LYRICSPATH:;
#CDTITLE:Dance Mania Diamond.png;
#MUSIC:BREATHE.ogg;
#OFFSET:0.000000;
#SAMPLESTART:51.700306;
#SAMPLELENGTH:15.000000;
#SELECTABLE:YES;
#BPMS:0.000000=130.020004
;
#STOPS:;
#DELAYS:;
#WARPS:;
#TIMESIGNATURES:0.000000=4=4
;
#TICKCOUNTS:0.000000=4
;
#COMBOS:0.000000=1
;
#SPEEDS:0.000000=1.000000=0.000000=0
;
#SCROLLS:0.000000=1.000000
;
#LABELS:0.000000=Song Start
;
#BGCHANGES:-1.000=BREATHE.mp4=1.000=1=0=0=StretchNoLoop==CrossFade==,
187.000=BREATHE-bg.png=1.000=0=0=1=====,
99999.000=-nosongbg-=1.000=0=0=0=StretchNoLoop====,
99999=-nosongbg-=1.000=0=0=0 // don't automatically add -songbackground-
;
#KEYSOUNDS:;
#ATTACKS:
;

//---------------dance-single - ----------------
#NOTEDATA:;
#CHARTNAME:BEGINNER;
#CHARTHASH:2720414379;
#STEPSTYPE:dance-single;
#BANNER:;
#DESCRIPTION:;
#CHARTSTYLE:;
#DIFFICULTY:Beginner;
#METER:3;
#METERF:3.000000;
#LASTSECONDHINT:83.987076;
#RADARVALUES:0.131330,0.209143,0.068948,0.045965,0.000000,80.000000,74.000000,6.000000,4.000000,0.000000,0.000000,0.000000,0.000000,0.000000,0.131330,0.209143,0.068948,0.045965,0.000000,80.000000,74.000000,6.000000,4.000000,0.000000,0.000000,0.000000,0.000000,0.000000;
#CREDIT:YonabearCWY;
#NOTES:
// measure 0
0000
0000
0000
0000
,  // measure 1
0000
0000
0000
0000
,  // measure 2
0000
0000
0000
0000
,  // measure 3
0000
0000
0000
0000
,  // measure 4
1000
0000
1000
0000
,  // measure 5
1000
0000
0000
0000
,  // measure 6
0001
0000
0001
0000
,  // measure 7
0001
0000
0000
0000
,  // measure 8
1000
0000
1000
0000
,  // measure 9
1000
0000
0000
0000
,  // measure 10
0001
0000
0001
0000
,  // measure 11
0001
0000
0000
0000
,  // measure 12
0100
0100
0100
0000
,  // measure 13
0100
0000
0000
0000
,  // measure 14
0010
0010
0010
0000
,  // measure 15
0010
0000
0000
0000
,  // measure 16
0100
0100
0100
0000
,  // measure 17
0100
0000
0000
0000
,  // measure 18
0010
0010
0010
0000
,  // measure 19
0010
0000
1001
0000
,  // measure 20
1000
1000
1000
1000
,  // measure 21
0000
0000
0000
0000
,  // measure 22
0001
0001
0001
0001
,  // measure 23
0000
0000
0000
0000
,  // measure 24
0100
0100
0100
0100
,  // measure 25
0000
0000
0000
0000
,  // measure 26
0010
0010
0010
0010
,  // measure 27
0000
0000
0000
0000
,  // measure 28
1001
0000
0000
0000
,  // measure 29
1000
0000
1000
0000
,  // measure 30
1000
0000
0000
0000
,  // measure 31
0001
0000
1000
0000
,  // measure 32
0110
0000
0000
0000
,  // measure 33
0001
0000
0001
0000
,  // measure 34
0001
0000
0000
0000
,  // measure 35
1000
0100
0010
0001
,  // measure 36
2000
0000
0000
3000
,  // measure 37
1000
0000
1000
0000
,  // measure 38
1001
0000
0000
0000
,  // measure 39
0001
0000
0010
0000
,  // measure 40
0200
0000
0000
0300
,  // measure 41
0010
0000
0010
0000
,  // measure 42
0110
0000
0000
0000
,  // measure 43
1000
0100
0010
0001
,  // measure 44
2002
0000
0000
0000
,  // measure 45
0000
0000
3003
0000
;

//---------------dance-single - ----------------
#NOTEDATA:;
#CHARTNAME:BASIC;
#CHARTHASH:2977783794;
#STEPSTYPE:dance-single;
#BANNER:;
#DESCRIPTION:;
#CHARTSTYLE:;
#DIFFICULTY:Easy;
#METER:5;
#METERF:5.000000;
#LASTSECONDHINT:83.987076;
#RADARVALUES:0.203561,0.287571,0.206844,0.298775,0.000000,124.000000,106.000000,18.000000,26.000000,0.000000,0.000000,0.000000,0.000000,0.000000,0.203561,0.287571,0.206844,0.298775,0.000000,124.000000,106.000000,18.000000,26.000000,0.000000,0.000000,0.000000,0.000000,0.000000;
#CREDIT:YonabearCWY;
#NOTES:
0000
0000
0000
0000
,
0000
0000
0000
0000
,
0000
0000
0000
0000
,
0000
0000
0000
0000
,
1000
1000
0001
0000
,
0001
0000
0001
0000
,
0100
0100
0010
0000
,
0010
0000
0010
0000
,
0100
0100
0001
0000
,
0001
0000
1000
0000
,
0100
0100
1000
0000
,
0010
0000
1001
0110
,
1001
1000
0100
0000
,
1000
0010
0100
0001
,
0010
0001
0100
0000
,
0010
1000
0100
0000
,
1000
0001
0100
0000
,
0001
0010
0100
1000
,
0001
1000
0100
0000
,
1000
0010
1100
1001
,
0001
0001
0001
0000
,
0100
0100
0100
0000
,
0010
0010
0010
0000
,
1000
1000
1000
0000
,
0100
0100
0100
0000
,
0010
0010
0010
0000
,
0001
0001
0001
0000
,
1000
1000
1001
0110
,
2002
0000
3003
0000
,
0200
0300
0200
0300
,
0220
0000
0330
0000
,
0010
1000
0010
1001
,
2200
0000
3300
0000
,
0002
0003
0002
0003
,
0202
0000
0303
0000
,
0001
0010
1000
0011
,
2002
0000
0000
3003
,
0200
0300
0200
0300
,
0220
0000
0000
0330
,
0010
0010
0010
0010
,
2002
0000
0000
3003
,
0020
0030
0020
0030
,
0220
0000
0000
0330
,
0100
0100
0100
0100
,
2002
0000
0000
0000
,
0000
0000
3003
0000
;

//---------------dance-single - ----------------
#NOTEDATA:;
#CHARTNAME:DIFFICULT;
#CHARTHASH:3606366272;
#STEPSTYPE:dance-single;
#BANNER:;
#DESCRIPTION:;
#CHARTSTYLE:;
#DIFFICULTY:Medium;
#METER:9;
#METERF:9.000000;
#LASTSECONDHINT:83.987076;
#RADARVALUES:0.372648,0.418285,0.275792,0.252810,0.034474,227.000000,203.000000,24.000000,22.000000,0.000000,0.000000,0.000000,0.000000,0.000000,0.372648,0.418285,0.275792,0.252810,0.034474,227.000000,203.000000,24.000000,22.000000,0.000000,0.000000,0.000000,0.000000,0.000000;
#CREDIT:YonabearCWY;
#NOTES:
0000
0000
0000
0000
,
0000
0000
0000
0000
,
0000
0000
0000
0000
,
0000
0000
0000
0000
,
1000
0000
0001
0000
1000
0100
0010
0001
,
0000
0010
0001
0000
0010
0000
1001
0000
,
0100
0000
0010
0000
0100
0001
0010
0100
,
0000
1000
0100
0000
1000
0000
0110
0000
,
0001
0100
0001
0000
0100
0010
0100
0000
,
0010
1000
0010
0000
1000
0000
1001
0000
,
0100
0010
0100
0000
0010
0001
0010
0000
,
0100
1000
0100
0000
1001
0000
0110
0000
,
1000
0000
0101
0000
1000
1000
0000
0001
,
0000
0010
0001
0000
1000
0100
0000
1000
,
0001
0010
0100
0000
1000
0010
0000
1000
,
0100
0010
0001
0000
0000
0100
0000
0010
,
0100
0010
1000
0000
0001
0100
0000
0001
,
1000
0100
0010
0000
0000
0001
0000
1000
,
0100
1000
0001
0000
0100
0010
0100
0001
,
0100
0010
1001
0110
,
1000
1000
0001
0000
0100
0010
0100
0000
,
0001
0000
0001
0000
1000
0000
0000
0100
0000
0000
1000
0000
0010
0000
0000
0000
,
0100
0100
0010
0000
1000
0001
1000
0000
,
0010
0000
0010
0000
0100
0000
0000
0010
0000
0000
0100
0000
0001
0000
0010
0000
,
0100
0100
1000
0000
0001
1000
0001
0000
,
1000
0000
1000
0000
0100
0000
0000
0010
0000
0000
0001
0000
0010
0000
0100
0000
,
0010
0010
0001
0000
0100
0001
0100
0000
,
0001
0001
1000
0100
0100
1000
1001
0000
,
0120
1000
0001
1000
,
0130
0010
1000
0000
1000
0010
0100
0000
,
0201
0000
0000
0000
0010
0000
0000
0010
0000
0000
0000
0000
0301
0000
0000
0000
,
1000
0100
0010
0000
0010
0001
1001
0000
,
1200
1000
0001
0010
,
1300
0100
0010
0000
0010
0100
1000
0000
,
1002
0000
0000
0000
1000
0000
0000
1000
0000
0000
0100
0000
0103
0000
0000
0000
,
0000
0010
0010
0000
1000
0001
1001
0000
,
2200
0000
0000
3300
,
2002
3003
0220
0330
,
2002
0000
0000
0000
3003
1000
0100
0000
,
1000
0000
0100
0000
1000
0000
0100
0000
0000
0100
0000
0000
1000
0000
0100
0000
,
0022
0000
0000
0033
,
2002
3003
0220
0330
,
2002
0000
0000
0000
3003
0001
0010
0000
,
0001
0100
0001
0000
1000
0100
0010
0001
,
2002
0000
0000
0000
,
0000
0000
3003
0000
;

//---------------dance-single - ----------------
#NOTEDATA:;
#CHARTNAME:EXPERT;
#CHARTHASH:174270092;
#STEPSTYPE:dance-single;
#BANNER:;
#DESCRIPTION:;
#CHARTSTYLE:;
#DIFFICULTY:Hard;
#METER:11;
#METERF:11.000000;
#LASTSECONDHINT:83.987076;
#RADARVALUES:0.461295,0.496713,0.218336,0.137896,0.126405,281.000000,262.000000,19.000000,12.000000,0.000000,0.000000,0.000000,0.000000,0.000000,0.461295,0.496713,0.218336,0.137896,0.126405,281.000000,262.000000,19.000000,12.000000,0.000000,0.000000,0.000000,0.000000,0.000000;
#CREDIT:YonabearCWY;
#NOTES:
0000
0000
0000
0000
,
0000
0000
0000
0000
,
0000
0000
0000
0000
,
0000
0000
0000
0000
,
1000
0000
0010
0000
1000
0001
0010
0100
,
0010
0000
0000
0000
0001
0000
0000
0000
1000
0000
0001
0000
0010
0000
0100
1000
,
0001
0000
0100
0000
0001
1000
0010
0100
,
0010
0000
1000
0100
0011
0000
1100
0000
,
0001
0000
0100
0000
1000
0001
0010
0100
,
1000
0000
0010
0001
1000
0000
0110
0000
,
0001
0000
0010
0000
1000
0100
0010
0001
,
1000
0000
0010
0000
0100
0000
0001
0000
0010
0100
0000
0000
1000
0001
0000
0000
,
0101
0000
1001
0000
0010
0010
0100
0100
,
0001
0010
0100
0000
1000
0001
1000
0001
,
0010
0000
0100
0000
1100
0000
0000
0000
0001
0010
0001
0000
0000
0000
1000
0000
,
0100
0100
0100
0000
0000
0001
1000
0001
,
0010
0001
0011
0000
0100
0100
0001
0001
,
0010
0100
1001
0000
0100
0010
0001
1000
,
0001
0000
0100
0000
0010
0000
0000
0000
1000
0010
1000
0000
0000
0000
0001
0000
,
0100
0000
0100
0000
0100
0000
0000
0000
0001
1000
0000
0000
0100
0010
0000
0000
,
0001
0100
0001
0100
0010
1000
0010
1000
,
0100
0000
0100
0000
0100
0000
0000
0010
0000
0000
0001
0000
1000
0000
0100
0000
,
0010
0100
0010
0001
0010
0001
1000
0001
,
1000
0000
1000
0000
1000
0000
0000
0001
0000
0000
0010
0000
0100
0000
1000
0000
,
0001
0100
0001
1000
0100
1000
0010
0100
,
0001
0000
0001
0000
0001
0000
0000
0010
0000
0000
0100
0000
1000
0000
0100
0000
,
0010
0001
1000
0001
0010
0100
1000
0001
,
1000
0000
1000
0000
1000
0000
0010
0000
0100
0001
0000
0000
1000
0010
0000
0000
,
0101
0001
1000
0000
0100
0001
1000
0000
,
0120
1030
0210
0301
,
1000
0000
0100
0000
0010
0000
0000
0001
0000
0000
1000
0000
0010
0000
0100
0000
,
0001
0000
0010
0000
0100
0000
0000
1000
0000
0001
0100
0000
1001
0000
0000
0000
,
1010
0100
0001
0000
0010
0100
0001
0000
,
2010
3100
0102
0013
,
1000
0000
0001
0000
0010
0000
0001
0100
0000
0000
0010
0000
1000
0000
0100
0000
,
0010
0000
0001
0000
1000
0000
0010
0100
0000
0100
0001
0000
1001
0000
0000
0000
,
0210
1000
0001
1000
,
0302
0000
0000
0013
0200
0000
0000
1300
,
0001
0000
0010
0000
0001
0000
0000
1000
0000
0010
0100
0000
0001
0000
1000
0000
,
0100
0000
0010
0000
0001
0000
0000
0010
0000
0001
1000
0000
0010
0000
0001
0000
,
0120
0001
1000
0001
,
2030
0000
0000
3100
0020
0000
0000
0031
,
1000
0001
0010
0001
0100
0010
0010
1000
,
0100
0100
1000
0001
0001
0100
0010
0000
,
2002
0000
0000
0000
,
0000
0000
3003
0000
;

//---------------dance-single - ----------------
#NOTEDATA:;
#CHARTNAME:CHALLENGE;
#CHARTHASH:1316018084;
#STEPSTYPE:dance-single;
#BANNER:;
#DESCRIPTION:;
#CHARTSTYLE:;
#DIFFICULTY:Challenge;
#METER:13;
#METERF:13.000000;
#LASTSECONDHINT:83.987076;
#RADARVALUES:0.569642,0.601285,0.310266,0.114913,0.350486,347.000000,320.000000,27.000000,10.000000,0.000000,0.000000,0.000000,0.000000,0.000000,0.569642,0.601285,0.310266,0.114913,0.350486,347.000000,320.000000,27.000000,10.000000,0.000000,0.000000,0.000000,0.000000,0.000000;
#CREDIT:YonabearCWY;
#NOTES:
0000
0000
0000
0000
,
0000
0000
0000
0000
,
0000
0000
0000
0000
,
0000
0000
0000
0000
,
1000
0000
0000
0100
0000
0000
0010
0000
0000
0000
0000
0001
1000
0000
0000
0010
0000
0000
0100
0000
0000
0010
0000
0100
,
0001
0000
0000
0010
0000
0000
0100
0000
0000
0000
0000
1000
0002
0000
0000
0010
0000
0000
0000
0000
0000
0013
0000
0001
,
1000
0000
0000
0000
0000
0000
0010
0000
0000
0000
0000
0000
0100
0000
0000
0000
0000
0000
0000
0000
0000
0000
0001
0000
0010
0000
0000
0000
0001
0000
0010
0000
0000
0000
0000
0000
0001
0000
0000
0000
0000
0000
1000
0000
0000
0010
0000
0000
,
0100
0000
0000
0001
0000
0000
1000
0000
0000
0000
0000
0000
0011
0000
0000
0001
0000
0000
1001
0000
0000
0000
0000
1000
,
0100
0000
0000
0010
0000
0000
0001
0000
0000
0000
0000
0100
0010
0000
0000
0100
0000
0000
1000
0000
0000
0100
0000
0001
,
1000
0000
0000
0001
0000
0000
0010
0000
0000
0001
0000
0000
2000
0000
0000
0100
0000
0000
0000
0000
0000
3100
0000
1000
,
0001
0000
0000
0010
0000
0000
0100
0000
0000
0000
0000
1000
0001
0000
1000
0001
0000
0000
0010
0000
0000
0010
0000
0000
,
0001
0000
0000
1000
0000
0000
0001
0000
0000
0000
0000
0000
0010
0000
0000
0000
0000
0000
0100
0000
0000
0000
0000
0000
1000
0000
0000
0000
1000
0000
0000
0000
0000
0000
0001
0000
0100
0000
0000
0000
0010
0000
0000
0000
0000
0000
1000
0000
,
0100
0000
1001
0000
0010
0010
1000
0010
,
0010
0100
0011
0000
0100
0100
0010
0010
,
1000
0000
0000
0100
0000
0000
0110
0000
0000
0000
0000
0000
0001
0000
1000
0001
0000
0000
0100
0000
0000
0101
0000
0000
,
0000
1100
0101
0000
0010
0010
0100
0100
,
0001
0100
1000
0000
0001
0010
0001
0001
,
1000
0010
0001
0000
0100
0100
0010
0010
,
1000
0000
0000
0001
0000
0000
0110
0000
0000
0000
0000
0000
0001
0000
1000
0010
0000
0000
0100
0000
0000
0100
0000
0000
,
0001
0000
0000
1000
0000
0000
0100
0000
0000
0010
0000
0000
0001
0000
0001
0000
0000
1000
0010
0000
0100
0000
0000
0001
,
1000
0000
1001
0000
0011
0000
0000
0000
0001
0000
1000
0100
1000
0100
1000
0000
,
0010
0000
0000
0010
0000
0000
0010
0000
0000
0000
0000
0100
0000
0000
0001
1000
0000
0000
0100
0000
0000
0010
0000
0000
,
1000
0000
0000
0000
0000
0000
0011
0000
0000
0000
0000
0000
0101
0000
0000
0000
0000
0000
0000
0000
0000
0000
0000
0000
0010
0000
0000
0000
0010
0000
1000
0000
0000
0001
0000
0000
1000
0000
0000
0001
0000
0000
1000
0000
0000
0000
0000
0000
,
0100
0000
0000
0100
0000
0000
0100
0000
0000
0000
0000
0010
0000
0000
0001
1000
0000
0000
0010
0000
0000
0100
0000
0000
,
0001
0000
0011
0000
0101
0000
0000
0000
1000
0000
0001
0010
0001
0010
0001
0000
,
0100
0000
0000
0100
0000
0000
0100
0000
0000
0000
0000
0010
0000
0000
1000
0100
0000
0000
1000
0000
0000
0001
0000
0000
,
0010
0000
0000
0000
0000
0000
1001
0000
0000
0000
0000
0000
0101
0000
0000
0000
0000
0000
0000
0000
0000
0000
0000
0000
1000
0000
0000
0000
1000
0000
0001
0000
0000
0100
0000
0000
0001
0000
0000
0100
0000
0000
0001
0000
0000
0000
0000
0000
,
0010
0000
0000
0010
0000
0000
0010
0000
0000
0000
0000
0010
0100
0000
0100
0000
0000
1000
0001
0000
0010
0000
0000
0001
,
1000
0100
0001
0000
0010
0010
0010
0000
,
0100
1000
0001
0010
0001
0100
0010
1000
,
1100
0000
0000
0001
0000
0000
0101
0000
0000
0000
0000
0010
0000
0000
1000
0001
0000
0000
0010
0000
0000
0100
0000
0000
,
0010
0001
0000
1000
0001
0000
0000
0000
0100
0010
0100
0000
1001
0000
0000
0000
,
1000
0010
0001
0000
0100
0100
0100
0000
,
0010
1000
0100
0001
0100
0010
0001
0010
,
1100
0000
0000
1000
0000
0000
0101
0000
0000
0000
0000
0010
0000
0000
0001
1000
0000
0000
0100
0000
0000
0010
0000
0000
,
0100
0000
1000
0000
0001
0000
0000
0000
0010
0100
0010
0000
1001
0000
0000
0000
,
0120
0100
0100
0100
0100
0100
0100
0130
,
0020
1000
0230
0010
,
0301
0000
0000
0100
0000
0000
1000
0000
0000
0000
0000
0010
0000
0000
1000
0001
0000
0000
0010
0000
0000
0100
0000
0000
,
1000
0000
0000
0001
0000
0000
0001
0000
0000
0100
0000
0000
0000
0000
0010
0000
0000
1000
0001
0000
0000
0110
0000
0000
,
1002
1000
1000
1000
1000
1000
1000
1003
,
0200
1000
0320
0001
,
1030
0000
0000
0010
0000
0000
0001
0000
0000
0000
0000
0100
0000
0000
0001
1000
0000
0000
0001
0000
0000
0100
0000
0000
,
0010
0000
0000
1000
0000
0100
1000
0000
0000
0010
0000
0000
0100
0000
0001
0100
0000
0000
0010
0000
0000
1000
0000
0000
,
2002
0000
0000
0000
,
0000
0000
3003
0000
;
