#TITLE:BOING BEAT;
#SUBTITLE:;
#ARTIST:MC BOING;
#TITLETRANSLIT:;
#SUBTITLETRANSLIT:;
#ARTISTTRANSLIT:;
#GENRE:UK HAPPY HARDCORE;
#CREDIT:YonabearCWY;
#BANNER:BOING BEAT.png;
#BACKGROUND:BOING BEAT-bg.png;
#LYRICSPATH:;
#CDTITLE:;
#MUSIC:BOING BEAT.ogg;
#OFFSET:-0.020000;
#SAMPLESTART:38.366657;
#SAMPLELENGTH:15.000000;
#SELECTABLE:YES;
#BPMS:0.000000=162.759995
,40.000000=20.344999
,44.000000=162.759995
;
#STOPS:
;
#BGCHANGES:0.000=BOING BEAT.mp4=1.000=1=0=0=StretchNoLoop==CrossFade==,
219.000=BOING BEAT-bg.png=1.000=0=0=1=====,
99999.000=-nosongbg-=1.000=0=0=0=StretchNoLoop====,
99999=-nosongbg-=1.000=0=0=0 // don't automatically add -songbackground-
;
#KEYSOUNDS:;
#ATTACKS:;

//---------------dance-single - ----------------
#NOTES:
     dance-single:
     BEGINNER:
     Beginner:
     4:
     0.174858,0.269253,0.054643,0.098357,0.000000,112.000000,107.000000,5.000000,9.000000,0.000000,0.000000,0.174858,0.269253,0.054643,0.098357,0.000000,112.000000,107.000000,5.000000,9.000000,0.000000,0.000000:
0000
0000
0000
0000
,
0000
0000
0000
0000
,
1000
0000
0000
0000
,
0100
0000
0000
0000
,
0010
0000
0000
0000
,
0100
0000
0000
0000
,
1000
0000
0000
0000
,
0001
0000
0000
0000
,
0010
0000
0000
0000
,
0100
0000
0000
0010
,
2002
3003
0220
0330
,
1001
0010
0010
0000
,
0010
0010
0010
0000
,
0100
0100
0100
0000
,
0100
0100
0100
0000
,
0001
0000
0001
0000
,
1000
0000
1000
0000
,
0001
0001
0001
0000
,
1000
1000
1000
0000
,
0110
0000
0100
0000
,
0010
0010
0010
0010
,
0010
0000
0100
0000
,
0010
0010
0010
0010
,
0010
0000
1000
0000
,
0001
0001
0100
0100
,
0001
0000
0010
0000
,
0100
0100
1000
1000
,
0010
0000
0000
0000
,
0010
0000
0000
0000
,
0100
0000
0000
0000
,
0100
0000
0000
0000
,
0001
0000
0001
0000
,
1000
1000
1000
1000
,
1000
0000
0001
0000
,
1000
0000
0000
0002
,
1003
0000
1000
0000
,
1000
0000
0000
0000
,
0010
0000
0010
0000
,
0010
0000
0000
0000
,
0100
0000
0100
0000
,
0100
0000
0000
0000
,
0001
0000
0001
0000
,
0001
0000
0000
0000
,
1000
1000
1000
0000
,
0001
0000
0001
0000
,
1000
1000
1000
0000
,
0010
0000
0010
0000
,
0100
0100
0100
0000
,
0001
0000
0001
0000
,
0100
0100
0100
0000
,
0010
0000
0010
0000
,
2001
0000
0000
0000
,
3002
0000
0000
0000
,
0203
0000
0000
0000
,
0020
0000
0000
0330
;

//---------------dance-single - ----------------
#NOTES:
     dance-single:
     BASIC:
     Easy:
     7:
     0.352838,0.448756,0.491787,0.185786,0.005464,226.000000,181.000000,45.000000,17.000000,0.000000,0.000000,0.352838,0.448756,0.491787,0.185786,0.005464,226.000000,181.000000,45.000000,17.000000,0.000000,0.000000:
0000
0000
0000
0000
,
0000
0000
0000
0000
,
1000
1000
1000
1100
,
0001
0001
0001
0011
,
0200
0000
0310
0100
,
0002
0000
1003
0010
,
0100
0100
0100
1001
,
0010
0010
0010
1001
,
0200
0000
0310
1000
,
0002
0000
1003
0010
,
1002
0000
0000
0000
2003
0000
3020
0000
0230
0000
0302
0000
2000
0000
0000
3003
,
0001
0010
0010
0010
,
0100
1000
1000
1000
,
0010
0100
0100
0100
,
0010
0001
0001
0001
,
1010
0101
0010
1000
,
0011
1100
0010
0001
,
1001
0000
0000
0010
0000
0000
0100
0000
,
0000
0010
0000
0000
0110
0000
1001
0000
,
0110
0100
0100
0100
,
1001
1001
1001
1001
,
0010
0010
0010
0010
,
0110
0110
0110
0110
,
1000
0101
1000
0101
,
1000
1000
0001
0101
,
0001
1010
0001
1010
,
0001
0001
1000
1010
,
0100
0000
0000
0001
0000
0000
0010
0000
,
0000
0100
0000
0000
1000
0000
0110
0000
,
0001
0000
0000
1000
0000
0000
0010
0000
,
0000
0100
0000
0000
0001
0000
0110
0000
,
1000
0000
0000
0010
0000
0000
0001
0000
,
0110
0110
0110
0110
,
1000
0000
0000
0001
0000
0000
0010
0000
,
1001
1001
1001
2001
,
3010
0000
0000
1000
0000
0000
0001
0000
,
0000
0010
0000
0001
0100
0000
0010
0000
,
1000
0000
0000
0100
0000
0000
0010
0000
,
0000
0001
0000
0010
0100
0000
1001
0000
,
0100
0000
0000
0010
0000
0000
0001
0000
,
0000
0010
0000
0100
0010
0000
1001
0000
,
0010
0000
0000
0001
0000
0000
1000
0000
,
0000
0100
0000
0010
0001
0010
0001
0000
,
1000
0010
0100
0001
,
0010
1100
0010
0101
,
0010
1000
0001
0100
,
0001
0110
1000
0110
,
0001
1000
0010
0100
,
0010
1001
0100
1001
,
0020
0000
0000
0000
,
2030
0000
0000
0000
,
3002
0000
0000
0000
,
2003
0000
0000
0000
,
3020
0000
0000
0000
,
0200
0000
0000
0330
;

//---------------dance-single - ----------------
#NOTES:
     dance-single:
     DIFFICULT:
     Medium:
     10:
     0.476175,0.568424,0.437144,0.327858,0.038250,305.000000,265.000000,40.000000,30.000000,0.000000,0.000000,0.476175,0.568424,0.437144,0.327858,0.038250,305.000000,265.000000,40.000000,30.000000,0.000000,0.000000:
0000
0000
0000
0000
,
0000
0000
0000
0000
,
1000
0000
0001
0000
0010
0001
0010
0000
,
0100
0000
1000
0000
0001
0100
0001
0000
,
1000
0000
0010
0000
0100
0010
0001
0000
,
0010
0000
1001
0000
0100
0100
0100
0000
,
0010
0000
1000
0000
0100
0010
0100
0000
,
0010
0000
0001
0000
0010
0100
0010
0000
,
1000
0000
0010
0000
0001
1000
0001
0000
,
0100
0000
0010
0000
1000
1000
1001
0000
,
0120
0000
0000
0000
2030
0000
3002
1000
0203
0000
0320
0100
0001
0000
1030
0001
,
1001
0000
0000
0000
0010
0000
0000
0000
0100
0000
0000
0100
0000
0000
0001
0000
,
1000
0000
0100
0000
0010
0000
0000
0000
0001
0000
0000
1000
0000
0000
0001
0000
,
0011
0000
0000
0000
0100
0000
0000
0000
0010
0000
0000
0010
0000
0000
1000
0000
,
0001
0000
0100
0000
0010
0000
0000
0000
1000
0000
0000
0001
0000
0000
0010
0000
,
1100
1001
0011
0101
,
0110
1010
0110
0101
,
2001
0000
0000
3020
0000
0000
0230
0000
,
0000
0302
0000
1003
0001
0000
0110
0000
,
2001
0000
0010
0000
0001
0001
3001
0000
,
1000
0100
1000
0100
1000
0100
1010
0000
,
1002
0000
0010
0000
0100
0100
0103
0000
,
0010
0001
0010
0001
0010
0001
0110
0000
,
1000
0010
0001
0000
0001
0010
1000
0000
,
0110
0000
1010
0000
0110
0100
0101
0000
,
0001
0100
1000
0000
1000
0100
0001
0000
,
0110
0000
0101
0000
1001
1000
1010
0000
,
0100
0010
0001
0000
0010
0010
0010
0000
,
0001
1000
0100
0010
0001
1000
0010
0000
,
0100
0100
0100
0000
0001
1000
0001
0000
,
1000
0010
0100
0001
0010
0100
1000
0000
,
0021
0000
0100
0000
1000
1000
1030
0000
,
0001
0100
0001
0100
0001
0100
1001
0000
,
1010
0001
0100
0010
,
1000
0100
0010
0001
1000
0010
0210
0000
,
0302
0000
0000
1000
0000
0000
0010
0000
,
0000
0103
0000
0001
1000
0000
0110
0000
,
2001
0000
0010
0010
0000
0100
0100
0000
,
0001
0001
0000
0010
3010
1000
0100
0000
,
0021
0000
0000
0100
0000
0000
1000
0000
,
0000
0031
0010
0001
1000
0000
0110
0000
,
0201
0000
1000
1000
0000
0001
0001
0000
,
0010
0310
0200
0000
0301
0001
2000
0000
,
3100
0000
0010
0001
1000
0000
0100
0000
,
0010
0010
0200
0000
1300
1000
0002
0000
,
0013
0000
0001
1000
0010
0000
0100
0000
,
0001
0001
0020
0000
0130
0100
2000
0000
,
3001
0000
1000
0010
0100
0000
0011
0000
,
1000
1000
1020
0000
0130
0100
0102
0000
,
0013
0100
1000
0001
,
1000
0000
0010
0100
0001
0000
1000
0000
,
0202
0000
0000
0300
,
2000
0000
0000
0003
,
0020
0000
0000
3000
,
0200
0000
0000
0330
;

//---------------dance-single - ----------------
#NOTES:
     dance-single:
     EXPERT:
     Hard:
     13:
     0.590145,0.718009,0.218572,0.491787,0.338787,378.000000,358.000000,20.000000,45.000000,0.000000,0.000000,0.590145,0.718009,0.218572,0.491787,0.338787,378.000000,358.000000,20.000000,45.000000,0.000000,0.000000:
0000
0000
0000
0000
,
0000
0000
0000
0000
,
1000
0000
0000
0000
0001
0000
0000
0000
0010
0000
0100
1000
0000
0100
1000
0000
,
0010
0000
0000
0000
0100
0000
0000
0000
0001
0000
1000
0010
0000
1000
0010
0000
,
0100
0000
0000
0000
0001
0000
0000
0000
0010
0000
0001
1000
0000
0010
1000
0000
,
0100
0000
0000
0000
0010
0000
0000
0000
0001
0000
1000
0100
0000
1000
0001
0000
,
0010
0000
0100
0000
1000
0000
0000
0000
0001
0000
0100
0010
0000
0100
0010
0000
,
1000
0000
0001
0000
0010
0000
0000
0000
0001
0000
1000
0100
0000
1000
0100
0000
,
0010
0000
0001
0000
0100
0000
0000
0000
0001
0000
0010
0100
0000
0010
0100
0000
,
1000
0001
0010
0000
0100
0100
1001
0000
,
0120
0000
0000
0000
0000
0000
0000
0000
0000
0000
0000
0000
0000
0000
0000
0000
2030
0000
0000
0000
0000
0000
0000
0000
3002
0000
0000
0000
0013
0000
0100
0000
2000
0000
0000
0000
0000
0000
0000
0000
3001
0000
0000
0100
0000
0000
0020
0000
0000
0000
0000
0000
0000
0000
0000
0230
0000
0000
0000
0000
0310
1000
0010
0000
,
1001
0000
0000
0100
0010
0000
0000
0001
0100
0000
0010
0000
1000
0000
0100
0000
,
0010
0000
0001
0000
1000
0000
0000
0100
0010
0000
0100
0010
0000
0100
0010
0000
,
0100
0000
0000
1000
0001
0000
0000
0010
0100
0000
1000
0000
0010
0000
0001
0000
,
0010
0000
1000
0000
0100
0000
0000
1000
0001
0000
1000
0001
0000
1000
0001
0000
,
0110
0000
1010
0000
0101
0001
0010
0000
,
1100
0000
1001
0000
0110
0100
0001
0000
,
1020
0000
0000
0230
0000
0000
0302
0000
,
0000
0023
0000
0100
0130
0000
1001
0010
,
0100
0100
0100
0001
1000
1000
1000
0000
,
0010
0010
0010
0010
0010
0010
1001
0000
,
0100
0100
0100
0010
0001
0001
0001
1000
,
0100
0100
0100
0100
0100
0100
1001
0000
,
0010
0000
0001
0000
0200
0000
0000
0310
1000
0000
0100
0000
0020
0000
0000
0031
,
1000
0000
0000
0100
0010
0000
0000
0001
0100
0000
0010
0000
2000
0000
0000
0000
,
3001
0000
1000
0000
0100
2000
0000
0000
3001
0000
0010
0000
0100
0020
0000
0000
,
0031
1000
0000
0000
1000
0100
0000
0000
0100
0000
0010
0000
0001
2000
0000
0000
,
3001
0000
1000
0000
0100
0000
1000
0010
0000
1000
0010
0000
0100
0000
0001
0000
,
0010
0100
0010
0000
0100
0000
1000
0000
0001
0000
0100
0001
0100
0000
0010
0000
,
1000
0001
0010
0100
1000
0100
0011
0000
,
1000
0001
1000
0000
0001
0000
0010
0000
0100
0000
1000
0000
0101
0000
0000
0000
,
0010
0010
0010
1000
0001
0001
0001
0100
,
0010
0010
0010
0010
0010
0010
1001
0000
,
0100
1000
0100
0000
1000
0000
0001
0000
0010
0000
0100
0000
1001
0000
0100
0000
,
1000
0010
0100
0100
0001
0100
1002
0000
,
0023
0000
0100
0100
0000
0001
0001
0000
,
1030
0010
0001
0010
0100
1000
0201
0000
,
0320
0000
1030
0200
0000
0310
0002
0000
,
1003
0000
0001
0000
0010
0000
0100
1000
0000
0001
0000
1000
0020
0000
0000
0000
,
0230
0000
0010
0010
0000
0001
0001
0000
,
1300
0100
0010
0100
0001
1000
0021
0000
,
0130
0000
1000
0000
0001
0000
1000
0010
0000
1000
0010
0000
0100
0000
0001
0000
,
0010
0000
0010
0000
0010
0200
0000
0000
1300
0000
1000
0000
1000
0002
0000
0000
,
0023
0000
0032
1000
0000
1003
0200
0000
,
1300
0000
1000
0000
1000
0002
0000
0000
0013
0000
0010
0000
0010
0200
0000
0000
,
2300
0000
3020
0100
0000
0130
0002
0000
,
0013
0000
0010
0000
0010
0002
0000
0000
1003
0000
1000
0000
1000
0002
0000
0000
,
0013
0100
1000
0001
1000
0100
2000
0000
,
3001
0000
0010
0000
0001
0010
0000
0001
0010
0000
0001
0000
1000
0100
0000
1000
,
0100
1000
0010
0100
0001
0010
0200
0000
,
2000
0300
0002
3000
,
2000
0000
0000
0003
,
0002
0000
0000
3000
,
0020
0000
0000
0003
,
0200
0000
0000
0330
;

//---------------dance-single - ----------------
#NOTES:
     dance-single:
     CHALLENGE:
     Challenge:
     15:
     0.780614,0.867595,0.360644,0.360644,0.737681,500.000000,467.000000,33.000000,33.000000,0.000000,0.000000,0.780614,0.867595,0.360644,0.360644,0.737681,500.000000,467.000000,33.000000,33.000000,0.000000,0.000000:
// measure 0
0000
0000
0000
0000
,  // measure 1
0000
0000
0000
0000
,  // measure 2
1000
0000
0000
0000
0000
0000
0001
0000
0000
0010
0000
0000
0001
0000
0000
0000
0000
0000
0100
0000
0000
0000
0000
0000
1000
0000
0000
0000
0100
0000
0000
0000
0001
0000
0000
0000
0010
0000
0000
0000
0000
0000
0000
0000
0000
0000
0000
0000
,  // measure 3
0100
0000
1000
0000
0010
0000
0100
0001
0000
0000
0010
0000
1100
0000
0000
0000
,  // measure 4
0001
0000
0010
0100
0010
0000
0100
0000
1000
0000
0001
0000
0110
0000
0000
0000
,  // measure 5
0001
1000
0001
0000
0100
0000
0010
0000
1000
0000
0100
0010
0100
0000
0000
0000
,  // measure 6
0010
0000
0000
0000
0000
0000
0001
0000
0000
0000
0000
0000
1000
0000
0000
0000
0000
0000
0001
0000
0000
0010
0000
0000
0001
0000
0000
0000
0010
0000
0000
0000
0100
0000
0000
0000
0010
0000
0000
0000
0000
0000
0100
0000
0000
0000
0000
0000
,  // measure 7
1000
0100
1000
0000
0001
0000
0010
0001
0010
0001
0010
0000
0100
0000
1000
0000
,  // measure 8
0001
0010
0001
0000
0100
0000
0010
0100
0010
0000
1000
0001
1000
0000
0001
1000
,  // measure 9
0000
0001
1000
0000
0010
0000
0100
0001
0010
0000
0100
0000
1001
0000
0000
0000
,  // measure 10
0102
0000
0000
0000
0000
0000
0000
0000
0000
0000
0000
0000
0000
0000
0000
0000
2003
0000
0000
0000
0000
0000
0000
0000
3020
0000
0000
0000
0130
0000
0010
0000
2001
0000
0000
0000
0000
0000
0000
0000
3020
0000
0000
2030
0000
0000
3200
0000
0000
0000
0000
0000
0000
0000
0000
2300
0000
0000
0000
0000
3001
0100
0010
0000
,  // measure 11
1001
0000
0000
0100
0010
0000
0000
0001
0010
0000
0010
0100
0000
0100
1000
0000
,  // measure 12
0001
0100
0000
0100
0010
0000
1000
0010
1000
0000
0001
0100
0001
0100
0001
0000
,  // measure 13
1010
0000
0000
0100
0001
0000
0000
0010
0100
0000
1000
0001
0000
0001
0010
0000
,  // measure 14
0100
1000
0000
1000
0001
0000
0010
0001
0010
0000
0001
1000
0001
1000
0001
0000
,  // measure 15
0110
0000
0000
0000
1010
0000
0000
0001
0100
0000
0001
0000
0011
0000
0000
1000
,  // measure 16
0001
1000
0010
0100
1001
0010
1001
0000
,  // measure 17
1200
0000
0000
0020
0300
0000
0002
0030
,  // measure 18
0000
0200
0003
0310
1001
0000
0110
0100
,  // measure 19
1001
0000
0000
1000
0000
0000
1100
0000
0000
0010
0000
0000
0100
0010
0000
0100
0010
0000
0101
0000
0000
0000
0000
0000
,  // measure 20
0010
0001
0000
0010
0001
0000
0010
0001
0000
0010
0001
0000
0010
0001
0000
0010
0001
0000
1001
0000
0000
0000
0000
0000
,  // measure 21
0011
0000
0000
0001
0000
0000
0101
0000
0000
0010
0000
0000
1000
0001
0000
1000
0001
0000
1010
0000
0000
0000
0000
0000
,  // measure 22
0100
1000
0000
0100
1000
0000
0100
1000
0000
0100
1000
0000
0100
1000
0000
0100
1000
0000
1001
0000
0000
0000
0000
0000
,  // measure 23
0010
0000
0100
0000
0001
0100
0000
0000
0010
0000
1000
0000
0100
1000
0000
0000
,  // measure 24
0100
0010
0000
0000
0010
0001
0000
0000
1000
0001
1000
0000
0110
0000
0000
0100
,  // measure 25
0001
0000
1000
0000
0100
1000
0000
0000
0001
0000
0010
0000
0001
0100
0000
0000
,  // measure 26
0010
0001
0000
0000
0010
1000
0000
0000
0100
0010
0100
0000
1001
0000
0000
0100
,  // measure 27
0010
0000
0001
0000
1000
0000
0001
0100
0000
0001
0010
0000
0100
0000
1000
0000
,  // measure 28
0001
1000
0100
0000
0010
0000
0001
0000
1000
0000
0001
0100
0010
0000
1000
0000
,  // measure 29
0010
0000
1000
0000
0100
0000
1000
0001
0000
0010
0000
0001
0100
0000
0010
0000
,  // measure 30
1000
0100
0010
0100
0010
0000
0001
0000
0100
0000
0010
1000
0010
1000
0001
0000
,  // measure 31
0110
0000
0000
0100
0000
0000
0101
0000
0000
0010
0000
0000
1000
0001
0000
1000
0001
0000
0110
0000
0000
0000
0000
0000
,  // measure 32
0001
0100
0000
0001
0100
0000
0001
0100
0000
0001
0100
0000
0001
0100
0000
0001
0100
0000
1010
0000
0000
0000
0000
0000
,  // measure 33
0100
0010
0100
0000
0010
0000
0001
0000
1000
0000
0001
0100
0001
0000
1000
0010
,  // measure 34
0100
0001
0100
1000
0100
0010
2001
0000
,  // measure 35
3010
0000
0200
0000
0000
0000
0301
0000
1000
0000
0100
0010
0200
0000
0000
0000
,  // measure 36
0310
0001
0100
0000
0001
0000
1000
0000
0001
0000
0010
0100
2000
0000
0000
0000
,  // measure 37
3001
0000
0001
0000
0001
0000
1000
0010
0000
0100
0001
0000
0120
0000
0000
0000
,  // measure 38
1030
0000
1000
0000
1000
0001
0000
0010
0000
0100
0000
1000
0002
0000
0000
0000
,  // measure 39
0013
0001
0000
0100
0001
0000
0010
0000
0100
0000
1000
0001
0020
0000
0000
0000
,  // measure 40
0031
0100
0010
0000
1000
0000
0100
0000
0010
0000
0100
1000
0002
0000
0000
0000
,  // measure 41
0013
0000
0001
0000
1000
0000
0001
1000
0000
0100
0000
1000
0010
0000
0100
0000
,  // measure 42
0001
0000
0001
0000
0001
0010
0000
0100
1000
0000
1000
0000
1000
0010
0000
0100
,  // measure 43
0002
0000
0013
0200
0000
1300
0020
0000
,  // measure 44
0031
0000
0010
0000
0100
0010
0000
1000
0001
0000
0010
0000
0100
1000
0000
0001
,  // measure 45
0200
0000
0301
2000
0000
3100
0020
0000
,  // measure 46
0031
0000
0010
0000
0100
1000
0000
0001
1000
0000
0100
0000
0010
0001
0000
1000
,  // measure 47
0001
0010
0200
1000
0000
1300
0100
0010
,  // measure 48
0100
1000
0100
0000
1000
0002
0000
0000
0013
0001
0010
0000
0001
0200
0000
0000
,  // measure 49
0310
1000
0001
0010
0100
1000
0001
0100
,  // measure 50
0020
0000
0000
1000
0000
0000
0001
0000
,  // measure 51
0130
0000
0001
0000
0010
0000
0100
1000
0000
0100
1000
0000
0002
0000
0000
0000
,  // measure 52
1003
0100
1000
0000
0010
0000
0100
0000
0001
0000
0010
0000
2001
0000
0000
0000
,  // measure 53
3010
0000
0100
0000
0001
0000
0010
0001
0000
0010
0001
0000
2000
0000
0000
0000
,  // measure 54
3001
1000
1000
0010
0100
0100
1001
0000
;
