#VERSION:0.83;
#TITLE:BBLLAASSTT!!;
#SUBTITLE:;
#ARTIST:FIVE STICKS;
#TITLETRANSLIT:;
#SUBTITLETRANSLIT:;
#ARTISTTRANSLIT:;
#GENRE:KENKA DRUMS;
#ORIGIN:;
#TAGS:;
#CREDIT:;
#BANNER:BBLLAASSTT!!.png;
#BACKGROUND:BBLLAASSTT!!-bg.png;
#PREVIEWVID:;
#JACKET:BBLLAASSTT!!-jacket.png;
#CDIMAGE:;
#DISCIMAGE:;
#LYRICSPATH:;
#CDTITLE:pop'n music.png;
#MUSIC:BBLLAASSTT!!.ogg;
#OFFSET:-0.000000;
#SAMPLESTART:9.719991;
#SAMPLELENGTH:15.000000;
#SELECTABLE:YES;
#BPMS:0.000000=320.000000
,258.000000=160.000000
,274.000000=320.000000
,306.000000=160.000000
,322.000000=320.000000
;
#STOPS:194.000000=0.187000
,225.500000=0.187000
,352.500000=0.187000
,383.500000=0.187000
,414.500000=0.187000
;
#DELAYS:;
#WARPS:;
#TIMESIGNATURES:0.000000=4=4
;
#TICKCOUNTS:0.000000=4
;
#COMBOS:0.000000=1
;
#SPEEDS:0.000000=1.000000=0.000000=0
;
#SCROLLS:0.000000=1.000000
;
#LABELS:0.000000=Song Start
;
#BGCHANGES:20.000=snow5.mp4=1.000=1=0=1===CrossFade==,
52.000=spark1.mp4=1.600=0=0=1=====,
68.000=blackhole1.mp4=1.600=0=0=1=====,
84.000=spark1.mp4=1.600=0=0=1=====,
100.000=blackhole1.mp4=1.600=0=0=1=====,
116.000=lightning1.mp4=1.400=0=0=1=====,
132.000=letters1.mp4=1.400=0=0=1=====,
148.000=lightning1.mp4=1.400=0=0=1=====,
164.000=letters1.mp4=1.400=0=0=1=====,
180.000=laser1.mp4=1.400=0=0=1=====,
190.000=mesh1.mp4=1.000=0=1=1=StretchRewind====,
191.000=mesh1.mp4=1.000=0=1=1=StretchRewind====,
192.000=mesh1.mp4=1.000=0=1=1=StretchRewind====,
193.000=mesh1.mp4=1.000=0=1=1=StretchRewind====,
194.000=mesh1.mp4=0.001=0=0=1=====,
195.000=pills1.mp4=1.600=0=0=1=====,
211.000=pills2.mp4=1.600=0=0=1=====,
225.500=pills2.mp4=0.001=0=0=1=====,
226.000=pills1.mp4=1.600=0=0=1=====,
242.000=pills2.mp4=1.600=0=0=1=====,
258.000=light1.mp4=1.000=0=0=1=====,
274.000=spark1.mp4=1.600=0=0=1=====,
306.000=light5.mp4=1.000=0=0=1=====,
322.000=blackhole1.mp4=1.600=0=0=1=====,
352.500=blackhole1.mp4=0.001=0=0=1=====,
353.000=spark1.mp4=1.600=0=0=1=====,
383.500=spark1.mp4=0.001=0=0=1=====,
384.000=blizzard1.mp4=1.600=0=0=1=====,
400.000=blizzard4.mp4=1.400=0=0=1=====,
414.500=blizzard4.mp4=0.001=0=0=1=====,
415.000=laser1.mp4=1.400=0=0=1=====,
431.000=spark1.mp4=1.600=0=0=1=====,
447.000=snow5.mp4=1.000=0=0=1=====,
479.000=BBLLAASSTT!!-bg.png=1.000=0=0=1=====,
99999.000=-nosongbg-=1.000=0=0=0=StretchNoLoop====,
99999=-nosongbg-=1.000=0=0=0 // don't automatically add -songbackground-
;
#KEYSOUNDS:;
#ATTACKS:
;

//---------------dance-single - ----------------
#NOTEDATA:;
#CHARTNAME:;
#CHARTHASH:2145319805;
#STEPSTYPE:dance-single;
#BANNER:;
#DESCRIPTION:;
#CHARTSTYLE:;
#DIFFICULTY:Easy;
#METER:10;
#METERF:10.000000;
#LASTSECONDHINT:97.028740;
#RADARVALUES:0.494617,0.733961,0.264766,0.224033,0.000000,340.000000,314.000000,26.000000,22.000000,0.000000,0.000000,0.000000,0.000000,0.000000,0.494617,0.733961,0.264766,0.224033,0.000000,340.000000,314.000000,26.000000,22.000000,0.000000,0.000000,0.000000,0.000000,0.000000;
#CREDIT:;
#NOTES:
0000
0000
0000
0000
,
0000
0000
0000
0000
,
0000
0000
0000
0000
,
0000
0000
0000
0000
,
0000
0000
0000
0000
,
2002
0000
0000
0000
,
0000
0000
0000
0000
,
0000
0000
0000
0000
,
0000
0000
0000
0000
,
3003
1000
0000
0001
,
0100
0001
0000
1000
,
0010
1000
0000
0010
,
0100
0010
0000
0100
,
1001
1000
0000
0100
,
1000
0100
0000
1000
,
0001
1000
0000
0001
,
0010
0001
0000
0100
,
0010
0100
0010
0000
,
1000
0000
1000
0000
,
0001
0100
0001
0000
,
0010
0000
0010
0000
,
0101
0100
0000
0001
,
1000
0001
0000
1000
,
0010
1000
0000
0010
,
0100
0010
0000
0100
,
0001
0100
0010
0100
,
0001
0000
1000
0000
,
0100
0010
0100
1000
,
0100
0000
1000
0000
,
1001
0001
0000
1000
,
0001
1000
0000
0001
,
0010
0100
0000
1000
,
0100
1000
0000
0100
,
1000
0001
1000
0000
,
0001
0000
0010
0000
,
0100
1000
0100
0000
,
1000
0000
0100
0000
,
0011
0001
0000
1000
,
0001
1000
0000
0010
,
1000
0001
0000
0100
,
0001
0100
0000
0001
,
0010
0100
1000
0100
,
1000
0000
0010
0000
,
0100
0001
0100
0001
,
1000
0000
0010
0000
,
1000
2002
0000
0000
,
0000
0000
3003
0100
,
0010
0220
0000
0000
,
0000
0330
0120
1030
,
0010
1000
0000
0001
,
0100
0001
0000
1000
,
0001
1000
0000
0001
,
0010
0001
0000
0100
,
0000
0010
1000
0100
,
0000
1000
0100
0001
,
0000
0001
0100
1000
,
0000
1000
0000
1002
1003
0000
0001
0000
,
0100
0000
0010
1000
,
0001
0000
0100
0010
,
0001
0000
0010
1000
,
0001
0000
1000
0000
,
1000
0000
0010
0000
,
0010
0000
0100
0000
,
0100
0000
0001
0010
,
0100
1000
1002
0000
,
1003
0100
2001
0000
,
3001
0010
0120
0000
,
0130
0010
0210
0000
,
0301
0100
0110
0010
,
0000
1000
0010
1000
,
0000
0001
0100
0001
,
0000
1000
0001
1000
,
0000
0010
0100
0000
,
0010
1000
0100
0000
,
0010
0001
1000
0000
,
0001
0100
1000
0100
,
0001
0000
1002
0000
,
2003
0000
0000
0010
3010
0000
1000
0000
,
1002
0000
0000
0100
0103
0000
0010
0000
,
0210
0000
0000
0001
0301
0000
1000
0000
,
0120
0000
0000
1000
1030
0000
0000
0000
,
0010
0000
1000
0010
,
1000
0000
0001
0000
,
0100
0000
0001
0010
,
0001
0000
1000
0100
,
0001
0000
0001
0100
,
1000
0000
1000
0100
,
0010
0000
0000
0000
0010
0000
0000
0100
,
0000
2001
3010
0000
0000
0000
1000
0000
,
0000
0001
0010
0100
,
0000
1000
0000
0100
,
0000
0010
0001
1000
,
0000
0001
0100
0001
,
0000
1000
0010
0001
,
0000
0001
0010
1000
,
0000
0000
0100
0000
0000
1000
0000
1002
,
1003
0001
1000
0010
,
0100
0000
0101
0000
,
0001
0010
0100
1000
,
0100
0010
0100
0000
,
1000
0000
0010
0000
,
1000
0000
0100
0000
,
0001
0000
0100
0000
,
1000
0000
0000
0001
0000
2001
3001
0000
,
0001
0001
0100
0010
,
0000
1010
0000
0010
,
0100
0010
0000
0100
,
0001
0100
0000
0001
,
0010
0100
1000
0100
,
0001
0100
1000
0001
,
0001
0001
0000
1000
,
1000
1000
0000
2002
,
0000
0000
0000
0000
,
0000
0000
0000
0000
,
0000
0000
0000
0000
,
0000
0000
0000
3003
,
0001
0100
0001
0100
,
0000
0010
0100
0010
,
0000
1000
0001
1000
,
0000
0010
0100
1001
,
0000
1001
0000
0000
0000
0000
0000
0000
;

//---------------dance-single - ----------------
#NOTEDATA:;
#CHARTNAME:;
#CHARTHASH:3299456301;
#STEPSTYPE:dance-single;
#BANNER:;
#DESCRIPTION:;
#CHARTSTYLE:;
#DIFFICULTY:Medium;
#METER:13;
#METERF:13.000000;
#LASTSECONDHINT:97.028740;
#RADARVALUES:0.680826,0.795125,0.203666,0.336049,0.020367,468.000000,448.000000,20.000000,33.000000,0.000000,0.000000,0.000000,0.000000,0.000000,0.680826,0.795125,0.203666,0.336049,0.020367,468.000000,448.000000,20.000000,33.000000,0.000000,0.000000,0.000000,0.000000,0.000000;
#CREDIT:;
#NOTES:
0000
0000
0000
0000
,
0000
0000
0000
0000
,
0000
0000
0000
0000
,
0000
0000
0000
0000
,
0000
0000
0000
0000
,
2002
0000
0000
0000
,
0000
0000
0000
0000
,
0000
0000
0000
0000
,
0000
0000
0000
0000
,
3003
1000
1000
0100
,
1000
0010
0010
1000
,
0001
0100
0100
0001
,
1000
0100
0010
0001
,
1001
0000
0001
0000
0100
0001
0000
0000
,
1000
0000
0010
0000
1000
0010
0000
0000
,
0100
0000
0001
0000
0100
0010
0000
0000
,
0010
0000
1000
0000
0001
1000
0001
0000
,
1000
0000
0100
0000
0010
0000
0000
0100
,
0000
1000
0000
0001
0100
0000
0000
0010
,
0000
1000
0000
0001
0100
0000
0100
0010
,
0000
0100
0000
0001
1000
0000
0010
0000
,
1010
0000
1000
0000
0001
1000
0000
0000
,
1000
0000
0001
0000
0100
0001
0000
0000
,
0010
0000
0001
0000
0010
0100
0000
0000
,
0010
0000
1000
0000
0010
0001
0000
0000
,
0001
0000
0000
0010
0000
0000
0001
0000
,
0000
1000
0000
1000
0010
0000
0100
0000
,
0001
0010
0001
0000
1000
0000
0010
0000
,
0100
0000
0001
0000
1000
0100
1000
0000
,
0110
0000
0010
0000
1000
0010
0000
0000
,
0010
0000
0100
0000
0001
0100
0000
0000
,
0001
0000
1000
0000
0001
1000
0000
0000
,
1000
0000
0100
0000
0010
0001
0010
0000
,
0001
1000
0100
0010
,
0100
0000
1000
0100
0000
0000
1000
0000
,
0010
0100
0001
0010
,
0001
0000
1000
0000
0001
0100
0001
0000
,
1001
0000
0001
0000
0010
0001
0000
0000
,
0100
0000
0010
0000
1000
0010
0000
0000
,
0100
0000
0001
0000
1000
0001
0000
0000
,
0001
0000
0100
0000
0001
1000
0001
0000
,
1000
0000
0000
0010
0000
0000
0100
0000
,
0000
0001
0000
0010
0000
0000
1000
0000
,
0010
0001
0010
0001
,
1000
0000
0100
1000
0100
0000
1000
0000
,
1001
2200
0000
0000
,
0000
0000
3300
1001
,
0011
0220
0000
0000
,
0000
0330
1002
1003
,
0001
0200
0000
0301
,
1000
0020
0000
1030
,
0100
0000
0010
0001
0000
0000
0001
0000
,
0010
0000
0001
1000
0000
0000
1000
0000
,
0010
0001
0010
1000
,
0100
0010
0100
1000
,
0100
0000
0001
0000
0100
0000
1000
0100
,
0000
1000
0000
1002
0013
0000
0001
0000
,
0200
0000
0310
1000
,
0200
0000
1300
0010
,
0001
0010
0000
0000
1000
0000
0100
0000
,
0001
0100
0000
0000
1000
0000
0100
0000
,
1000
0010
0100
0001
,
0010
0001
1000
0100
,
0010
0000
0000
0001
0000
0000
0010
0000
0001
0000
0010
0000
,
0000
0000
0001
0000
1000
0000
0002
0000
0000
1003
0000
0000
,
2010
0000
0000
0010
3010
1000
0100
0000
,
0201
0010
2300
3001
,
0102
0000
0000
1000
1003
0001
0200
0000
,
0310
1000
0100
0000
1000
0000
0010
0000
,
0100
0001
0010
0100
,
1000
0100
0010
0100
,
1000
0001
0100
0001
,
0010
0001
0010
0000
0001
0000
1000
0000
,
0100
0001
0100
1000
,
0010
0100
0001
0010
,
0100
1000
0100
0001
,
0100
0001
0100
0000
2000
0000
3010
1000
,
0100
0020
0000
0031
0020
0000
0031
1000
,
0020
0000
0230
0000
0302
0000
1003
0100
,
0010
0002
0000
1003
0010
1000
0001
0000
,
0001
0100
0020
0000
1030
0000
0010
0000
,
0100
0010
1000
0100
,
0001
0100
1000
0001
,
0010
0001
1000
0010
,
0001
0010
1000
0100
,
0010
0100
0010
0000
0100
0000
1000
0000
,
0001
1000
0010
0100
,
0001
0010
0001
0000
1000
0001
0000
0001
,
0000
1002
0013
0000
0001
0000
1000
0000
,
0010
0001
0010
1000
,
0001
0100
1000
0100
,
0001
1000
0100
0010
,
0100
0000
1000
0000
0001
0000
0010
0001
,
0010
0001
0010
0100
,
0010
0000
0001
0000
1000
0000
0100
1000
,
0100
0000
1000
0001
0000
0001
0000
2001
,
3100
0100
0100
1000
,
0010
0010
0010
1000
,
0001
0001
0001
1000
,
0010
0000
0100
0010
0100
0010
0100
0000
,
0001
0010
1000
0010
,
0001
1000
0100
0010
,
0100
1000
0001
0100
,
0001
1000
0000
0010
0000
1002
0103
0000
,
0100
0100
0100
0010
,
1000
0010
1000
0000
0001
0000
0100
0001
,
0100
0001
0010
0100
,
1000
0100
0010
0001
,
1000
0001
0000
1000
0001
0000
0010
0001
,
0000
0010
0000
0001
0100
0000
0001
0000
,
1000
0200
0000
1300
,
0010
0200
0300
2002
,
0000
0000
0000
0000
,
0000
0000
0000
0000
,
0000
0000
0000
0000
,
0000
0000
0000
3003
,
0001
1000
1000
0010
,
0100
0001
0001
0010
,
0001
1000
1000
0100
,
0010
0000
0001
1000
0001
0000
1001
0000
,
0001
1000
0000
0000
0000
0000
0000
0000
;

//---------------dance-single - ----------------
#NOTEDATA:;
#CHARTNAME:;
#CHARTHASH:90083989;
#STEPSTYPE:dance-single;
#BANNER:;
#DESCRIPTION:;
#CHARTSTYLE:;
#DIFFICULTY:Hard;
#METER:17;
#METERF:17.000000;
#LASTSECONDHINT:97.028740;
#RADARVALUES:0.996509,1.223269,0.549898,0.132383,0.056008,685.000000,631.000000,54.000000,13.000000,0.000000,0.000000,0.000000,0.000000,0.000000,0.996509,1.223269,0.549898,0.132383,0.056008,685.000000,631.000000,54.000000,13.000000,0.000000,0.000000,0.000000,0.000000,0.000000;
#CREDIT:;
#NOTES:
0000
0000
0000
0000
,
0000
0000
0000
0000
,
0000
0000
0000
0000
,
0000
0000
0000
0000
,
0000
0000
0000
0000
,
2002
0000
0000
0000
,
0000
0000
0000
0000
,
0000
0000
0000
0000
,
0000
0000
0000
0000
,
3000
1003
1000
0001
,
0100
0001
0001
1000
,
0010
0100
0100
0001
,
0010
0000
0001
1000
0010
1000
0001
0000
,
1001
0000
0001
0100
0000
0100
0001
0000
,
1001
0000
1000
0010
0000
0010
1000
0000
,
1001
0000
0010
0100
0000
0100
0010
0000
,
1001
0000
0100
0010
0000
0010
0100
0000
,
0010
1000
0010
0000
1000
0001
1000
0001
,
0000
0100
0000
0001
0100
0000
0100
0010
,
0000
1000
0000
1000
0010
0000
0010
0100
,
0000
0001
0010
0100
1000
0001
1000
0000
,
1100
0000
1000
0010
0000
0010
1000
0000
,
0101
0000
0001
0010
0000
0010
0001
0000
,
1001
0000
1000
0100
0000
0100
0010
0000
,
0011
0000
0001
1000
0000
1000
0100
0000
,
1000
0001
0000
0001
1000
0000
0010
0100
,
0000
0100
0010
1000
0001
0100
0001
0000
,
1000
0010
1000
0000
0001
1000
0000
1000
,
0100
0010
0001
0010
1000
0010
0001
0000
,
0101
0000
0001
0010
0000
0010
0001
0000
,
1001
0000
1000
0010
0000
0010
1000
0000
,
1100
0000
1000
0001
0000
0001
0010
0000
,
0011
0000
0001
0100
0000
0100
0010
0000
,
1000
0010
1000
0010
0100
0001
0100
0001
,
1000
0000
0001
0100
0000
0010
0000
0100
,
0001
0000
1000
0010
1000
0001
0100
0000
,
0001
0010
0100
1000
0100
0010
0100
0000
,
1001
0000
1000
0001
0000
0001
1000
0000
,
1010
0000
0010
0100
0000
0100
0010
0000
,
0110
0000
0100
0001
0000
0001
0010
0000
,
0011
0000
0001
0100
0000
0100
0010
0000
,
1010
0000
1000
0100
0000
1000
0010
0000
,
1000
0001
0000
0100
0000
0001
1000
0000
,
0001
0100
0010
1000
0010
0100
0001
0000
,
1000
0100
0001
0100
1000
0100
0001
0000
,
1100
0000
1010
0000
1000
0010
1000
0010
,
1000
0010
1000
0010
1000
0000
1001
0000
,
0101
0011
0100
0100
,
0100
0100
0102
1003
,
1000
0010
0000
0010
0100
0000
1001
0000
,
0100
0001
0000
0001
1000
0000
0110
0000
,
0010
1000
0000
1000
0100
0000
1001
0000
,
0001
0100
0000
0100
0010
0000
0011
0000
,
0001
0100
0000
0001
1000
0001
0100
0000
,
0001
0010
0000
0001
0100
0010
1000
0000
,
0010
1000
0000
1000
0001
0100
0001
1000
,
0000
1010
0000
2001
3100
0000
1000
0010
,
0000
0000
1000
0000
1001
0000
0001
0100
,
0000
0000
0100
0000
0110
0000
0010
1000
,
0000
0000
1000
0000
1001
0000
0001
1000
,
0000
1000
0100
0000
1100
0000
1000
0010
,
1000
0001
1000
0000
0101
0000
0001
0010
,
0001
0100
0010
0000
0110
0000
1000
0100
,
0001
0000
0000
0100
0000
0000
1000
0000
0000
0000
0000
0000
0001
0000
0000
0000
1000
0000
0000
0000
0001
0000
0000
0000
,
0000
0000
1000
0000
0001
0000
0200
0000
0000
0001
0000
0000
,
0010
0000
0301
0100
0010
1000
0002
0000
,
2003
0100
3020
0100
,
0001
0000
0100
0000
1030
0010
0100
0001
,
1000
0001
1000
0000
0110
0000
0000
0000
1001
0000
0000
0000
0001
0000
0100
0000
,
0000
0100
0010
1000
0010
0000
1000
0010
,
0000
1000
0001
0100
0001
0000
0001
1000
,
0000
1000
0010
0100
0001
0000
1000
0001
,
1000
0001
0100
0000
0011
0000
0001
0100
,
0000
0100
0001
1000
0010
0000
0010
1000
,
0000
1000
0100
0010
0001
0000
0001
0100
,
0000
0010
1000
0001
1000
0000
0001
0100
,
0001
0100
0010
1000
0001
0100
0100
0010
,
1000
1000
0000
1000
0010
0000
1000
0100
,
0010
0000
0000
0001
0100
0010
1000
0000
0001
0000
0001
0000
1000
0000
0010
0000
,
1000
0000
1000
0000
0000
0000
1000
0000
0100
1000
0100
0000
1000
0010
0000
0010
,
1000
0001
1000
0000
0001
0000
0100
0000
0101
0000
0000
0000
0001
0000
1000
0000
,
0000
1000
0010
0100
0001
0000
0001
0100
,
0000
0010
1000
0001
1000
0000
1000
0001
,
0000
0100
0001
0010
0001
0000
0001
1000
,
0100
1000
0010
0000
1100
0000
1000
0100
,
1000
0010
0100
0001
0010
0000
0001
0010
,
1000
0010
0001
0100
0001
0000
1000
0100
,
0010
0001
0010
0100
1000
0001
0000
0101
,
0000
0210
0301
0000
0001
0100
0000
0100
,
0010
0000
1010
0000
1000
0001
0000
0001
,
0100
0000
0110
0000
0010
1000
0000
1000
,
0100
0000
1010
0000
1000
0100
0000
0100
,
0001
0000
1100
0000
1000
0001
0100
0001
,
0010
0001
1000
0000
0001
0100
0010
1000
,
0010
0100
0001
0000
1000
0100
0001
0100
,
1000
0010
1000
0100
0000
1100
0000
1002
,
0103
0001
0100
0001
0010
0001
0010
0001
,
1000
0001
1000
0100
1000
0100
0010
0001
,
0010
0100
1000
0001
1000
0100
1000
0010
,
0100
0001
0010
0100
1000
0001
1000
0000
,
1000
0001
1000
0010
1000
0001
0100
0001
,
0010
0001
0010
0001
0100
0001
0100
0010
,
1000
0100
0010
0001
0010
0100
1000
0001
,
1000
0001
0000
1001
0000
1020
0130
0010
,
1000
0010
0100
0010
1000
0010
0100
0000
,
0001
0100
0000
1000
0100
0001
0100
0010
,
1000
0001
1000
0100
0001
0100
1000
0000
,
1000
0010
0001
0010
1000
0000
1001
0000
,
0001
0100
0000
0001
1000
0000
0001
0010
,
0000
0001
0000
1000
0100
0000
1000
0010
,
0100
0001
0010
1000
0010
0000
0100
1000
,
0100
0001
0100
1000
0001
0000
2002
0000
,
0000
0000
0003
0001
,
0000
0000
0000
0001
,
0000
0000
0000
0001
,
0000
0000
0000
0001
,
3001
0100
0001
1000
,
1000
0010
1000
0001
,
0100
0100
0001
1000
,
0010
1000
0010
0100
0010
0000
1001
0000
,
1000
0001
0000
0000
0000
0000
0000
0000
;

//---------------dance-single - ----------------
#NOTEDATA:;
#CHARTNAME:;
#CHARTHASH:1144693094;
#STEPSTYPE:dance-single;
#BANNER:;
#DESCRIPTION:;
#CHARTSTYLE:;
#DIFFICULTY:Beginner;
#METER:7;
#METERF:7.000000;
#LASTSECONDHINT:85.497490;
#RADARVALUES:0.257492,0.365835,0.142566,0.061100,0.000000,177.000000,163.000000,14.000000,6.000000,0.000000,0.000000,0.000000,0.000000,0.000000,0.257492,0.365835,0.142566,0.061100,0.000000,177.000000,163.000000,14.000000,6.000000,0.000000,0.000000,0.000000,0.000000,0.000000;
#CREDIT:;
#NOTES:
// measure 0
0000
0000
0000
0000
,  // measure 1
0000
0000
0000
0000
,  // measure 2
0000
0000
0000
0000
,  // measure 3
0000
0000
0000
0000
,  // measure 4
0000
0000
0000
0000
,  // measure 5
1001
0000
0000
0000
,  // measure 6
0000
0000
0000
0000
,  // measure 7
0000
0000
0000
0000
,  // measure 8
0000
0000
0000
0000
,  // measure 9
0000
1000
0000
0000
,  // measure 10
0000
1000
0000
0000
,  // measure 11
0000
0001
0000
0000
,  // measure 12
0000
0001
0000
0000
,  // measure 13
1000
0000
0000
0000
,  // measure 14
1000
0000
0000
0000
,  // measure 15
0001
0000
0000
0000
,  // measure 16
0001
0000
0000
0000
,  // measure 17
1000
0000
1000
0000
,  // measure 18
1000
0000
0000
0000
,  // measure 19
0001
0000
0001
0000
,  // measure 20
0001
0000
0000
0000
,  // measure 21
0100
0000
0000
0000
,  // measure 22
0100
0000
0000
0000
,  // measure 23
0010
0000
0000
0000
,  // measure 24
0010
0000
0000
0000
,  // measure 25
0100
0000
0100
0000
,  // measure 26
0100
0000
0000
0000
,  // measure 27
0010
0000
0010
0000
,  // measure 28
0010
0000
0000
0000
,  // measure 29
1000
0000
0000
0000
,  // measure 30
0100
0000
0000
0000
,  // measure 31
0001
0000
0000
0000
,  // measure 32
0100
0000
0000
0000
,  // measure 33
1000
0000
1000
0000
,  // measure 34
1000
0000
0000
0000
,  // measure 35
0001
0000
0001
0000
,  // measure 36
0001
0000
0000
0000
,  // measure 37
0001
0000
0000
0000
,  // measure 38
0010
0000
0000
0000
,  // measure 39
1000
0000
0000
0000
,  // measure 40
0010
0000
0000
0000
,  // measure 41
0001
0000
0001
0000
,  // measure 42
0001
0000
0000
0000
,  // measure 43
1000
0000
1000
0000
,  // measure 44
1000
0000
0000
0000
,  // measure 45
1001
0000
0000
0000
,  // measure 46
0000
0000
0000
0000
,  // measure 47
0000
0220
0000
0000
,  // measure 48
0000
0000
0330
0010
,  // measure 49
0000
0000
0000
0100
,  // measure 50
0000
0000
0000
0001
,  // measure 51
0000
0000
0000
1000
,  // measure 52
0000
0000
0000
0100
,  // measure 53
0000
0000
0000
0001
,  // measure 54
0000
0000
0000
0100
,  // measure 55
0000
0000
0000
1000
,  // measure 56
0000
1002
1003
0000
,  // measure 57
0000
0100
0100
0000
,  // measure 58
1000
0000
0010
0000
,  // measure 59
0000
0100
0100
0000
,  // measure 60
0001
0000
0010
0000
,  // measure 61
0000
0010
0010
0000
,  // measure 62
0000
0001
0001
0000
,  // measure 63
0000
1000
1000
0000
,  // measure 64
0001
0000
1001
0000
,  // measure 65
0010
0000
0010
0000
,  // measure 66
0100
0000
0100
0000
,  // measure 67
0010
0000
0010
0000
,  // measure 68
0100
0000
1001
0000
,  // measure 69
0000
0000
1000
0000
,  // measure 70
0000
0000
1000
0000
,  // measure 71
0000
1000
1000
0000
,  // measure 72
0100
0000
1001
0000
,  // measure 73
0000
0000
0001
0000
,  // measure 74
0000
0000
0001
0000
,  // measure 75
0000
0001
0001
0000
,  // measure 76
0100
0000
0110
0000
,  // measure 77
1000
0000
0100
0000
,  // measure 78
0001
0000
0100
0000
,  // measure 79
1000
0000
0010
0000
,  // measure 80
0100
0000
1001
0000
,  // measure 81
0000
0000
0001
0000
,  // measure 82
0000
0000
0001
0000
,  // measure 83
0000
0001
0001
0000
,  // measure 84
1000
0000
0010
0000
,  // measure 85
0010
0000
0100
0000
,  // measure 86
0100
0000
0010
0000
,  // measure 87
0010
0000
1000
0000
,  // measure 88
2001
3100
0000
0000
,  // measure 89
0000
0100
0000
0000
,  // measure 90
0000
0100
0000
0000
,  // measure 91
0100
0100
0000
1000
,  // measure 92
0000
0100
0000
0100
,  // measure 93
0000
1000
0000
1000
,  // measure 94
0000
0001
0000
0001
,  // measure 95
0000
0100
0000
0210
,  // measure 96
0310
0000
0000
0010
,  // measure 97
0010
0000
1000
0000
,  // measure 98
0010
0000
0000
0100
,  // measure 99
0100
0000
0001
0000
,  // measure 100
1000
1000
0000
0000
,  // measure 101
0100
0100
0000
0000
,  // measure 102
1000
1000
0000
0000
,  // measure 103
0001
0000
1002
1003
,  // measure 104
0000
0000
0000
0010
,  // measure 105
0000
0000
0000
0100
,  // measure 106
0000
0000
0000
0001
,  // measure 107
0000
0000
0000
1000
,  // measure 108
1000
0000
0000
0010
,  // measure 109
0010
0000
0000
0100
,  // measure 110
0100
0000
0000
0001
,  // measure 111
0001
0000
0000
1001
,  // measure 112
0000
0000
0000
0000
,  // measure 113
0000
0000
0000
0000
,  // measure 114
0000
0000
0000
0000
,  // measure 115
0000
0000
0000
0000
,  // measure 116
1000
0000
0000
0000
,  // measure 117
1000
0000
0000
0000
,  // measure 118
0001
0000
0000
0000
,  // measure 119
0001
0001
0000
1001
;
