#TITLE:BACK TO BASICS;
#SUBTITLE:(Radio Edit);
#ARTIST:SHAPESHIFTERS;
#TITLETRANSLIT:;
#SUBTITLETRANSLIT:;
#ARTISTTRANSLIT:;
#GENRE:HOUSE;
#CREDIT:YonabearCWY;
#BANNER:BACK TO BASICS (Radio Edit).png;
#BACKGROUND:BACK TO BASICS (Radio Edit)-bg.png;
#LYRICSPATH:;
#CDTITLE:Dance Mania EX9.png;
#MUSIC:BACK TO BASICS (Radio Edit).ogg;
#OFFSET:-0.075000;
#SAMPLESTART:53.738678;
#SAMPLELENGTH:15.000000;
#SELECTABLE:YES;
#BPMS:0.000000=123.940002
;
#STOPS:
;
#BGCHANGES:16.000=night1.mp4=1.000=1=0=1===CrossFade==,
24.000=bubble2.mp4=1.000=0=0=1=====,
32.000=dance4.mp4=0.900=0=0=1=====,
44.000=ddr4.mp4=1.000=0=0=1=====,
48.000=discoball1.mp4=1.000=0=0=1=====,
56.000=disco3.mp4=1.000=0=0=1=====,
64.000=discoball1.mp4=1.000=0=0=1=====,
72.000=disco4.mp4=1.000=0=0=1=====,
80.000=dance5.mp4=1.000=0=0=1=====,
88.000=dance6.mp4=1.400=0=0=1=====,
96.000=dance7.mp4=1.000=0=0=1=====,
112.000=dance10.mp4=1.000=0=0=1=====,
120.000=disco3.mp4=1.000=0=1=1=StretchRewind====,
128.000=dance10.mp4=1.000=0=0=1=====,
136.000=disco4.mp4=1.000=0=1=1=StretchRewind====,
144.000=night1.mp4=1.000=0=1=1=StretchRewind====,
152.000=bubble2.mp4=1.000=0=1=1=StretchRewind====,
160.000=ddr4.mp4=1.000=0=1=1=StretchRewind====,
176.000=heart6.mp4=1.000=0=0=1=====,
178.250=heart7.mp4=1.000=0=0=1=====,
180.000=heart6.mp4=1.000=0=0=1=====,
181.250=heart7.mp4=1.000=0=0=1=====,
184.000=bubble2.mp4=1.000=0=1=1=StretchRewind====,
188.000=disco3.mp4=1.000=0=1=1=StretchRewind====,
192.000=BACK TO BASICS (Radio Edit)-bg.png=1.000=0=0=1=====,
99999.000=-nosongbg-=1.000=0=0=0=StretchNoLoop====,
99999=-nosongbg-=1.000=0=0=0 // don't automatically add -songbackground-
;
#KEYSOUNDS:;
#ATTACKS:;

//---------------dance-single - ----------------
#NOTES:
     dance-single:
     :
     Beginner:
     1:
     0.106698,0.124481,0.010373,0.000000,0.000000,72.000000,71.000000,1.000000,0.000000,0.000000,0.000000,0.106698,0.124481,0.010373,0.000000,0.000000,72.000000,71.000000,1.000000,0.000000,0.000000,0.000000:
0000
0000
0000
0000
,
0000
0000
0000
0000
,
0000
0000
0000
0000
,
0000
0000
0000
0000
,
1000
0000
0000
0000
,
1000
0000
0000
0000
,
0001
0000
0000
0000
,
0001
0000
0000
0000
,
0100
0000
0000
0000
,
0100
0000
0000
0000
,
0010
0000
0000
0000
,
0010
0000
0000
0000
,
1000
1000
1000
0000
,
1000
0000
0000
0000
,
0001
0001
0001
0000
,
0001
0000
0000
0000
,
0100
0100
0100
0000
,
0100
0000
0000
0000
,
0010
0010
0010
0000
,
0010
0000
0000
0000
,
1000
0000
1000
0000
,
1000
0000
0000
0000
,
0001
0000
0001
0000
,
0001
0000
0000
0000
,
1000
0000
1000
0000
,
1000
0000
0000
0000
,
0001
0000
0001
0000
,
0001
0000
0000
0000
,
1000
1000
1000
0000
,
0100
0000
0000
0000
,
0010
0010
0010
0000
,
0001
0000
0000
0000
,
0001
0001
0001
0000
,
0100
0000
0000
0000
,
0010
0010
0010
0000
,
1000
0000
0000
0000
,
0001
0000
0001
0000
,
0001
0000
0000
0000
,
1000
0000
1000
0000
,
1000
0000
0000
0000
,
0010
0000
0010
0000
,
0010
0000
0000
0000
,
0100
0000
0100
0000
,
0100
0000
0000
0000
,
0001
0000
1000
0000
,
0001
0000
0000
0000
,
1000
0000
0001
0000
,
1000
0000
0000
0000
,
1001
0000
0000
0000
;

//---------------dance-single - ----------------
#NOTES:
     dance-single:
     :
     Easy:
     4:
     0.163011,0.224066,0.051867,0.000000,0.000000,110.000000,105.000000,5.000000,0.000000,0.000000,0.000000,0.163011,0.224066,0.051867,0.000000,0.000000,110.000000,105.000000,5.000000,0.000000,0.000000,0.000000:
0000
0000
0000
0000
,
0000
0000
0000
0000
,
0000
0000
0000
0000
,
0000
0000
0000
0000
,
1000
0000
1000
0000
,
0001
0000
0000
0000
,
0001
0000
0001
0000
,
1000
0000
0000
0000
,
0100
0000
0100
0000
,
0010
0000
0000
0000
,
0001
0000
0001
0000
,
0110
0000
0000
0110
0000
0000
0000
0000
,
1000
1000
1000
1000
,
1000
0000
1000
0000
,
0001
0001
0001
0001
,
0001
0000
0001
0000
,
0100
0100
0100
0100
,
0100
0000
0100
0000
,
0010
0010
0010
0010
,
0010
0000
0010
0000
,
1000
0000
1000
0000
,
0001
0000
0001
0000
,
0100
0100
0100
0000
,
0100
0000
0000
0000
,
0010
0000
0010
0000
,
1000
0000
1000
0000
,
0010
0010
0010
0000
,
0010
0000
0000
0000
,
1000
1000
1000
0000
,
1000
0000
0000
0000
,
0001
0001
0001
0000
,
0001
0000
0000
0000
,
0100
0100
0100
0000
,
0100
0000
0000
0000
,
0010
0010
0010
0000
,
0010
0000
0000
0000
,
1000
0100
0010
0000
,
0011
0000
0000
0000
,
0001
0100
0010
1000
,
0100
0000
0010
0000
,
0001
1000
0010
0000
,
0110
0000
0001
1000
,
0100
0000
0010
0001
,
1000
0010
0100
0001
,
1000
1000
0001
0000
,
0001
0001
1000
0000
,
0010
0010
0100
0000
,
0100
0100
0010
0000
,
1001
0000
0000
0000
;

//---------------dance-single - ----------------
#NOTES:
     dance-single:
     :
     Medium:
     6:
     0.248963,0.298755,0.103734,0.000000,0.000000,168.000000,158.000000,10.000000,0.000000,0.000000,0.000000,0.248963,0.298755,0.103734,0.000000,0.000000,168.000000,158.000000,10.000000,0.000000,0.000000,0.000000:
0000
0000
0000
0000
,
0000
0000
0000
0000
,
0000
0000
0000
0000
,
0000
0000
0000
0000
,
1000
0000
0001
0001
,
1000
0000
0010
0010
,
0100
0000
0001
0000
,
1000
0000
0000
0100
0000
0000
0010
0000
,
0001
0000
1000
1000
,
0010
0000
0100
0100
,
0001
0000
0010
0000
,
1001
0000
0000
0110
0000
0000
0000
0000
,
1000
1000
1000
0000
,
0001
0001
0001
0000
,
1000
0010
1000
0000
,
0001
0100
0001
0000
,
1000
0000
0000
0001
0010
0000
0100
0000
,
1000
0000
0000
1000
0100
0000
0010
0000
,
0001
0000
0000
0100
0010
0000
0000
1000
,
0001
0010
0100
1000
,
0001
0000
0001
0000
1000
0001
1000
0000
,
0010
0000
0010
0000
0100
0001
0100
0000
,
0010
0000
0000
1000
0000
0000
0001
0000
,
0100
0010
1000
0100
,
0010
0000
0010
0000
0001
1000
0001
0000
,
0100
0000
0100
0000
0010
0100
0010
0000
,
1000
0001
0010
0100
,
1000
0001
1000
0001
0000
0000
0000
0000
,
1001
0000
1000
0000
1000
0000
1000
0010
,
0000
0100
0001
0100
0001
0000
0010
0000
,
0100
0000
1000
0000
,
0001
0001
0001
0001
,
1001
0000
0000
0100
0010
0000
1000
0010
,
1000
0010
0100
0001
,
0010
0000
0100
0000
,
1000
0001
0100
0010
,
1001
0000
0001
0000
0001
0000
0001
0100
,
0000
0010
1000
0010
1000
0000
0001
0000
,
0100
0010
1000
0000
,
0100
0010
0001
1000
,
0010
0000
0100
0000
,
0001
0000
1000
0001
1000
0000
0100
0000
,
0010
0001
1000
0001
,
0010
0000
0010
0000
,
1001
1001
0010
0000
,
0110
0110
1000
0000
,
0001
0001
1000
0000
,
0100
0100
0010
0000
,
1001
0000
0000
0000
;

//---------------dance-single - ----------------
#NOTES:
     dance-single:
     EXPERT:
     Hard:
     9:
     0.383817,0.373444,0.238589,0.207469,0.057054,259.000000,236.000000,23.000000,20.000000,0.000000,0.000000,0.383817,0.373444,0.238589,0.207469,0.057054,259.000000,236.000000,23.000000,20.000000,0.000000,0.000000:
0000
0000
0000
0000
,
0000
0000
0000
0000
,
0000
0000
0000
0000
,
0000
0000
0000
0000
,
2010
0000
0000
3001
0200
0000
0000
1300
,
0200
0000
0310
1000
0001
0000
0100
0000
,
0120
0000
0000
1030
0200
0000
0310
0000
,
0002
0000
0000
1003
0000
0001
0010
0000
,
2100
0000
3001
0100
0002
0000
1003
0010
,
0200
0000
0301
1000
0001
0000
0100
0000
,
1002
0000
0013
0001
0200
0000
0310
0100
,
0220
0000
0330
2002
0000
0000
3003
0000
,
0001
0000
1000
0000
0001
0010
0001
0000
,
0100
0000
0000
0000
0010
0000
0000
0000
1000
0000
0000
0001
0000
0000
0010
0000
,
0100
0000
1000
0000
0001
0100
0001
0000
,
0010
0100
1000
0001
,
0110
0000
0000
1000
0010
0000
0100
0001
,
1000
0011
0100
1010
,
0101
0000
0000
1000
0100
0010
0001
0000
,
0100
1010
0100
1001
,
0010
0001
0010
0000
0100
0100
0100
0000
,
1000
0001
0010
0100
1000
0100
0010
0000
,
1001
0010
1001
0100
,
1000
0010
1000
0000
0001
0001
0001
0000
,
1000
0100
0010
0000
0100
1000
0001
0000
,
0100
0010
0100
0000
0001
0010
1000
0000
,
0010
0001
1000
0001
0010
0000
0100
0000
,
1000
1000
1000
1000
0000
0001
0100
0000
,
0201
0000
0001
0000
1000
0000
0310
0200
,
0000
0000
0000
0001
0000
0301
0000
0000
0001
0000
1000
0000
0100
0000
0010
0000
,
0011
0000
1000
0000
0101
0000
0001
2000
,
0000
0000
0000
0010
0000
3010
0000
0000
0100
0000
0001
0000
1000
0000
0000
0000
,
0120
0000
1000
0000
0001
0000
0130
0020
,
0000
0000
0000
1000
0000
1030
0000
0000
0001
0000
0100
0000
0010
0000
1000
0000
,
0100
0000
0010
0001
1000
0000
0001
0100
,
0000
0010
0010
0010
0010
0000
1000
0001
,
1000
0000
0001
0000
0010
0000
0100
1000
,
0000
0100
0010
0001
1000
0010
0100
0001
,
1010
0000
0100
0000
0011
0000
0100
0010
,
0000
1000
1000
1000
1000
0000
0001
0010
,
0100
0000
1000
0000
0100
0000
0010
0001
,
0000
1000
0001
0010
0100
0010
0001
1000
,
0010
0000
0100
0010
0100
0000
0001
1000
,
0000
0100
0010
0001
1000
0010
0100
0000
,
0001
0000
0001
0000
0001
0000
0000
1000
0000
0010
0000
0000
0101
0000
0000
0000
,
0010
0000
0010
0000
0010
0000
0000
0001
0000
1000
0000
0000
0110
0000
0000
0000
,
1000
0100
0001
0000
0001
0100
1000
0000
,
0001
0010
1000
0000
1000
0010
0001
0000
,
1001
0000
0000
0000
;

//---------------dance-double - ----------------
#NOTES:
     dance-double:
     :
     Easy:
     4:
     0.211915,0.273859,0.072614,0.000000,0.000000,143.000000,136.000000,7.000000,0.000000,0.000000,0.000000,0.211915,0.273859,0.072614,0.000000,0.000000,143.000000,136.000000,7.000000,0.000000,0.000000,0.000000:
00000000
00000000
00000000
00000000
,
00000000
00000000
00000000
00000000
,
00000000
00000000
00000000
00000000
,
00000000
00000000
00000000
00000000
,
10000000
00000000
10000000
00000000
,
00010000
00010000
00100000
00100000
,
00001000
00000000
00001000
00000000
,
00010000
00010000
00000010
00000010
,
00000100
00000001
00000100
00001000
,
00000100
00000000
00000001
00001000
,
00000100
00010000
00001000
00100000
,
10010000
00000000
00000000
10010000
00000000
00000000
00000000
00000000
,
01000000
01000000
01000000
00000000
,
00001000
00010000
00001000
00000000
,
00000010
00000001
00000010
00000000
,
00000001
00000001
00000001
00000000
,
00001000
00001000
00001000
00000000
,
00000010
00010000
00000010
00000000
,
00001000
00001000
00001000
00000000
,
00000100
00010000
00000100
00000000
,
00011000
00000000
00001000
01000000
,
00100000
00000000
10000000
00100000
,
00010000
00001000
00010000
00000100
,
00010000
00000000
00000100
00000100
,
00001000
00000000
00000001
00000010
,
00000100
00000000
00001000
00000100
,
00010000
00001000
01000000
00010000
,
00110000
00000000
00000000
00000000
,
00010000
00010000
00010000
00010000
,
00000000
10000000
01000000
00100000
,
00011000
00000100
00000011
00000100
,
00000010
00001000
00000001
00001000
,
00000001
00000001
00000001
00000001
,
00000000
00001000
00000100
00000010
,
00000001
00001000
00000010
00010000
,
00000010
00000000
00001000
00000000
,
00000100
00000000
00000100
00000100
,
00010000
00000000
00010000
00010000
,
00001000
00010000
00001000
01000000
,
00010000
01000000
00100000
10000000
,
01000000
01000000
00100000
00000000
,
00100000
00100000
00001000
00000000
,
00001000
00010000
00001000
00000000
,
00010000
00001000
00010000
00000000
,
00000010
00000000
00000100
00000000
,
00000001
00000000
00001000
00000000
,
00000100
00000000
00010000
00000000
,
00001000
00100000
00000000
00000000
,
00011000
00000000
00000000
00000000
;

//---------------dance-double - ----------------
#NOTES:
     dance-double:
     :
     Medium:
     6:
     0.268228,0.298755,0.103734,0.000000,0.000000,181.000000,171.000000,10.000000,0.000000,0.000000,0.000000,0.268228,0.298755,0.103734,0.000000,0.000000,181.000000,171.000000,10.000000,0.000000,0.000000,0.000000:
00000000
00000000
00000000
00000000
,
00000000
00000000
00000000
00000000
,
00000000
00000000
00000000
00000000
,
00000000
00000000
00000000
00000000
,
10000000
00000000
10000000
00000000
,
10000000
10000000
00010000
00010000
,
00100000
00000000
00001000
00010000
,
00000010
00000000
00000100
00000000
00000001
00001000
00000001
00000000
,
00000100
00000000
00000100
00000000
,
00000100
00000100
00000010
00000010
,
00001000
00000100
00010000
00001000
,
00011000
00000000
00000000
00011000
00000000
00000000
00000000
00000000
,
00100000
01000000
00100000
00010000
,
10000000
00000000
00010000
00000000
,
00100000
00001000
00010000
00001000
,
00100000
00000000
00001000
00000000
,
00010000
00000010
00001000
00000100
,
00010000
00000000
00000010
00000000
00000100
00000010
00000100
00000000
,
00000010
00001000
00000100
00010000
,
00001000
00010000
00001000
00000000
00100000
00000000
00001000
00000000
,
00010000
00000000
00010000
00010000
,
00001000
00000000
00001000
00001000
,
00100000
00010000
10000000
01000000
,
00100000
00000000
00010000
00000000
00100000
00000000
01000000
00010000
,
00001000
00001000
00010000
00000000
,
00010000
00010000
00000100
00000000
,
00001000
00000000
00000001
00000000
00000010
00000001
00000010
00000000
,
00000001
00001000
00000001
00001000
00000000
00000000
00000000
00000000
,
00011000
00000000
00001000
00000000
00001000
00000000
00001000
00010000
,
00000000
00010000
00001000
00000000
00010000
00000000
00001000
00000000
,
01000000
00000000
00000000
00000000
01000000
00000000
00000000
00100000
,
00000000
00100000
00000000
00100000
00000000
00100000
01000000
00000000
,
10010000
00000000
10000000
00000000
10000000
00000000
10000000
00010000
,
00000000
00010000
10000000
00000000
00010000
00000000
00100000
00000000
,
00001000
00000000
00010000
00000000
00000000
00001000
00000000
00001000
,
00000000
00001000
00000000
00010000
00001000
00000000
00011000
00000000
,
00010000
00000000
00000100
00000000
00000010
00000000
00000001
00001000
,
00000000
00001000
00000001
00000000
00000010
00000000
00000100
00000000
,
00010000
00000000
00010000
00000000
00010000
00000000
00010000
00001000
,
00000000
00001000
00100000
00010000
00100000
00000000
10010000
00000000
,
10000000
00000000
00100000
00000000
01000000
00000000
00001000
00100000
,
00000000
00100000
00001000
00000000
00010000
00000000
00000100
00000000
,
00001000
00000000
00001000
00000000
00001000
00000000
00001000
00000001
,
00000000
00000010
00000001
00000010
00000001
00000000
00001000
00000000
,
00001010
00000000
00000100
00010000
,
00011000
00000000
01000000
00001000
,
00011000
00000000
00001000
00100000
,
00010000
10000000
01000000
00100000
,
00011000
00000000
00000000
00000000
;

//---------------dance-double - ----------------
#NOTES:
     dance-double:
     :
     Hard:
     9:
     0.368998,0.373444,0.114108,0.124481,0.000000,249.000000,238.000000,11.000000,12.000000,0.000000,0.000000,0.368998,0.373444,0.114108,0.124481,0.000000,249.000000,238.000000,11.000000,12.000000,0.000000,0.000000:
00000000
00000000
00000000
00000000
,
00000000
00000000
00000000
00000000
,
00000000
00000000
00000000
00000000
,
00000000
00000000
00000000
00000000
,
11000000
00000000
00100000
00010000
00100000
00000000
00001000
00010000
,
00002000
00000000
00000000
00013000
00000010
00000000
00000100
00000001
,
00001000
00000000
00000100
00001000
00000100
00000000
00010000
00001000
,
00010000
00001000
00000000
00010000
00100000
01000000
00010000
00000000
,
10100000
00000000
01000000
00010000
01000000
00000000
00001000
00010000
,
00002000
00000000
00000000
00103000
00001000
00000000
00010000
00000100
,
00010000
00000000
00000010
00000100
00000001
00000100
00000010
00000000
,
00002002
00000000
00003003
00002002
00000000
00000000
00003003
00000000
,
00010000
00000000
00001000
00000000
01000000
00100000
00010000
00000000
,
00100000
10000000
00010000
01000000
,
00001000
00000000
00100000
00001000
00010000
00000100
00000010
00000000
,
00000001
00001000
00000010
00010000
,
00012000
00000000
00000000
01003000
00020000
00000000
00030000
00100000
,
02000000
00000000
13000000
01000000
00100000
00000000
00010000
00000000
,
00210000
00000000
00000000
00301000
00020000
00000000
00000000
00030100
,
00000020
00000000
00000031
00000000
00000100
00000010
00001000
00000000
,
00000100
00010000
00001000
00010000
00000010
00010000
00010000
00000000
,
00001000
00100000
00001000
01000000
00001000
00010000
00010000
00000000
,
00001000
00000000
01000000
00010000
00100000
00000000
00010000
00000000
,
10000000
00000000
00100000
00000000
01000000
01000000
01000000
00000000
,
00001000
00100000
00010000
01000000
00010000
00100000
00001000
00000000
,
00010000
00000100
00001000
00000010
00001000
00000100
00010000
00000000
,
00000010
00000000
00000100
00000000
00000001
00000001
00000001
00000000
,
00001000
00001000
00001000
00001000
00000000
00000010
00000100
00000000
,
00011000
00000000
00100000
00010000
00100000
00000000
00001000
00010000
,
00000000
00010000
00001000
00000000
00100000
00000000
00010000
00000000
,
10000000
01000000
00010000
01000000
10000000
00100000
01000000
00010000
,
00000000
00100000
00000000
00001000
00010000
00000000
00001000
00000000
,
00011000
00000000
00000100
00001000
00000100
00000000
00010000
00001000
,
00000000
00001000
00010000
00000000
00000010
00000000
00000100
00000000
,
00000001
00000010
00001000
00000000
00001000
00000010
00000001
00000010
,
00000000
00000100
00000010
00000001
00001000
00000000
00000100
00000000
,
00011000
00000000
00010000
00000000
00010000
00000000
00010000
00001000
,
00000000
00001000
00010000
00000000
00001000
00000000
01000000
00000000
,
00100000
10000000
01000000
00010000
01000000
10000000
00010000
00100000
,
00000000
00001000
00000000
00010000
00001000
00000000
00000010
00000000
,
00011000
00000000
00010000
00000000
00010000
00000000
00010000
00001000
,
00000000
00001000
00010000
00000000
00000100
00000000
00001000
00000000
,
00000001
00000100
00001000
00000000
00001000
00000100
00000001
00000100
,
00000000
00000010
00001000
00000010
00000100
00000010
00010000
00001000
,
00010000
00000000
00001000
00000000
00100000
00100000
00100000
00000000
,
00010000
00000000
10000000
00000000
01000000
01000000
01000000
00000000
,
00010000
00000000
00001000
00000000
00000010
00000010
00000010
00000000
,
00000001
00000000
00000100
00000000
00000010
00001000
00000100
00010000
,
00011000
00000000
00000000
00000000
;

//---------------dance-single - ----------------
#NOTES:
     dance-single:
     CHALLENGE:
     Challenge:
     12:
     0.515708,0.622407,0.300830,0.269710,0.316390,348.000000,319.000000,29.000000,26.000000,0.000000,0.000000,0.515708,0.622407,0.300830,0.269710,0.316390,348.000000,319.000000,29.000000,26.000000,0.000000,0.000000:
// measure 0
0000
0000
0000
0000
,  // measure 1
0000
0000
0000
0000
,  // measure 2
0000
0000
0000
0000
,  // measure 3
0000
0000
0000
0000
,  // measure 4
2010
0000
0000
0000
0000
0000
3001
0010
0002
0000
0000
0000
0000
0000
0103
0010
,  // measure 5
0100
0001
0000
0010
0100
1000
0001
0100
,  // measure 6
0120
0000
0000
0000
0000
0000
1030
0001
2000
0000
0000
0000
3001
0010
0100
0000
,  // measure 7
1000
0000
0001
0000
0010
0000
1001
0000
0000
0000
1000
0010
0100
0000
0000
0000
,  // measure 8
0021
0000
0000
0000
0000
0000
0130
0010
0200
0000
0000
0000
0000
0000
0310
0001
,  // measure 9
0010
0000
0001
0000
0000
0000
1000
0000
0001
0000
0010
0000
0100
0000
1000
0001
,  // measure 10
0020
0000
0000
0000
0000
0000
0130
1000
0100
0000
1000
0000
0001
0000
0010
0001
,  // measure 11
1000
0000
0000
0220
0000
0000
0330
0000
,  // measure 12
1000
0001
0010
0000
0100
0100
0100
0000
,  // measure 13
1000
0000
0100
0000
0010
0000
0001
0000
0100
0000
0000
0010
0000
0000
1000
0000
,  // measure 14
0001
0000
0010
0000
0100
0000
1000
0100
1000
0000
0010
0000
0100
0000
0001
0010
,  // measure 15
0001
0000
1000
0000
0100
0000
0010
0000
0000
0001
1000
0001
1000
0000
0010
0000
,  // measure 16
0100
0000
0001
0010
1000
0010
0001
0100
,  // measure 17
0210
0000
0000
0000
2300
0000
0000
0000
3200
0000
0000
0000
0310
0000
1000
0001
,  // measure 18
0100
0000
0001
0010
0100
1000
0010
0001
,  // measure 19
0210
0000
0302
0000
0203
0000
0310
0010
,  // measure 20
1001
0000
0100
0000
0010
0000
0100
0000
1000
0000
1000
0000
1000
0000
0000
0001
,  // measure 21
0000
0010
0001
0100
0001
0000
0010
0000
0100
0000
1000
0000
0001
0000
1000
0000
,  // measure 22
0100
0001
0100
1000
0010
0100
0010
0001
,  // measure 23
1000
0000
0100
0000
0001
0000
0100
0000
1000
0000
0000
0100
0000
0001
0010
0100
,  // measure 24
0000
1000
0100
0000
1000
0000
0001
0000
0010
0000
0010
0000
0010
0000
0000
0001
,  // measure 25
0000
1000
0100
1000
0010
0000
0100
0000
0001
0000
0010
0000
0100
0000
1000
0000
,  // measure 26
0001
0010
0001
0000
1000
0010
1000
0000
0100
0010
0100
0000
1000
0000
0001
0010
,  // measure 27
0100
0100
0100
0100
0000
1000
0001
0000
,  // measure 28
0210
0000
1300
0000
0120
0000
0031
0010
,  // measure 29
1000
0000
0000
0100
0000
0100
0000
1000
0001
0000
0010
0000
0100
0000
1000
0000
,  // measure 30
0001
0100
0000
0001
1000
0000
0000
0100
0010
0000
0001
0000
1000
0000
0010
0000
,  // measure 31
0000
0000
0100
0000
0100
0000
0100
0000
0100
0000
0000
0001
0010
0000
0100
0000
,  // measure 32
1020
0000
0130
0000
0201
0000
0310
0100
,  // measure 33
0001
0000
0000
1000
0000
1000
0000
0001
0010
0000
0100
1000
0100
0000
0010
0000
,  // measure 34
2001
0000
0000
3100
0010
0000
0001
0010
,  // measure 35
0000
0100
1000
0100
0001
0100
0010
0001
,  // measure 36
2010
0000
3001
0000
0102
0000
1003
0100
,  // measure 37
0001
0000
0000
0010
0000
0010
0000
0001
1000
0000
0010
0000
0100
0000
0001
0000
,  // measure 38
0010
0001
0000
0100
0010
0000
0000
0001
1000
0000
0100
0000
0001
0000
0100
0000
,  // measure 39
0000
0010
0010
0010
0010
0000
1000
0100
,  // measure 40
0012
0000
0103
0000
2100
0000
3010
0100
,  // measure 41
0001
0000
0000
1000
0000
1000
0000
0100
0010
0000
0100
1000
0100
0000
0010
0000
,  // measure 42
1002
0000
0000
0013
0100
1000
0001
0010
,  // measure 43
0000
0100
0100
1000
1000
0001
0001
0010
,  // measure 44
0011
0000
0001
0000
1000
0000
0000
0010
0000
0100
0000
0000
1001
0000
0010
0000
,  // measure 45
0101
0000
0001
0000
1000
0000
0000
0100
0000
0010
0000
0000
1010
0000
0100
0000
,  // measure 46
1001
0000
1001
0000
1002
0000
0000
0010
0000
0010
0000
1003
0001
0000
0010
0000
,  // measure 47
0110
0000
0110
0000
0110
0000
1000
0001
0000
0010
0000
0001
1000
0000
0010
0000
,  // measure 48
0110
0000
0000
0000
;
