#VERSION:0.83;
#TITLE:Atlas;
#SUBTITLE:;
#ARTIST:Battles;
#TITLETRANSLIT:;
#SUBTITLETRANSLIT:;
#ARTISTTRANSLIT:;
#GENRE:EXPERIMENTAL ROCK;
#ORIGIN:;
#TAGS:;
#CREDIT:YonabearCWY;
#BANNER:Atlas.png;
#BACKGROUND:Atlas-bg.png;
#PREVIEWVID:;
#JACKET:Atlas-jacket.png;
#CDIMAGE:Atlas-jacket2.png;
#DISCIMAGE:;
#LYRICSPATH:;
#CDTITLE:MIRRORED.png;
#MUSIC:Atlas.ogg;
#OFFSET:-0.075000;
#SAMPLESTART:75.949997;
#SAMPLELENGTH:28.500000;
#SELECTABLE:YES;
#DISPLAYBPM:135.000000;
#BPMS:0.000000=135.190002
;
#STOPS:523.000000=1.320000
;
#DELAYS:;
#WARPS:;
#TIMESIGNATURES:0.000000=4=4
;
#TICKCOUNTS:0.000000=4
;
#COMBOS:0.000000=1
;
#SPEEDS:0.000000=1.000000=0.000000=0
;
#SCROLLS:0.000000=1.000000
;
#LABELS:0.000000=Song Start
;
#BGCHANGES:0.000=Atlas.mp4=1.000=1=0=0=StretchNoLoop==CrossFade==,
99999.000=-nosongbg-=1.000=0=0=0=StretchNoLoop====,
99999=-nosongbg-=1.000=0=0=0 // don't automatically add -songbackground-
;
#KEYSOUNDS:;
#ATTACKS:
;

//---------------dance-single - ----------------
#NOTEDATA:;
#CHARTNAME:BEGINNER;
#CHARTHASH:1324674004;
#STEPSTYPE:dance-single;
#BANNER:;
#DESCRIPTION:;
#CHARTSTYLE:;
#DIFFICULTY:Beginner;
#METER:4;
#METERF:0.000000;
#LASTSECONDHINT:244.608246;
#RADARVALUES:0.168292,0.277305,0.048579,0.000000,0.004048,291.000000,279.000000,12.000000,0.000000,0.000000,0.000000,0.000000,0.000000,0.000000,0.168292,0.277305,0.048579,0.000000,0.004048,291.000000,279.000000,12.000000,0.000000,0.000000,0.000000,0.000000,0.000000,0.000000;
#CREDIT:YonabearCWY;
#DISPLAYBPM:135.000000;
#NOTES:
// measure 0
0000
0000
0000
0000
,  // measure 1
0000
0000
0000
0000
,  // measure 2
0000
0000
0000
0000
,  // measure 3
0000
0000
0000
0000
,  // measure 4
0000
0000
0000
0000
,  // measure 5
0000
0000
0000
0000
,  // measure 6
0000
0000
0000
0000
,  // measure 7
0000
0000
0000
0000
,  // measure 8
0000
0000
0000
1000
,  // measure 9
0000
1000
0000
1000
,  // measure 10
0000
0000
0000
0001
,  // measure 11
0000
0001
0000
0001
,  // measure 12
0000
0000
0000
0100
,  // measure 13
0000
0100
0000
0100
,  // measure 14
0000
0000
0000
0010
,  // measure 15
0000
0010
0000
0110
,  // measure 16
0000
0000
0000
0100
,  // measure 17
0000
0100
0000
0100
,  // measure 18
0000
0000
0000
0001
,  // measure 19
0000
0001
0000
0001
,  // measure 20
0000
0000
0000
1000
,  // measure 21
0000
1000
0000
1000
,  // measure 22
0000
1000
0000
1001
,  // measure 23
0000
0000
0000
0110
,  // measure 24
0000
0000
0000
0010
,  // measure 25
0010
0010
0000
1000
,  // measure 26
0000
0100
0000
1000
,  // measure 27
1000
1000
0000
0001
,  // measure 28
0000
0100
0000
0001
,  // measure 29
0001
0001
0000
0100
,  // measure 30
0100
0100
0000
0010
,  // measure 31
0010
0010
0000
1000
,  // measure 32
1000
1000
0000
0100
,  // measure 33
0100
0100
0000
1000
,  // measure 34
0010
1000
0001
1000
,  // measure 35
0000
1000
0000
0001
,  // measure 36
0100
0001
1000
0001
,  // measure 37
0000
0001
0000
0100
,  // measure 38
0000
0010
0000
1000
,  // measure 39
0000
0100
0000
1000
,  // measure 40
1000
1000
0000
0001
,  // measure 41
0001
0001
0000
0100
,  // measure 42
0100
0100
0100
0110
,  // measure 43
0000
0010
0000
0010
,  // measure 44
0000
0010
0000
0000
,  // measure 45
0000
1000
0000
1000
,  // measure 46
0000
1000
0000
0000
,  // measure 47
0000
0001
0000
0001
,  // measure 48
0000
0001
0000
0000
,  // measure 49
0000
0100
0000
0100
,  // measure 50
0000
0100
0000
0010
,  // measure 51
0010
0010
0000
0010
,  // measure 52
0010
0010
0000
0100
,  // measure 53
0100
0100
0000
0100
,  // measure 54
0100
0100
0000
0001
,  // measure 55
0001
0001
0000
1000
,  // measure 56
1000
1000
0000
0001
,  // measure 57
0001
0001
0001
1001
,  // measure 58
0000
0000
0000
1000
,  // measure 59
0000
1000
0000
0100
,  // measure 60
0000
0010
0000
0001
,  // measure 61
0000
0001
0000
0010
,  // measure 62
0000
0100
0000
1000
,  // measure 63
0000
0100
0000
1000
,  // measure 64
0000
0010
0000
0100
,  // measure 65
0100
0001
0000
0010
,  // measure 66
0010
0001
0000
0100
,  // measure 67
0100
0010
0000
0100
,  // measure 68
0000
0100
0000
0100
,  // measure 69
0000
0010
0000
1000
,  // measure 70
0000
1000
0000
1000
,  // measure 71
0000
0001
0000
1000
,  // measure 72
0000
0100
0000
1000
,  // measure 73
0000
0010
0000
0100
,  // measure 74
0100
0010
0000
0010
,  // measure 75
0010
1000
0000
1000
,  // measure 76
1000
0001
0000
1000
,  // measure 77
0001
1000
0001
1000
,  // measure 78
0001
1000
0001
1001
,  // measure 79
0000
0000
0000
0000
,  // measure 80
0000
0000
0000
1000
,  // measure 81
0000
0000
0000
0000
,  // measure 82
0000
0000
0000
0100
,  // measure 83
0000
0000
1000
0000
0000
0000
0000
0000
0000
0000
0000
0000
,  // measure 84
0000
0000
0000
0001
,  // measure 85
0000
0000
0010
0000
0000
0000
0000
0000
0000
0000
0000
0000
,  // measure 86
0000
0000
0000
0001
,  // measure 87
0000
0001
0000
1000
,  // measure 88
1000
1000
0000
0100
,  // measure 89
0000
0100
0000
1000
,  // measure 90
1000
1000
0000
0010
,  // measure 91
0000
0010
0000
0100
,  // measure 92
0100
0100
0000
0001
,  // measure 93
0000
0001
0000
1000
,  // measure 94
1000
1000
0000
0010
,  // measure 95
0000
0010
0000
0100
,  // measure 96
0100
0100
0000
0001
,  // measure 97
0000
0001
0000
1000
,  // measure 98
0000
1000
0000
0010
,  // measure 99
0000
0010
0000
0100
,  // measure 100
0000
0100
0000
0001
,  // measure 101
0000
0001
0000
1000
,  // measure 102
0000
1000
0000
0010
,  // measure 103
0000
0010
0000
0010
,  // measure 104
0000
0000
0000
0100
,  // measure 105
0000
0100
0000
0100
,  // measure 106
0000
0000
0000
0001
,  // measure 107
0000
0001
0000
1001
,  // measure 108
0000
0000
0000
1000
,  // measure 109
0000
1001
0000
0000
,  // measure 110
0010
0010
0010
0010
,  // measure 111
0000
0100
0000
0110
,  // measure 112
0000
0010
0000
1000
,  // measure 113
0000
1001
0000
0001
,  // measure 114
0000
1000
0000
0010
,  // measure 115
0100
0010
0100
0010
,  // measure 116
0100
0010
0100
0010
,  // measure 117
0000
0010
0000
0010
,  // measure 118
0000
0000
0000
1000
,  // measure 119
0000
1000
0000
1000
,  // measure 120
0000
0000
0000
0001
,  // measure 121
0000
0001
0000
0001
,  // measure 122
0000
0100
0000
0100
,  // measure 123
0000
0100
0000
0010
,  // measure 124
0000
0010
0000
0010
,  // measure 125
0000
1000
0000
1000
,  // measure 126
0000
0100
0000
1000
,  // measure 127
0000
0010
0000
1000
,  // measure 128
0000
0001
0000
0100
,  // measure 129
0000
0001
0000
0010
,  // measure 130
0000
0001
0000
1001
,  // measure 131
0100
0100
0100
0000
,  // measure 132
0100
0100
0100
0000
,  // measure 133
1000
1000
1000
0000
,  // measure 134
1000
0000
0001
0000
,  // measure 135
0001
0000
0001
0000
,  // measure 136
0001
1000
1000
1000
,  // measure 137
1001
0000
0000
0000
;

//---------------dance-single - ----------------
#NOTEDATA:;
#CHARTNAME:BASIC;
#CHARTHASH:3988503207;
#STEPSTYPE:dance-single;
#BANNER:;
#DESCRIPTION:;
#CHARTSTYLE:;
#DIFFICULTY:Easy;
#METER:7;
#METERF:0.000000;
#LASTSECONDHINT:244.608246;
#RADARVALUES:0.000000,0.000000,0.000000,0.000000,0.000000,0.000000,0.000000,0.000000,0.000000,0.000000,0.000000,0.000000,0.000000,0.000000,0.000000,0.000000,0.000000,0.000000,0.000000,0.000000,0.000000,0.000000,0.000000,0.000000,0.000000,0.000000,0.000000,0.000000;
#CREDIT:YonabearCWY;
#DISPLAYBPM:135.000000;
#NOTES:
0000
0000
0000
0000
,
0000
0000
0000
0000
,
0000
0000
0000
0000
,
0000
0000
0000
0000
,
0000
0000
0000
0000
,
0000
0000
0000
0000
,
0000
0000
0000
0000
,
0000
0000
0000
0000
,
0000
0000
0000
1000
,
0100
1000
0010
0100
,
0010
0200
0301
0010
,
1001
0010
1001
0100
,
1001
0100
1001
0100
,
1000
0100
0010
0001
,
0010
0200
0310
0100
,
1100
0100
1100
2002
,
0000
0000
3003
0001
,
0010
0001
0100
0010
,
1000
0200
1300
1000
,
0101
1000
0101
0010
,
1100
0120
0000
1030
,
0020
0130
0020
1030
,
0200
0301
0200
2300
,
0000
0000
0000
3002
,
0000
0000
0000
1003
,
0000
1000
0000
0001
,
0001
0100
0100
0010
,
0000
0010
0000
1000
,
1010
0010
0110
0100
,
0001
0100
0101
0001
,
1000
0001
1001
1000
,
0010
0001
0010
1000
,
0100
0010
0100
1000
,
0100
0001
1000
0010
,
0001
0010
0001
0100
,
0010
0100
0010
1000
,
0100
1000
0100
0001
,
0100
0001
0100
1000
,
0100
1000
1001
0010
,
0001
0010
1001
0100
,
0000
0100
0000
0010
,
0000
0010
0000
0001
,
0000
0001
1000
1001
,
0000
0010
0010
0010
,
0000
0200
0000
0301
,
1001
0100
0100
0100
,
0000
0020
0000
1030
,
1001
0010
0010
0010
,
0000
2000
0000
3001
,
0110
1000
1000
1000
,
0000
0002
0000
0103
,
0110
0010
1010
1000
,
1100
1000
0100
0010
,
0011
0001
0101
0100
,
0101
0001
1000
0100
,
1100
1000
1010
0010
,
0110
0100
0001
1000
,
0100
0001
1000
0010
,
0001
1000
0100
0001
,
0100
0000
0100
0000
0000
0000
1000
0000
0000
0010
0000
0000
,
1000
0000
1000
0000
0000
0000
0001
0000
0000
0100
0000
0000
,
0000
0100
0000
0001
,
0000
0001
0000
1000
,
0010
0000
0010
0000
0000
0000
0010
0000
0000
0100
0000
0000
,
0001
0000
0001
0000
0000
0000
1000
0000
0000
0001
0000
0000
,
1000
0100
1000
0100
,
0010
0001
0010
0001
,
1000
0000
1000
0000
0000
0000
0001
0000
0000
1000
0000
0000
,
0100
0000
0100
0000
0000
0000
1000
0000
0000
0010
0000
0000
,
0100
0000
0100
0000
0000
0000
0001
0000
0000
0010
0000
0000
,
0001
0100
0010
1000
,
0100
1000
0010
0100
,
0001
0000
0001
0000
0000
0000
1000
0000
0000
0100
0000
0000
,
1000
0000
1000
0000
0000
0000
0010
0000
0000
0100
0000
0000
,
0001
0010
0100
1000
,
0100
0001
0100
1000
,
0100
0010
0001
0011
,
1001
1100
0110
1001
,
0110
1010
1001
0120
,
0000
0000
0000
0000
,
0000
0000
0030
2000
,
0000
0000
0000
0000
,
0000
0000
3000
0002
,
0000
0000
2003
0000
0000
0000
3000
0000
0000
0100
0000
0000
,
0100
0100
0100
2000
,
0000
0000
3020
0000
0000
0000
0030
0000
0000
0100
0000
0000
,
0100
0100
0100
0001
,
1000
0001
1000
0010
,
0010
0020
0030
1000
,
0100
1000
0100
1000
,
1000
2000
3000
1001
,
0010
0010
0000
0010
,
0100
0100
0010
1001
,
0100
0100
0000
1000
,
0010
0010
1000
1001
,
0000
0001
0000
0100
,
0000
0010
0000
1000
,
1100
1000
1001
0001
,
0011
0001
0101
0001
,
1000
0100
0001
0100
,
1000
0010
0100
0010
,
1000
0100
0010
0100
,
1000
0001
1000
0200
,
1300
2000
3010
0020
,
0130
0200
0301
0002
,
1003
2000
3001
0002
,
0013
0020
0031
0002
,
0103
0200
0310
0020
,
1000
1000
1030
2000
,
0001
0001
3001
0002
,
0100
0010
1000
0023
,
0032
0203
0302
2003
,
0100
0100
3100
0200
,
2300
3020
0230
0302
,
0023
0032
2003
3001
,
0101
1001
1010
0110
,
1010
0110
2001
3100
,
0000
0100
0000
1000
,
1000
0010
0010
0100
,
0000
0100
0000
0001
,
0000
0001
0000
1000
,
1000
0001
0001
0010
,
0010
0001
0001
0100
,
0010
1000
0100
0001
,
0100
0010
0001
0010
,
0100
1000
1001
0120
,
1000
0000
1030
0020
,
0100
0000
0130
0001
,
2000
0000
0100
3100
,
1000
0010
0100
0001
,
0000
0000
0000
0000
0000
0000
0000
0000
0000
0000
0000
0000
0000
0000
0000
0000
0000
0000
0000
0000
0000
0000
0000
0000
0000
0000
0000
0000
0000
0000
0000
0000
0000
0000
0000
0000
0000
0000
0000
0000
0000
0000
0000
0000
0000
0000
0000
0000
1000
0000
0000
0000
0000
0000
0000
0000
0000
0000
0000
0000
0000
0000
0000
0000
0000
0000
0000
0000
0000
0000
0000
0000
0000
0000
0000
0000
0000
0000
0000
0000
0000
0000
0000
0000
0000
0000
0000
0000
0000
0000
0000
0000
0000
0000
0000
0000
0000
0000
0000
0000
0000
0000
0000
0000
0000
0000
0000
0000
0000
0000
0000
0000
0000
0000
0000
0000
0000
0000
0000
0000
0000
0000
0000
0000
0000
0000
0000
0000
0000
0000
0000
0000
0000
0000
0000
0000
0000
0000
0000
0000
0000
0000
0000
0000
2002
3003
0000
0000
0000
0000
0000
0000
0000
0000
0000
0000
0000
0000
0000
0000
0000
0000
0000
0000
0000
0000
0000
0000
0000
0000
0000
0000
0000
0000
0000
0000
0000
0000
0000
0000
0000
0000
0000
0000
0000
0000
0000
0000
0000
0000
0000
0000
,
0100
0010
1000
0010
,
0100
0001
0010
0100
,
1000
0100
0010
0001
,
2001
0001
0001
0001
,
0001
0001
0001
0001
,
3002
1000
1000
1003
,
1001
0000
0000
0000
;

//---------------dance-single - ----------------
#NOTEDATA:;
#CHARTNAME:DIFFICULT;
#CHARTHASH:3111758120;
#STEPSTYPE:dance-single;
#BANNER:;
#DESCRIPTION:;
#CHARTSTYLE:;
#DIFFICULTY:Medium;
#METER:11;
#METERF:0.000000;
#LASTSECONDHINT:244.608246;
#RADARVALUES:0.000000,0.000000,0.000000,0.000000,0.000000,0.000000,0.000000,0.000000,0.000000,0.000000,0.000000,0.000000,0.000000,0.000000,0.000000,0.000000,0.000000,0.000000,0.000000,0.000000,0.000000,0.000000,0.000000,0.000000,0.000000,0.000000,0.000000,0.000000;
#CREDIT:YonabearCWY;
#DISPLAYBPM:135.000000;
#NOTES:
0000
0000
0000
0000
,
0000
0000
0000
0000
,
0000
0000
0000
0000
,
0000
0000
0000
0000
,
0000
0000
0000
0000
,
0000
0000
0000
0000
,
0000
0000
0000
0000
,
0000
0000
0000
0000
,
0000
0000
0000
0000
0000
0000
0000
0000
0000
1000
0000
1000
,
0100
0000
0000
1000
0000
0000
1001
0000
0000
0001
0000
0001
,
0100
0000
0100
0001
0000
0000
0011
0000
0000
0001
0000
0001
,
1000
0000
0000
0100
0000
0000
1001
0000
0000
0010
0000
0010
,
0100
0000
0100
0010
0000
0000
1000
0000
0000
0001
0000
0001
,
0100
0000
0000
0001
0000
0000
1010
0000
0000
1000
0000
1000
,
0100
0000
0000
0110
0000
0000
1000
0000
0000
0100
0000
0100
,
1000
0000
0000
0100
0000
0000
1001
0000
0000
0001
0010
0001
,
0010
0001
0010
0001
0010
0001
0010
0000
0000
0001
0000
0001
,
1000
0000
0000
0100
0000
0000
1010
0000
0000
1000
0000
1000
,
0001
0000
1000
0100
0000
0000
1001
0000
0000
0010
0000
0010
,
0001
0000
0000
0100
0000
0000
0101
0000
0000
0001
0000
0001
,
1000
0000
0100
1000
0000
0000
0001
1000
0001
1000
0000
0000
,
0100
0000
0000
1000
0000
0000
0010
0000
0010
1000
0000
0000
,
0001
0000
0000
0100
0000
0000
0001
0000
0001
1000
0000
0100
,
0000
0000
1000
0000
0000
0010
0000
0000
1000
0000
0000
0001
,
2000
0000
0000
3100
,
1000
0100
1000
0010
,
1010
1000
1001
0001
,
0100
0000
0001
0100
0000
0000
0001
0000
1000
0001
0000
0000
,
1000
0000
0010
1000
0000
0000
0010
0000
0000
0100
0000
0000
,
0001
0000
0000
0010
0000
0010
0001
0000
1000
0001
0000
0000
,
0100
0000
0000
0010
0000
0010
1000
0000
0001
0100
0000
0000
,
0001
1000
0100
1000
,
0010
0000
0000
1000
0000
1000
0001
0000
0000
0100
0000
0100
,
0001
0000
0100
0001
0000
0000
1000
0000
0000
0010
0000
0000
,
1000
0000
0000
0010
0000
1000
0010
0000
1000
0001
0000
0000
,
0100
0000
0000
0010
0000
1000
0001
0000
1000
0100
0000
0000
,
1000
0000
0000
0010
0000
0100
0001
0000
0010
0001
0000
0000
,
0010
0000
0001
0100
0000
0001
1000
0000
0000
0200
0000
0000
,
1000
0010
2300
3002
,
0010
0000
0000
0100
0000
0000
0023
0000
0000
0031
0000
0001
,
1000
0000
0000
0100
0000
0000
1000
0000
0000
0010
0000
0010
,
1000
0000
0010
1000
0000
0001
1000
0000
0000
0100
0000
0000
,
1000
1010
1001
0120
,
0001
1000
0001
2030
,
0000
0000
0000
3100
0000
0100
1000
0000
0100
1000
0000
0000
,
1200
0001
1000
0302
,
0000
0000
0000
0103
0000
0100
1000
0000
0001
1000
0000
0001
,
0020
0001
1000
0032
,
0000
0000
0000
1003
0000
1000
0001
0000
1000
0001
0000
0000
,
0210
0001
1000
0302
,
0000
0000
0000
0013
0000
0001
0100
0000
0001
1000
0000
0000
,
0100
0001
0010
1001
,
0100
0000
0000
0001
0000
0001
0010
0000
0001
1000
0000
0000
,
0100
1000
0010
0001
,
0100
0000
0000
1001
0000
1000
0100
0000
1000
0010
0000
0000
,
0100
0001
0010
0001
,
1001
0000
0000
0100
0000
0100
0010
0000
1000
0001
0000
0000
,
1000
0100
1000
2020
,
0000
0000
3000
1030
,
0010
0000
0010
0000
0000
0000
1000
0000
0000
0001
0000
0000
,
0100
0000
0100
0000
0000
0001
1000
0000
0000
0010
0000
0000
,
1000
0000
1000
0000
0000
0000
0100
0000
0000
1000
0000
0000
,
0001
0000
0001
0000
0000
0010
0001
0000
0100
0001
0000
0000
,
0010
0000
0000
0001
0000
0000
1000
0000
1000
0000
0000
0000
,
0010
0000
0000
0100
0000
0000
0001
0000
0001
0000
0000
0000
,
0001
0000
0000
0100
0000
0000
0010
0000
0010
0000
0000
0000
,
1000
0000
0000
0100
0000
0000
0001
0000
0001
0000
0000
0000
,
0100
0000
0000
1000
0000
0000
0001
0000
0001
1000
0000
0000
,
0100
0000
0100
0000
0000
0000
1000
0000
0000
0010
0000
0000
,
1000
0000
1000
0000
0000
0001
0100
0000
0001
0010
0000
0000
,
0001
0000
0001
0000
0000
0000
1000
0000
0000
0010
0000
0000
,
0100
0000
0100
0000
0000
0010
1000
0000
0001
0100
0000
0000
,
0010
0000
0000
1000
0000
0000
0001
0000
0001
0000
0000
1000
,
0001
0000
0000
1000
0000
0000
0100
0000
0100
0000
0000
0001
,
1000
0000
0000
0010
0000
0000
0001
0000
0001
0000
0000
0100
,
0001
0000
0000
0010
0000
0000
0100
0000
0100
0000
0000
1000
,
0100
0000
1000
0010
0000
0000
1001
0000
0000
2010
0000
0000
,
3020
0000
0000
0230
0000
0000
0302
0000
0000
1003
0001
1000
,
0001
1000
0001
1000
0001
1000
0002
0000
0000
0200
0000
0000
,
0000
0000
0000
0000
,
0000
0000
0003
0020
,
0300
2000
0000
0000
,
0000
0000
0030
3002
,
0000
0000
0200
0003
0000
0000
0320
0000
0000
2030
0000
0000
,
0100
0100
0100
3200
,
0000
0000
2000
0300
0000
0000
3002
0000
0000
0203
0000
0000
,
0010
0010
0010
0310
,
1000
0010
0100
0101
,
0101
0202
0303
0001
,
1000
0010
1000
1100
,
1100
2200
3300
1002
,
1000
0000
2003
3200
,
0010
0000
0320
0032
,
1000
0000
2003
3200
,
1000
0000
0000
0000
0000
0000
1300
0000
0000
0001
0000
0001
,
0000
0000
0000
0010
0000
0010
0000
0000
0000
0001
0000
0001
,
0000
0000
0000
1000
0000
1000
0000
0000
0000
0100
0000
0100
,
0000
0000
0000
1000
0000
1000
0000
0000
0000
0010
0000
0010
,
0000
0000
0000
0100
0000
0100
0000
0000
0000
0000
0000
0001
,
0000
0000
0010
0000
0000
0001
0000
0000
1000
0000
0000
0100
,
0000
0000
1000
0000
0000
0010
0000
0000
0100
0000
0000
0001
,
0100
0000
0001
0000
0000
1000
0000
0000
0100
0000
0000
1000
,
0010
0000
1000
0000
0000
0010
0000
0000
0100
0000
0000
0100
,
1000
0000
0100
0001
0000
0000
0100
0000
0000
0010
0000
0000
,
1000
0100
0001
0100
,
0010
0001
0100
1000
,
0100
0001
0010
0001
,
1000
0000
0000
0010
0000
0000
1000
0000
0001
2000
0000
0100
,
0000
0000
3100
0000
0000
0100
1000
0100
1000
0000
0000
1001
,
0000
0000
0001
0020
0000
0001
0000
0000
0031
0000
0000
0001
,
0100
0000
0001
1000
0000
0001
0200
0000
0000
0300
0000
0010
,
0000
0000
1000
0000
0000
0010
0000
0000
1000
0200
0000
1000
,
0000
0000
0001
0300
0000
0100
0010
0100
0010
0000
0000
0001
,
0000
0000
1000
0002
0000
0010
0000
0000
0103
0000
0000
0001
,
1000
0000
0001
0100
0000
0001
1000
0000
0010
2000
0000
0000
,
3200
2300
3020
0230
,
0302
2003
3020
0230
,
0010
0000
0000
0010
0000
0000
0010
0000
0310
0000
0000
0000
,
0020
0000
0000
1000
0000
1030
0010
0000
1000
0001
0000
0000
,
0010
0001
0100
0010
,
1000
0100
0001
0200
,
1000
0000
0000
1000
0000
0000
1000
0000
1300
0000
0000
0000
,
2000
0000
0000
0001
0000
3001
0100
0000
0001
0020
0000
0000
,
0031
0002
1003
0200
,
1300
0000
0000
2000
0000
0000
3010
0000
0000
0010
0000
0010
,
0100
0000
0001
0100
0000
0010
0100
0000
0001
0200
0000
0000
,
0001
0010
0001
0302
,
1000
0000
0000
0103
0000
0100
0001
0000
1000
0002
0000
0000
,
0010
2003
0100
3002
,
0010
0000
0013
0002
0000
0000
1000
0000
1003
0001
0000
0000
,
0011
0000
0000
0000
0000
0000
0000
0000
0000
0000
0000
0000
0000
0000
0000
0000
0000
0000
0000
0000
0000
0000
0000
0000
0000
0000
0000
0000
0000
0000
0000
0000
0000
0000
0000
0000
0000
0000
0000
0000
0000
0000
0000
0000
0000
0000
0000
0000
0001
0000
0000
0000
0000
0000
0000
0000
0000
0000
0000
0000
0000
0000
0000
0000
0000
0000
0000
0000
0000
0000
0000
0000
0000
0000
0000
0000
0000
0000
0000
0000
0000
0000
0000
0000
0000
0000
0000
0000
0000
0000
0000
0000
0000
0000
0000
0000
1001
0000
0000
0000
0000
0000
0000
0000
0000
0000
0000
0000
0000
0000
0000
0000
0000
0000
0000
0000
0000
0000
0000
0000
0000
0000
0000
0000
0000
0000
0000
0000
0000
0000
0000
0000
0000
0000
0000
0000
0000
0000
0000
0000
0000
0000
0000
0000
0220
0330
0000
0000
0000
0000
0000
0000
0000
0000
0000
0000
0000
0000
0000
0000
0000
0000
0000
0000
0000
0000
0000
0000
0000
0000
0000
0000
0000
0000
0000
0000
0000
0000
0000
0000
0000
0000
0000
0000
0000
0000
0000
0000
0000
0000
0000
0000
,
1010
0000
0000
0100
0000
0100
1000
0000
0001
1000
0001
1000
,
0001
0000
0000
0100
0000
0100
0001
0000
0010
0001
0000
0000
,
1000
0000
0001
1000
0001
1000
0100
0000
0100
1000
0000
2000
,
0001
0001
0001
0001
,
0001
0001
0001
3001
,
1010
0000
0000
1001
0000
0000
0110
0000
0000
1001
0000
1000
,
0001
0000
0000
0000
;

//---------------dance-single - ----------------
#NOTEDATA:;
#CHARTNAME:EXPERT;
#CHARTHASH:2435262138;
#STEPSTYPE:dance-single;
#BANNER:;
#DESCRIPTION:;
#CHARTSTYLE:;
#DIFFICULTY:Hard;
#METER:14;
#METERF:0.000000;
#LASTSECONDHINT:244.534286;
#RADARVALUES:0.000000,0.000000,0.000000,0.000000,0.000000,0.000000,0.000000,0.000000,0.000000,0.000000,0.000000,0.000000,0.000000,0.000000,0.000000,0.000000,0.000000,0.000000,0.000000,0.000000,0.000000,0.000000,0.000000,0.000000,0.000000,0.000000,0.000000,0.000000;
#CREDIT:YonabearCWY;
#DISPLAYBPM:135.000000;
#NOTES:
0000
0000
0000
0000
,
0000
0000
0000
0000
,
0000
0000
0000
0000
,
0000
0000
0000
0000
,
0000
0000
0000
0000
,
0000
0000
0000
0000
,
0000
0000
0000
0000
,
0000
0000
0000
0000
0000
0000
0000
0000
0000
0001
1000
0001
,
1000
0001
1000
0001
1000
0001
1000
0001
1000
0001
0000
0001
,
0100
0001
0100
0010
0000
0010
1000
0000
1000
0100
0000
0100
,
1000
0100
0010
0100
0000
0100
1000
0100
1000
0001
0000
0001
,
0100
0000
0000
0010
0000
0010
1000
0010
1000
0001
0000
1000
,
0001
0100
0010
1000
0000
1000
0100
0010
0001
1000
0000
1000
,
0100
1000
0100
0010
0000
0010
0001
0000
0001
0100
0000
0100
,
0010
0000
0010
0100
0000
0100
0001
1000
0010
1000
0000
1000
,
0010
0000
0010
1000
0000
1000
0001
0000
0001
0100
0001
0100
,
0001
0100
0001
0100
0001
0100
0001
0100
0001
0100
0000
0100
,
0010
0000
0010
1000
0000
1000
0001
0100
0001
0100
0000
0100
,
0010
0000
0010
1000
0000
1000
0100
0010
0001
0100
0000
0100
,
0001
0000
0001
0010
0000
0010
0001
0000
0001
1000
0000
1000
,
0100
0000
0100
1000
0000
0000
0001
0100
0001
0100
0000
0100
,
0010
0000
0010
1000
0000
1000
0001
1000
0100
1000
0000
1000
,
0010
0000
0010
0100
0000
0100
0001
0010
0001
2000
0000
0100
,
0000
0000
0100
0000
0000
0100
0000
0000
3100
1000
0100
1000
,
0010
1000
0010
0100
0001
0100
0001
1000
0001
1000
0000
1000
,
0001
0000
0001
1000
0000
1000
0010
0000
0010
2000
0000
0000
,
0100
0000
0000
3002
0000
0000
0100
0000
0000
1003
0000
1000
,
0001
0000
0001
0100
0000
0100
0010
0000
0010
2000
0000
0000
,
0010
0000
3010
2000
0000
0000
0100
0000
3100
1000
0000
1000
,
0100
0000
0010
0001
0000
0001
0010
0000
0001
0100
0000
0100
,
0001
0000
1000
0001
0000
0001
1000
0000
0010
0200
0000
0000
,
0001
0000
0000
0320
0000
0000
1000
0000
0000
0100
0000
0130
,
0002
0000
0000
1000
0000
1003
0002
0000
0000
0010
0000
0013
,
0001
0000
0001
0010
0000
0010
0100
0000
0100
1000
0000
1000
,
0010
0000
0100
0001
0000
1000
0010
0000
0100
0010
0000
0100
,
1000
0000
0100
0010
0000
0100
1000
0000
0100
0001
0000
1000
,
0001
0000
0100
0001
0000
1000
0001
0000
0010
0001
0000
0100
,
0001
0000
0010
0001
0000
0100
0001
0000
1000
0001
0000
0001
,
0010
0000
0010
0100
0000
0100
1000
0000
1000
0100
0000
0100
,
1000
0000
1000
0010
0000
0010
1000
0000
1000
0002
0000
0000
,
0010
0000
0000
0203
0000
0000
1000
0000
0000
0010
0000
0310
,
2000
0000
0000
0100
0000
3100
2000
0000
0000
0010
0000
0000
,
3001
1000
0001
1000
0010
1000
0010
0000
0010
0200
0000
0000
,
0001
0000
0000
0310
0000
0010
1000
0000
0010
2000
0000
0000
,
3001
0000
0000
0100
0001
0100
1000
0000
0100
0002
0000
0000
,
0010
0000
0000
0103
0000
0100
0010
0000
0100
0020
0000
0000
,
1030
0000
0000
0100
0010
1000
0010
0000
0010
0200
0000
0000
,
0001
0000
0000
0310
0000
0010
1000
0000
0010
2000
0000
0000
,
3100
0000
0000
1000
0100
0010
0001
0000
0001
0200
0000
0000
,
1000
0000
0000
0301
0000
0001
1000
0000
0001
2000
0000
0000
,
3010
0000
0000
0100
0010
1000
0010
0000
0010
0100
0000
0001
,
0100
0000
0010
0100
0000
0001
0100
0000
0010
0100
0000
0100
,
0001
0000
0001
1000
0010
1000
0100
0000
0100
1000
0000
1000
,
0100
0000
1000
0010
0000
1000
0001
0000
1000
0100
0000
1000
,
0010
0000
0010
0100
0001
0100
0010
0000
0010
1000
0000
1000
,
0001
0000
0001
0100
0001
0100
0010
0000
0010
0100
0000
0100
,
0001
0000
0001
1000
0001
1000
0100
0000
0100
1000
0000
1000
,
0100
0000
0100
0010
0000
0010
0001
0000
0001
1000
0001
1000
,
0001
0100
0001
0100
0010
1000
0010
0100
0010
0100
0000
0100
,
0001
0000
0001
1000
0000
1000
0010
0000
0010
0200
0000
0000
,
0010
0000
0310
0000
0000
0001
0100
0000
0100
0010
0000
0010
,
1000
0000
1000
0100
0000
0100
1000
0000
1000
0002
0000
0000
,
1000
0000
1003
0000
0000
1000
0010
1000
0010
0100
0000
0100
,
0010
0000
0010
1000
0000
1000
0100
0000
0100
0010
0000
0010
,
0001
0000
0001
0010
0000
0010
0100
0000
0100
2000
0000
0000
,
0001
0000
3001
0000
0000
0010
0001
0000
0001
1000
0010
2000
,
0100
0000
3100
0000
0000
0100
1000
0000
1000
0020
0000
0000
,
0100
0000
0130
0000
0000
0100
0001
0000
0001
1000
0000
1000
,
0001
0000
0001
0100
0000
0100
0010
0000
0010
1000
0010
1000
,
0100
0000
0100
1000
0000
1000
0010
0100
0001
0100
0000
0100
,
0001
0000
0001
0010
0000
0010
0100
0000
0100
1000
0000
1000
,
0100
0010
0001
0010
0000
0010
0001
0010
1000
0010
0000
0010
,
0001
0000
0001
0100
0000
0100
0001
0000
0001
1000
0000
1000
,
0001
0000
0001
1000
0000
1000
0100
0000
0100
0010
0001
0010
,
0100
0000
0100
0010
0000
0010
0001
0000
0001
0100
0001
1000
,
0001
0000
0001
1000
0000
1000
0010
0000
0010
0100
0000
0100
,
0001
0000
0001
1000
0000
1000
0100
0000
0000
1000
0100
0001
,
0100
1000
0100
0010
0100
1000
0010
1000
0001
1000
0001
0100
,
0001
0100
0010
1000
0010
0100
0020
0000
0000
0230
0000
0001
,
0000
0000
0001
0000
0000
0001
0000
0000
0001
0000
0000
0001
,
0000
0000
0001
0000
0000
0001
0000
0000
0301
2000
0000
0100
,
0000
0000
0100
0000
0000
0100
0000
0000
0100
0000
0000
0100
,
0000
0000
0100
0000
0000
0100
0000
0000
3100
2000
0000
0000
,
0010
0000
3020
0000
0000
0130
0010
0000
0010
0200
0000
0001
,
0000
0000
0001
0000
0000
0001
0000
0000
0301
0200
0000
0000
,
0010
0000
0320
0000
0000
1030
0010
0000
0010
1000
0000
1000
,
0001
1000
0001
1000
0001
1000
0001
1000
0001
1000
0000
0000
,
0100
0000
0000
1000
0000
0000
0020
0000
0100
0230
0000
0000
,
0010
0020
0330
0100
,
0001
0000
0000
0010
0000
0000
0002
0000
1000
2003
0000
0000
,
0001
0000
0000
0002
0000
0000
3003
0000
0001
0100
0000
0100
,
0000
0000
0010
0000
0000
1000
0000
0000
0010
2000
0000
0000
,
0100
0000
0000
0100
0000
0000
3100
0000
0100
1000
0000
1000
,
0001
0000
0010
0000
0000
0001
0000
0000
0100
0002
0000
0000
,
0010
0000
0000
0010
0000
0000
0013
0000
0010
0001
0000
0001
,
1000
0000
0010
0000
0000
1000
0000
0000
0100
2000
0000
0000
,
0010
0000
0000
0010
0000
0000
3010
0000
0010
1000
0000
0010
,
1000
0000
0010
0000
0000
0100
0001
0000
0100
0010
0000
0100
,
0001
0000
0010
0000
0000
0001
0000
0000
1000
0001
0000
1000
,
0100
0000
1000
0020
0000
1000
0000
0000
0001
0000
0000
1000
,
0000
0000
0001
0000
0000
0130
0010
0000
0010
1000
0000
1000
,
0002
0000
1000
0000
0000
0100
0000
0000
1003
0000
0000
1000
,
0100
0000
1000
0010
0000
1000
0001
0000
0200
0000
0000
0310
,
0100
0000
0010
1000
0000
0010
0100
0000
0010
0001
0000
0010
,
0100
0000
0010
1000
0000
1000
0100
0000
1000
0001
0000
1000
,
0100
0000
1000
0010
0000
1000
0100
0000
1000
0001
0000
0100
,
0010
0000
0100
0001
0000
0100
1000
0000
0100
0010
0000
0100
,
0001
0000
0100
0010
0000
0100
1000
0000
0200
0001
0000
0001
,
0000
0000
1000
0000
0000
0301
0010
0100
1000
0200
0000
1000
,
0000
0000
1300
0020
0000
1000
0000
0000
0001
0000
0000
1030
,
0010
0100
0001
0100
0010
1000
0001
0000
0001
0200
0000
1000
,
0000
0000
0010
0000
0000
1000
0000
0000
0310
2000
0000
0100
,
0000
0000
0001
0000
0000
3100
1000
0100
0010
0200
0000
1000
,
0000
0000
1300
0020
0000
1000
0000
0000
0001
0000
0000
1030
,
0100
0010
0001
0100
0010
1000
0100
0001
0100
1000
0010
1000
,
0100
1000
0001
1000
0010
0100
0001
0010
0001
0100
0010
1000
,
0100
0001
1000
0010
0001
1000
0100
0001
1000
0010
0000
0010
,
0001
0000
0001
0100
0000
0100
0001
0000
0001
1000
0000
1000
,
0100
0000
0100
1000
0000
1000
0100
0001
0100
0010
0000
0010
,
0100
0000
0100
1000
0000
1000
0001
0000
0001
1000
0000
1000
,
0001
0001
0100
0010
1000
0100
0010
0001
0100
0010
0000
0010
,
1000
0000
0010
0001
0000
0010
1000
0000
0010
0100
0000
0010
,
0001
0000
0010
0100
0000
0010
0001
0000
0010
1000
0000
1000
,
0100
0000
0100
0001
0000
0100
1000
0000
1000
0001
0000
0001
,
0010
0000
0010
1000
0000
0010
0001
0000
0001
0100
0000
0100
,
0001
0100
0010
1000
0010
0100
0002
0000
0000
1003
0000
1000
,
0010
0000
0010
1000
0000
1000
0001
0000
0001
0100
0000
0100
,
0010
0000
0010
1000
0000
1000
0001
1000
0001
0010
0000
0010
,
0001
0000
0001
0100
0000
0100
0010
0000
0010
1000
0000
1000
,
0100
0100
1000
0100
0010
0001
0100
0010
1000
0010
0000
0010
,
0100
0000
0000
0000
0000
0000
0000
0000
0000
0000
0000
0000
0000
0000
0000
0000
0000
0000
0000
0000
0000
0000
0000
0000
0000
0000
0000
0000
0000
0000
0000
0000
0010
0000
0000
0000
0000
0000
0000
0000
0000
0000
0000
0000
0000
0000
0000
0000
1000
0000
0000
0000
0000
0000
0000
0000
0000
0000
0000
0000
0000
0000
0000
0000
0000
0000
0000
0000
0000
0000
0000
0000
0000
0000
0000
0000
0000
0000
0000
0000
0010
0000
0000
0000
0000
0000
0000
0000
0000
0000
0000
0000
0000
0000
0000
0000
0001
0000
0000
0000
0000
0000
0000
0000
0000
0000
0000
0000
0000
0000
0000
0000
0000
0000
0000
0000
0000
0000
0000
0000
0000
0000
0000
0000
0000
0000
0000
0000
0010
0000
0000
0000
0000
0000
0000
0000
0000
0000
0000
0000
0000
0000
0000
0000
0220
0330
0000
0000
0000
0000
0000
0000
0000
0000
0000
0000
0000
0000
0000
0000
0000
0000
0000
0000
0000
0000
0000
0000
0000
0000
0000
0000
0000
0000
0000
0000
0000
0000
0000
0000
0000
0000
0000
0000
0000
0000
0000
0000
0000
0000
0000
0000
,
0001
0000
0001
0100
0000
0100
0001
0000
0001
1000
0010
1000
,
0100
0000
0100
1000
0000
1000
0010
0000
0010
0100
0010
0001
,
0010
0000
0010
1000
0000
0010
0100
0010
1000
0100
0001
0100
,
2000
0100
0100
0100
,
0100
0100
0100
0100
,
3100
1000
0100
0000
0000
0000
1000
0010
1000
0000
0000
0000
0001
0100
0001
0000
0000
0000
1000
0001
1000
0000
0000
1001
;
