#VERSION:0.83;
#TITLE:All is vanity;
#SUBTITLE:;
#ARTIST:good-cool;
#TITLETRANSLIT:;
#SUBTITLETRANSLIT:;
#ARTISTTRANSLIT:;
#GENRE:DRUM'N'BASS;
#ORIGIN:;
#TAGS:;
#CREDIT:YonabearCWY;
#BANNER:All is vanity.png;
#BACKGROUND:All is vanity-bg.png;
#PREVIEWVID:;
#JACKET:All is vanity-jacket.png;
#CDIMAGE:;
#DISCIMAGE:;
#LYRICSPATH:;
#CDTITLE:Beatmania III.png;
#MUSIC:All is vanity.ogg;
#OFFSET:-0.030000;
#SAMPLESTART:27.553921;
#SAMPLELENGTH:15.000000;
#SELECTABLE:YES;
#BPMS:0.000000=157.000000
;
#STOPS:;
#DELAYS:;
#WARPS:;
#TIMESIGNATURES:0.000000=4=4
;
#TICKCOUNTS:0.000000=4
;
#COMBOS:0.000000=1
;
#SPEEDS:0.000000=1.000000=0.000000=0
;
#SCROLLS:0.000000=1.000000
;
#LABELS:0.000000=Song Start
;
#BGCHANGES:8.000=ring3.mp4=1.000=1=0=1===CrossFade==,
16.000=circlesh.mp4=1.000=0=0=1=====,
24.000=ring4.mp4=1.000=0=0=1=====,
32.000=circle2.mp4=1.000=0=0=1=====,
40.000=colors2.mp4=1.000=0=0=1=====,
48.000=tunnel10.mp4=1.000=0=0=1=====,
56.000=ring4.mp4=1.000=0=0=1=====,
64.000=circle2.mp4=1.000=0=0=1=====,
72.000=cross2.mp4=1.000=0=0=1=====,
88.000=city3.mp4=1.000=0=0=1=====,
100.000=circlesh.mp4=1.000=0=1=1=StretchRewind====,
104.000=cube4.mp4=1.000=0=0=1=====,
120.000=cross1.mp4=1.000=0=0=1=====,
134.000=circlesh.mp4=1.600=0=1=1=StretchRewind====,
136.000=ring5.mp4=1.000=0=0=1=====,
152.000=city3.mp4=1.000=0=1=1=StretchRewind====,
160.000=cube1.mp4=1.000=0=0=1=====,
168.000=tunnel10.mp4=1.000=0=1=1=StretchRewind====,
184.000=ring4.mp4=1.000=0=1=1=StretchRewind====,
200.000=ring3.mp4=1.000=0=1=1=StretchRewind====,
208.000=circlesh.mp4=1.000=0=1=1=StretchRewind====,
216.000=ring4.mp4=1.000=0=1=1=StretchRewind====,
224.000=circle2.mp4=1.000=0=1=1=StretchRewind====,
231.500=All is vanity-bg.png=1.000=0=0=1=====,
99999.000=-nosongbg-=1.000=0=0=0=StretchNoLoop====,
99999=-nosongbg-=1.000=0=0=0 // don't automatically add -songbackground-
;
#KEYSOUNDS:;
#ATTACKS:
;

//---------------dance-double - ----------------
#NOTEDATA:;
#CHARTNAME:;
#CHARTHASH:1128392184;
#STEPSTYPE:dance-double;
#BANNER:;
#DESCRIPTION:;
#CHARTSTYLE:;
#DIFFICULTY:Easy;
#METER:6;
#METERF:6.000000;
#LASTSECONDHINT:88.310257;
#RADARVALUES:0.254767,0.284327,0.076586,0.000000,0.000000,163.000000,156.000000,7.000000,0.000000,0.000000,0.000000,0.000000,0.000000,0.000000,0.254767,0.284327,0.076586,0.000000,0.000000,163.000000,156.000000,7.000000,0.000000,0.000000,0.000000,0.000000,0.000000,0.000000;
#CREDIT:;
#NOTES:
00000000
00000000
00000000
00000000
,
00000000
00000000
00000000
00000000
,
10000000
00000000
10000000
00000000
,
01000000
00000000
00000000
00000000
,
00100000
00000000
00100000
00000000
,
00001000
00010000
00001000
00010000
,
00000010
00000000
00000010
00000000
,
00000100
00000000
00000000
00000000
,
00000001
00000000
00000001
00000000
,
00001000
00000100
00001000
00000100
,
00010000
00001000
00010000
00001000
,
01000000
00010000
01000000
00100000
,
00010000
00001000
00010000
00100000
,
10000000
00100000
01000000
00010000
,
01000000
00000000
00100000
00100000
,
10000000
01000000
00100000
00010000
,
00100000
00000000
00001000
00001000
,
00100000
00001000
00000100
00001000
,
00010000
00000000
00001000
00001000
,
00001000
00010000
00001000
00001000
,
00010000
00000000
00000010
00000010
,
00000010
00000100
00000010
00000010
,
00000100
00000000
00000001
00000001
,
00000001
00001000
00000001
00000001
,
00001000
00000000
00000000
00000000
,
00011000
00000000
00000000
00000000
,
00010000
00000000
10000000
00000000
00000000
00100000
00000000
00000000
,
10000000
00000000
00000000
00010000
00000000
00100000
00000000
00000000
,
00001000
00000000
00010000
00000000
00000000
00000010
00000000
00000000
,
00000100
00000000
00000000
00000001
00000000
00000000
00000000
00000000
,
00000000
00000000
00010000
00000000
00000000
00001000
00000000
00000000
,
00100000
00000000
00000000
00010000
00000000
10000000
00000000
00000000
,
00000000
00000000
01000000
00000000
00000000
00100000
00000000
00000000
,
00001000
00000000
00011000
00000000
,
00010010
00000010
00000010
00000000
,
00000100
00000000
00000001
00000000
,
00001010
00001000
00001000
00000000
,
00000100
00000000
00010000
00000000
,
00011000
00001000
00001000
00000000
,
01000000
00000000
00100000
00000000
,
10010000
00000000
00000000
00000000
,
00000000
00000000
00000000
00000000
,
10000000
10000000
10000000
00000000
,
01000000
00100000
00001000
00000000
,
00001000
00001000
00001000
00000000
,
00010000
00000010
00000001
00000000
,
00000010
00000010
00000010
00000000
,
00001000
00000100
00010000
00000000
,
00001000
00001000
00001000
00000000
,
00100000
00010000
10000000
00000000
,
10000000
00000000
10000000
00000000
,
10000000
10000000
00010000
00010000
,
01000000
00010000
01000000
00010000
,
00001000
00010000
00100000
00010000
,
00000010
00000000
00000010
00000000
,
00000001
00001000
00000001
00001000
,
00000100
00000000
00010000
00000000
,
00001000
00000000
00001000
01001000
;

//---------------dance-double - ----------------
#NOTEDATA:;
#CHARTNAME:;
#CHARTHASH:1885861018;
#STEPSTYPE:dance-double;
#BANNER:;
#DESCRIPTION:;
#CHARTSTYLE:;
#DIFFICULTY:Challenge;
#METER:15;
#METERF:15.000000;
#LASTSECONDHINT:88.501343;
#RADARVALUES:0.722101,0.759847,0.185996,0.514223,0.464989,462.000000,445.000000,17.000000,47.000000,0.000000,0.000000,0.000000,0.000000,0.000000,0.722101,0.759847,0.185996,0.514223,0.464989,462.000000,445.000000,17.000000,47.000000,0.000000,0.000000,0.000000,0.000000,0.000000;
#CREDIT:;
#NOTES:
00000000
00000000
00000000
00000000
,
00000000
00000000
00000000
00000000
,
10000000
01000000
00010000
00001000
00000010
00000001
00000010
00000200
,
00000000
00000000
00002300
00000000
00000000
00000000
00003010
00000000
00000000
00000010
00001000
00000000
00000010
00000000
00010000
00000000
,
00022000
00000000
00033000
02002000
00000000
03003000
00022000
00000000
,
00033000
00000000
00010020
00000000
00000000
00000000
00000130
00000000
00000001
00000000
00001000
00000000
00000001
00000010
00000001
00000010
,
00000001
00000010
00001000
00010000
01000000
10000000
00010000
02000000
,
00000000
00100000
00000000
03100000
10000000
01000000
00010000
00001000
,
00020020
00000000
00030030
00022000
00000000
00033000
02002000
00000000
,
03003000
00000000
00012000
00000000
00000000
00000000
00013000
00000000
00000100
00001000
00000000
00000001
00001000
00000001
00001000
00000001
,
00000100
00000000
00000010
00000000
00000010
00000000
00001000
00000000
00000100
00000000
00010000
00000100
00010000
00000100
00010000
00000000
,
00001000
00000000
00000000
01000000
00000000
00100000
00010000
00000000
00100000
00000000
10000000
00100000
00010000
00100000
10000000
00000000
,
00100000
00000000
01000000
00000000
00010000
00000000
01000000
00000000
00001000
00000000
00010000
00001000
00000000
00010000
00000000
00000100
,
00010000
00000100
00000000
00010000
00000010
00000000
00000100
00000000
00000001
00000000
00000000
00001000
00000100
00000000
00000000
00000100
,
00000001
00000000
00000100
00000000
00000100
00000000
00001000
00000000
00000100
00000000
00010000
00001000
00010000
00001000
00010000
00000000
,
00001000
00000000
01000000
00100000
00000000
10000000
00010000
00000000
01000000
00000000
10000000
01000000
00010000
01000000
10000000
00000000
,
01000000
00000000
00010000
00000000
00100000
00000000
00001000
00000000
00100000
00000000
00001000
00010000
00000000
00001000
00000000
00010000
,
00000100
00010000
00000000
00001000
00100000
00000000
00010000
00000000
00001000
00000000
00000000
00000010
00000100
00000000
00000000
00000001
,
00001000
00000100
00000010
00000200
00000000
00020300
00000000
00032000
,
00100000
00100000
00103000
00010000
10000000
01000000
00010000
00000100
,
00001000
00000000
00000010
00000000
00000100
00000000
00000001
00002000
00000000
00000000
00003200
00000000
00000000
00000000
00010300
00000000
,
00001000
00000000
00002000
00000000
00000000
00000000
00103000
00000000
00001000
00100000
00000000
00100000
00002000
00000000
00000000
00000000
,
00013000
01000000
10000000
00020000
00000000
00230000
00000000
00302000
,
00010000
00000000
00010000
00000000
00013000
00000000
00000000
00000010
00000100
00000000
00000001
00000000
00001000
00000000
00000100
00000000
,
00000010
00000000
00000100
00000000
00010000
00000000
00001000
00020000
00000000
00000000
00032000
00000000
00000000
00000000
00013000
00000000
,
00001000
00100000
00001000
00100000
00001000
00100000
00010000
00100000
00010000
00100000
00010000
00100000
00020000
00000000
00000000
00000000
,
20030000
00000000
31000000
00010000
00001000
00000010
00000001
00000100
,
00001000
00000000
00000100
00000000
00000001
00000000
00001000
00000000
00000000
00001000
00000100
00000000
00010000
00000000
01000000
00000000
,
20000000
00000000
30100000
00010000
00000100
00000010
00000001
00001000
,
00000100
00000000
00000010
00000000
00000001
00000000
00001000
00000000
00001100
00000000
00000000
00000001
00000000
00001000
00000000
00001000
,
00000002
00000000
00000013
00001000
00010000
01000000
10000000
00100000
,
00010000
00000000
00100000
00000000
10000000
00000000
00010000
00000000
00000000
00010000
00100000
00000000
00001000
00000000
00000010
00000000
,
00000002
00000000
00000103
00001000
00010000
00100000
10000000
01000000
,
00100000
00000000
00010000
00000000
00100000
00001000
00100000
00000000
00022000
00000000
00000000
00000000
00000000
00000000
00033000
00000000
,
00010010
00000000
00000010
00000100
00000010
00000010
00000010
00001000
,
00000001
00000000
00000000
00001000
00000100
00000000
00010000
00000000
00000010
00000000
00010000
00001000
00010000
00001000
00010000
00000000
,
01001000
00000000
00000000
00000000
01000000
00000000
00100000
10000000
00000000
10000000
01000000
00100000
00010000
00100000
01000000
00000000
,
10000000
00000000
00010000
00100000
00010000
00000000
01000000
00000000
00001000
00100000
00001000
00000000
00010000
00000000
00000100
00000000
,
00000010
00000000
00000001
00001000
00000001
00001000
00000001
00000000
00000100
00000000
00000100
00000000
00000100
00000000
00000010
00000000
,
00010000
00000000
00000000
00010000
00001000
00000000
01000000
00000000
00010000
00000000
00100000
00001000
00100000
00001000
00100000
00000000
,
00011000
00001000
02000000
00020000
03000000
00000000
00200000
00000000
,
00000000
00030000
00000000
00000000
00002000
00000000
00300000
00000000
,
00003010
00000001
00001000
00000100
00000001
00001000
00000010
00000001
,
00000100
00000100
00000100
00000100
00000010
00001000
00010000
01000000
,
00100000
10000000
00100000
00010000
10000000
01000000
00010000
10000000
,
10100000
00000000
00000000
00100000
00000000
01000000
00000000
00001000
00010000
00001000
00010000
00000100
00010000
00000100
00010000
00000100
,
00001000
00000100
00000001
00001000
00000010
00000001
00001000
00000100
,
00000001
00000100
00000100
00000100
00000100
00001000
01000000
00100000
,
00010000
00100000
10000000
00010000
01000000
10000000
00010000
00100000
,
10000000
00000000
00000000
00000000
00010000
00100000
00000000
00010000
01000000
00010000
01000000
00000000
00001000
00000000
00010000
00001000
,
00010000
00000010
00000100
00000010
00010000
00001000
00010000
00000100
,
00002000
00000000
00000000
00000000
00003001
00000000
00001000
00000100
00000000
00001000
00000020
00000000
00001000
00000000
00001000
00000000
,
00001030
00000000
00000100
00000000
00000000
00000000
00010200
00000000
00000000
00010300
00001000
00000000
00010000
00000000
00000100
00000000
,
00010000
00000000
00002000
00000000
00000000
00000000
00103000
00000000
00100000
00000000
00100000
00000000
00100000
00000000
00001000
00010000
,
00001000
00100000
00010000
01000000
00001000
00010000
00001000
00100000
,
00020000
00000000
00000000
00000000
10030000
00000000
00010000
00100000
00000000
00010000
02000000
00000000
00100000
00000000
00100000
00000000
,
03100000
00000000
10000000
00000000
00000000
00000000
12000000
00000000
00000000
13000000
00010000
00000000
00100000
00000000
00001000
00000000
,
00100000
00000000
00010000
00000000
00100000
00000000
00001000
00010000
00000000
00001000
00010000
00000100
00000010
00000000
00001001
00000000
;

//---------------dance-double - ----------------
#NOTEDATA:;
#CHARTNAME:;
#CHARTHASH:2147780751;
#STEPSTYPE:dance-double;
#BANNER:;
#DESCRIPTION:;
#CHARTSTYLE:;
#DIFFICULTY:Medium;
#METER:9;
#METERF:9.000000;
#LASTSECONDHINT:88.501343;
#RADARVALUES:0.437637,0.474904,0.317287,0.098468,0.010941,280.000000,251.000000,29.000000,9.000000,0.000000,0.000000,0.000000,0.000000,0.000000,0.437637,0.474904,0.317287,0.098468,0.010941,280.000000,251.000000,29.000000,9.000000,0.000000,0.000000,0.000000,0.000000,0.000000;
#CREDIT:;
#NOTES:
00000000
00000000
00000000
00000000
,
00000000
00000000
00000000
00000000
,
10010000
00000000
00000000
00010000
00100000
00000000
00000000
00100000
,
00001000
00010000
00000000
00000010
00000000
00000100
00000001
00000000
,
00001001
00000000
00000000
00001100
00000000
00000000
00000110
00000000
,
00000000
00001010
00000000
00000000
00000010
00000000
00010000
00000000
,
00011000
00000000
00000000
00010000
00001000
01000000
00100000
01000000
,
00000000
00100000
00000000
10000000
00000000
00010000
00000000
00000000
,
11000000
00000000
00000000
10100000
00000000
00000000
01100000
00000000
,
00000000
01010000
00000000
00000000
00010000
00000000
00010000
00000000
,
00100000
00010000
00100000
00000000
00001000
00100000
00001000
00000000
,
00010000
00010000
00010000
00000000
00001000
00001000
00001000
00000000
,
00010000
00000100
00000010
00000100
00010000
00001000
00010000
00000000
,
00001000
00100000
00010000
00100000
00001000
00100000
00010000
00000000
,
00010000
10000000
00010000
00000000
10000000
01000000
10000000
00000000
,
00100000
00100000
00100000
00000000
01000000
01000000
01000000
00000000
,
00100000
10000000
01000000
00100000
00001000
00000100
00001000
00000000
,
00010000
00001000
00010000
00000010
00000100
00000000
00000101
00000000
,
00001000
00001000
00002000
00000000
00000000
00003020
00000000
00000000
,
00000000
00000000
00000100
00000130
,
00000010
00000000
00001000
00000000
00000100
00000000
00000000
00010000
00000000
00000000
00001000
00000000
00200000
00000000
00000000
00000000
,
00000000
00010000
00000000
00310000
01000000
00000000
01100000
00000000
,
10000000
10000000
20000000
00000000
00000000
30020000
00000000
00000000
,
00000000
00000000
00100000
00130000
,
00010000
00000000
00100000
00000000
00001000
00000000
00000000
00010000
00000000
00000000
00000010
00000000
00000000
00000000
00000100
00000000
,
00002002
00000000
00000000
00003003
,
00000100
00000000
00000010
00001000
00000000
00001000
00000100
00000000
,
00000100
00010000
00000000
00010000
00001000
01000000
00100000
00000000
,
01000000
00000000
00010000
10000000
00000000
10000000
01000000
00000000
,
01000000
00100000
00000000
00100000
00001000
00000000
00011000
00000000
,
00010000
00000000
00000010
00000100
00000000
00000001
00000100
00000000
,
00000100
00000010
00000000
00001000
00000010
00000100
00000001
00000000
,
00001010
00000000
00001000
00000100
00000000
00000100
00010000
00000000
,
00010000
00001000
00000000
00001000
01001000
00000000
00000000
00000000
,
02100000
00000000
00000000
03100000
10000000
00000000
10000000
00000000
,
01000000
00100000
00010000
00100000
,
00201000
00000000
00000000
00301000
00010000
00000000
00000010
00000000
,
00000100
00000001
00001000
00000100
,
00001100
00000000
00000000
00001000
01000000
00000000
00100000
00000000
,
00010000
00100000
10000000
00100000
,
10010000
00000000
00000000
00000000
,
00000000
00000000
00000000
00000000
,
00001000
00000000
00001000
00000000
00000010
00000000
00000000
00000100
,
00000000
00000100
00000000
00000001
00000000
00000001
00001000
00000000
,
00000010
00000000
00000010
00000000
00001000
00000000
00000000
00000100
,
00000000
00000100
00000000
00010000
00001000
00010000
00001000
01000000
,
00100000
00010000
00100000
00000000
01000000
00000000
00000000
00010000
,
00000000
00010000
00000000
10000000
00000000
10000000
00010000
01000000
,
00001000
00010000
00001000
00000000
00010000
00000000
00000000
00000010
,
00000000
00000010
00000000
00000100
00000001
00001000
00000100
00000010
,
00000100
00001000
00000100
00000000
00001000
00000100
00001000
00000000
,
00000100
00010000
00001000
01000000
,
01100000
00000000
00000000
10100000
00000000
00000000
10010000
00000000
,
00000000
01010000
00000000
00010000
00100000
00000000
00101000
00000000
,
00001000
00010000
00001000
00000000
00010000
00000010
00010000
00000000
,
00000010
00000100
00000001
00000010
,
00000101
00000000
00000000
00001001
00000000
00000000
00001100
00000000
,
00000000
00010100
00000000
00010000
00001000
00100000
00010000
10000000
;

//---------------dance-double - ----------------
#NOTEDATA:;
#CHARTNAME:;
#CHARTHASH:3024301744;
#STEPSTYPE:dance-double;
#BANNER:;
#DESCRIPTION:;
#CHARTSTYLE:;
#DIFFICULTY:Hard;
#METER:12;
#METERF:12.000000;
#LASTSECONDHINT:88.501343;
#RADARVALUES:0.589247,0.633206,0.218818,0.207877,0.147702,377.000000,357.000000,20.000000,19.000000,0.000000,0.000000,0.000000,0.000000,0.000000,0.589247,0.633206,0.218818,0.207877,0.147702,377.000000,357.000000,20.000000,19.000000,0.000000,0.000000,0.000000,0.000000,0.000000;
#CREDIT:;
#NOTES:
00000000
00000000
00000000
00000000
,
00000000
00000000
00000000
00000000
,
10000000
00010000
00100000
00010000
01000000
00002000
00000000
00010000
,
00000000
00000100
00000000
00013000
00000000
00001000
00010000
00000010
,
00000110
00000000
00000000
00000101
00000000
00000000
00001010
00000000
,
00000000
00000000
00001100
00000000
00000000
00000000
00000100
00000000
00010000
00000000
00001000
00000000
00010000
00001000
00010000
00000000
,
01000000
10000000
01000000
00100000
01000000
20000000
00000000
00100000
,
00000000
00010000
00000000
30100000
00000000
10000000
00000000
00010000
,
00110000
00000000
00000000
00101000
00000000
00000000
00011000
00000000
,
00000000
00000000
00010010
00000000
00000000
00000000
00000010
00000000
00000100
00000000
00000001
00000000
00001000
00000100
00001000
00000100
,
00001000
00000010
00000100
00000001
00000100
00000010
00001000
00000100
,
00010000
00000000
00001000
00010000
00000000
00001000
00010000
00000000
00001000
00000000
01000000
00000000
00100000
00000000
10000000
00000000
,
01000000
00000000
00010000
00000000
01000000
00000000
10000000
00000000
00100000
00000000
01000000
00010000
00000000
01000000
00010000
00000000
,
00100000
00001000
00010000
00000010
00001000
00000100
00000010
00010000
,
00000010
00000000
00000001
00000000
00000100
00000000
00000010
00000000
00001000
00000000
00000100
00000000
00010000
00001000
00010000
00000000
,
00001000
00000000
01000000
00000000
00100000
00000000
00010000
00000000
00100000
00000000
10000000
00000000
00010000
01000000
00010000
00000000
,
10000000
00000000
00010000
00000000
00100000
00000000
00001000
00000000
00100000
00000000
00001000
00010000
00000000
00001000
00000000
00010000
,
00000100
00001000
00000010
00000001
00000010
00000100
00000001
00001000
,
00000100
00000100
00000100
00000200
00000000
00010000
00000000
00001000
,
00001000
00000000
00010000
00000000
00000000
00000010
00000000
00001000
,
00001300
00000000
00000100
00000000
00010000
00000000
00001000
02000000
00000000
00000000
00100000
00000000
00000000
00000000
00010000
00000000
,
00000000
00100000
03100000
00010000
10000000
00000000
10010000
00000000
,
10000000
01000000
00010000
00002000
00000000
00010000
00000000
00000100
,
00000000
00010000
00010000
00000000
00000100
00000100
00000000
00010000
,
00013000
00000000
00001000
00000000
00010000
00000000
00000010
00000200
00000000
00000000
00000010
00000000
00000000
00000000
00000301
00000000
,
00002002
00000000
00000000
00003003
,
00001001
00000000
00000100
00000100
00000000
00000010
00001000
00000000
,
00000100
00000000
00010000
00000000
00000000
00000000
00011000
00000000
00000000
00010000
00001000
00000000
01000000
00000000
00100000
00000000
,
10000000
00000000
01000000
01000000
00000000
10000000
00100000
00000000
,
00010000
00001000
00000000
00100000
00001000
00010000
00000010
00000100
,
00000001
00000000
00001000
00001000
00000000
00000100
00000010
00000000
,
00000010
00000000
00000001
00000000
00000000
00000001
00001000
00000000
00000100
00000000
00001000
00000010
00000000
00000000
00000100
00000000
,
00000010
00000000
00001000
00001000
00000000
00000100
00010000
00000000
,
00010000
00001000
00000000
00001000
01001000
00000000
00000000
00000000
,
01200000
00000000
00000000
20300000
00100000
00100000
30100000
00000000
,
01000000
00010000
01000000
00010000
00100000
00001000
00000010
00001000
,
00010000
00000010
00000100
00000002
00001000
00001000
00001003
00000000
,
00001000
00000100
00010000
00001000
01000000
00100000
00010000
00100000
,
10000000
00000000
00000000
00010000
01000000
00010000
02000000
00000000
00010000
00000000
00010000
00000000
03010000
00000000
00000000
00000000
,
01000000
00010000
00001000
00010000
00100000
00001000
00010000
00000010
,
00000220
00000000
00000030
00000020
,
00000000
00000300
00002000
00000030
,
00003100
00001000
00001000
00000000
00000100
00000100
00000000
00010000
,
00010000
00000000
00001000
00001000
00000000
00100000
00010000
10000000
,
01000000
00010000
00010000
00000000
01000000
01000000
00000000
10000000
,
10000000
00000000
00000000
00000000
00100000
00000000
00100000
00000000
00000000
00000000
01000000
00000000
00010000
00100000
00010000
00000000
,
00100000
00001000
00010000
00000010
00000100
00001000
00000100
00000001
,
00001000
00000000
00000100
00000000
00000100
00000000
00000100
00000000
00001000
00000000
01000000
00000000
10000000
00000000
00000000
10000000
,
00100000
01000000
00010000
00100000
00010000
01000000
00001000
00010000
,
00000100
00001000
00010000
00001000
00000010
00000100
00000001
00001000
,
00001100
00000000
00000000
00010000
00001000
00000000
00010000
00000000
00010000
00000000
00010000
00000000
00001000
00000000
01000000
00000000
,
00200000
00000000
00000000
00000000
10300000
00000000
00010000
01000000
00000000
00010000
10000000
00000000
02000000
00000000
00000000
00000000
,
13000000
01000000
00000000
01000000
10000000
00000000
10000000
00010000
,
00000000
00010000
00100000
00001000
00010000
00000000
00010010
00000000
,
00000110
00000000
00000000
00000010
00000001
00000000
00000010
00000000
00001000
00000000
00000100
00000000
00001000
00000000
00000010
00000000
,
00020000
00000000
00000000
00000000
00031000
00000000
00010000
00001000
00000000
00100000
00001000
00000000
00010000
00000000
00000000
00000000
,
00001000
00010000
00000000
00010000
00001000
00000000
00001000
01000000
,
00000000
01000000
00100000
10000000
00010000
00000000
10010000
10010000
;

//---------------dance-single - ----------------
#NOTEDATA:;
#CHARTNAME:BEGINNER;
#CHARTHASH:4095000955;
#STEPSTYPE:dance-single;
#BANNER:;
#DESCRIPTION:;
#CHARTSTYLE:;
#DIFFICULTY:Beginner;
#METER:4;
#METERF:4.000000;
#LASTSECONDHINT:88.310257;
#RADARVALUES:0.157862,0.189551,0.087527,0.000000,0.000000,101.000000,93.000000,8.000000,0.000000,0.000000,0.000000,0.000000,0.000000,0.000000,0.157862,0.189551,0.087527,0.000000,0.000000,101.000000,93.000000,8.000000,0.000000,0.000000,0.000000,0.000000,0.000000,0.000000;
#CREDIT:YonabearCWY;
#NOTES:
// measure 0
0000
0000
0000
0000
,  // measure 1
0000
0000
0000
0000
,  // measure 2
1000
0000
0000
0000
,  // measure 3
1000
0000
0000
0000
,  // measure 4
0100
0000
0100
0000
,  // measure 5
0100
0000
0000
0000
,  // measure 6
0010
0000
0000
0000
,  // measure 7
0010
0000
0000
0000
,  // measure 8
0001
0000
0001
0000
,  // measure 9
0001
0000
0000
0000
,  // measure 10
1000
0000
0001
0000
,  // measure 11
0010
0000
0100
0000
,  // measure 12
1000
0000
0100
0000
,  // measure 13
0001
0000
0100
0000
,  // measure 14
1000
0000
0010
0000
,  // measure 15
0100
0000
0001
0000
,  // measure 16
0010
0000
0001
0000
,  // measure 17
1000
0000
0100
0000
,  // measure 18
1001
0000
0000
0000
,  // measure 19
0000
0100
0000
0100
,  // measure 20
1001
0000
0000
0000
,  // measure 21
0000
0010
0000
0010
,  // measure 22
0110
0000
0000
0000
,  // measure 23
0000
1000
0000
1000
,  // measure 24
1001
0000
0000
0000
,  // measure 25
0110
0000
0000
0000
,  // measure 26
0000
0100
0000
0100
,  // measure 27
0000
0100
0000
0000
,  // measure 28
0000
0010
0000
0010
,  // measure 29
0000
0010
0000
0000
,  // measure 30
0000
1000
0000
1000
,  // measure 31
0000
0100
0000
0000
,  // measure 32
0000
0001
0000
0001
,  // measure 33
0000
0100
0110
0000
,  // measure 34
0010
0000
0010
0000
,  // measure 35
0010
0000
0000
0000
,  // measure 36
1000
0000
1000
0000
,  // measure 37
1000
0000
0000
0000
,  // measure 38
0100
0000
0100
0000
,  // measure 39
0100
0000
0000
0000
,  // measure 40
1001
0000
0000
0000
,  // measure 41
0000
0000
0000
0000
,  // measure 42
0010
0010
0010
0000
,  // measure 43
0010
0000
0100
0000
,  // measure 44
0001
0001
0001
0000
,  // measure 45
1000
0000
0100
0000
,  // measure 46
0010
0010
0010
0000
,  // measure 47
0001
0000
0100
0000
,  // measure 48
0001
0001
0001
0000
,  // measure 49
1000
0000
0010
0000
,  // measure 50
0100
0000
0100
0000
,  // measure 51
0100
0000
0000
0000
,  // measure 52
0100
0000
0100
0000
,  // measure 53
0100
0000
0000
0000
,  // measure 54
0010
0000
0010
0000
,  // measure 55
0010
0000
0000
0000
,  // measure 56
0010
0000
0010
0000
,  // measure 57
0010
0000
0000
1001
;

//---------------dance-single - ----------------
#NOTEDATA:;
#CHARTNAME:BASIC;
#CHARTHASH:2524982335;
#STEPSTYPE:dance-single;
#BANNER:;
#DESCRIPTION:;
#CHARTSTYLE:;
#DIFFICULTY:Easy;
#METER:6;
#METERF:6.000000;
#LASTSECONDHINT:88.310257;
#RADARVALUES:0.270397,0.315919,0.109409,0.054705,0.000000,173.000000,163.000000,10.000000,5.000000,0.000000,0.000000,0.000000,0.000000,0.000000,0.270397,0.315919,0.109409,0.054705,0.000000,173.000000,163.000000,10.000000,5.000000,0.000000,0.000000,0.000000,0.000000,0.000000;
#CREDIT:YonabearCWY;
#NOTES:
0000
0000
0000
0000
,
0000
0000
0000
0000
,
1001
0000
1000
1000
,
1000
0000
1000
1000
,
1000
0000
0000
0010
0000
0000
0001
0000
,
0000
0000
0000
0000
,
0110
0000
0010
0010
,
0010
0000
0010
0010
,
0010
0000
0000
1000
0000
0000
0001
0000
,
0000
0000
0000
0000
,
1000
0100
0100
1000
,
0010
0010
1000
0001
,
0100
0001
0001
0001
,
1000
0100
0010
0001
,
1000
0010
0010
1000
,
0001
0001
1000
0100
,
0010
0001
0001
0001
,
0100
0010
1000
0100
,
1001
0000
0000
0000
0000
0020
0000
0000
,
0000
0000
0000
0030
,
1001
0000
0200
0000
,
0000
0000
0000
0300
,
1001
0000
0000
0000
0000
0200
0000
0000
,
0000
0000
0000
0300
,
1001
0000
0020
0000
,
0200
0000
0000
0330
,
1000
0010
1000
0010
,
0100
0001
0100
0000
,
0001
1000
0001
1000
,
0010
0100
0010
0000
,
1000
0001
1000
0001
,
0100
0001
0100
0000
,
0001
0010
0001
0010
,
1000
0010
1001
0000
,
0001
0000
1000
0000
,
0001
0001
1000
1000
,
0100
0000
0010
0000
,
0100
0100
0010
0010
,
0001
1000
0001
0000
,
1000
1000
0001
0001
,
0110
0000
0000
0000
,
0000
0000
0000
0000
,
1000
1000
1000
0000
,
1000
1000
1000
0000
,
0001
0001
0001
0000
,
0001
0001
0001
0000
,
0100
0100
0100
0000
,
0010
0010
0010
0000
,
0100
0100
0100
0000
,
0010
0010
0010
0000
,
1000
1000
1000
1000
,
0100
1000
0100
1000
,
0010
0100
0001
0010
,
0100
1000
0001
1001
,
0001
0001
0001
0001
,
0100
0001
0100
0001
,
0100
0010
1000
0100
,
0010
0001
1000
1001
;

//---------------dance-single - ----------------
#NOTEDATA:;
#CHARTNAME:DIFFICULT;
#CHARTHASH:2411783608;
#STEPSTYPE:dance-single;
#BANNER:;
#DESCRIPTION:;
#CHARTSTYLE:;
#DIFFICULTY:Medium;
#METER:9;
#METERF:9.000000;
#LASTSECONDHINT:88.501343;
#RADARVALUES:0.450141,0.474904,0.339168,0.153173,0.010941,288.000000,257.000000,31.000000,14.000000,0.000000,0.000000,0.000000,0.000000,0.000000,0.450141,0.474904,0.339168,0.153173,0.010941,288.000000,257.000000,31.000000,14.000000,0.000000,0.000000,0.000000,0.000000,0.000000;
#CREDIT:YonabearCWY;
#NOTES:
0000
0000
0000
0000
,
0000
0000
0000
0000
,
1001
0000
0000
1000
0010
0000
0010
0100
,
0000
0001
0000
1000
0000
0001
0100
0000
,
0110
0000
0000
1010
0000
0000
1100
0000
,
0000
1001
0000
0001
0100
0000
0001
0000
,
1001
0000
0000
1000
0100
0010
0001
1000
,
0000
0001
0000
0010
0000
0001
0000
0100
,
0101
0000
0000
0011
0000
0000
1001
0000
,
0000
0110
0000
0000
1000
0001
1000
0000
,
0010
1000
0010
0100
,
0001
0001
0001
0100
0001
0000
1001
0000
,
1000
0100
0010
0001
,
0010
0010
0100
0010
0100
1000
0001
0000
,
1000
0001
0010
1000
,
0010
0010
0010
0001
0010
0000
1001
0000
,
0001
1000
0100
0010
,
0100
0100
1000
0010
1000
0001
0100
0000
,
0001
0001
0002
0000
0000
1000
0000
0000
,
0000
0100
0203
0000
0000
0301
0100
0000
,
0001
0000
1000
0000
0010
0000
0000
0020
0000
0000
0000
0000
0000
0000
0000
0000
,
0100
0130
0000
0001
1000
0000
0110
0000
,
1000
1000
2000
0000
0000
0010
0000
0000
,
0000
0001
3002
0000
0000
1003
0001
0000
,
0001
0000
0100
0000
0010
0000
0000
2000
0000
0000
0001
0000
0000
0000
3001
0000
,
2002
0000
0000
3003
,
0000
0000
1000
1000
0000
0001
0001
0000
,
1000
1000
0000
0001
0000
1001
0000
0000
,
0000
0000
0100
0100
0000
0010
0010
0000
,
0100
0100
0000
0010
0000
1000
0001
0100
,
0010
0000
1000
1000
0000
0100
0100
0000
,
0010
0010
0000
0001
0000
1001
0000
0001
,
0100
0000
0010
0010
0000
1000
1000
0000
,
0100
0100
0000
1000
1001
0000
0000
0000
,
0120
0000
0000
1030
0100
0010
0001
0000
,
0100
0000
0001
0100
1000
0100
0001
0000
,
2010
0000
0000
3001
0010
0010
0010
0000
,
0101
0000
0010
1000
0100
0010
0100
0000
,
2001
0000
0000
3001
1000
0001
0010
0000
,
0001
0000
1000
0100
0010
0001
0100
0000
,
2002
0000
0000
0000
,
0000
0000
0000
3003
,
1000
0100
1000
0000
0100
1000
0100
0000
,
1000
0010
0100
0001
,
0010
0001
0010
0000
0001
0010
0001
0000
,
0100
0001
1000
0100
,
0010
0001
0010
0000
0001
0100
0001
0000
,
1000
1000
1000
1000
0000
0010
1000
0000
,
0100
1000
0100
0000
1000
0001
1000
0000
,
0010
0010
0010
0010
0000
0100
0001
0000
,
0010
0000
0001
0010
0100
1000
0100
0000
,
1000
0010
1000
0001
,
1010
0000
0000
1001
0000
0000
0101
0000
,
0000
0100
0000
0010
0200
0000
1000
0000
,
0301
0000
0100
0001
0100
0010
0100
0000
,
0010
0100
0001
1000
,
1100
0000
0000
1001
0000
0000
0011
0000
,
0000
0110
0000
0100
0001
0000
1001
1001
;

//---------------dance-single - ----------------
#NOTEDATA:;
#CHARTNAME:EXPERT;
#CHARTHASH:1170901591;
#STEPSTYPE:dance-single;
#BANNER:;
#DESCRIPTION:;
#CHARTSTYLE:;
#DIFFICULTY:Hard;
#METER:12;
#METERF:12.000000;
#LASTSECONDHINT:88.501343;
#RADARVALUES:0.618943,0.633206,0.339168,0.361050,0.224289,396.000000,365.000000,31.000000,33.000000,0.000000,0.000000,0.000000,0.000000,0.000000,0.618943,0.633206,0.339168,0.361050,0.224289,396.000000,365.000000,31.000000,33.000000,0.000000,0.000000,0.000000,0.000000,0.000000;
#CREDIT:YonabearCWY;
#NOTES:
0000
0000
0000
0000
,
0000
0000
0000
0000
,
1002
0000
0000
1003
0100
0010
0002
1000
,
0000
0100
0000
0010
0000
0103
0001
0010
,
0110
0000
0000
0011
0000
0000
1001
0000
,
0000
0000
1100
0000
0000
0000
1000
0000
0010
0000
0100
0000
0001
1000
0001
0000
,
0120
0000
0000
0031
0010
0001
1000
0200
,
0000
1000
0000
0001
0000
1300
0100
0010
,
1100
0000
0000
1001
0000
0000
0110
0000
,
0000
0000
0101
0000
0000
0000
0001
0000
0010
0000
0100
0000
1000
0100
1000
0100
,
1000
0010
1000
1000
0010
0100
0100
0001
,
0010
0000
0000
0001
0000
0100
0001
0000
0010
0000
0001
0000
1000
0000
0100
0000
,
0010
0000
0100
0000
1000
0000
0001
0000
0010
0000
0000
0001
0000
1000
0010
0000
,
0100
0000
0001
0000
0001
0000
0100
0000
0010
0000
0000
0010
1000
0000
0000
1000
,
0001
0010
0010
0001
1000
0100
0100
1000
,
0010
0000
0000
0100
0000
0001
1000
0000
0100
0000
0010
0000
0100
0000
1000
0000
,
0001
0000
0010
0000
0010
0000
0010
0000
0001
0000
1000
0001
0000
0010
0000
0001
,
0100
0010
1000
0001
1000
0100
0110
0000
,
1000
0100
1002
0000
0100
0100
0100
0000
,
0010
0000
0010
0000
0013
0000
0000
0001
1000
0000
0100
0010
0100
0000
0000
0000
,
1000
0000
0001
0000
1000
0000
0010
0200
0000
0000
1000
0000
0000
0000
0001
0000
,
0301
0100
0000
0010
1010
0000
0101
0000
,
1001
1000
0020
0100
0000
0001
0000
1000
,
1030
0000
0010
0000
0100
0000
0000
0001
0100
0001
0100
0000
0010
0000
0000
0000
,
1000
0000
0010
0000
0100
0000
0001
2000
0000
0000
0100
0000
0000
0000
3010
0000
,
0220
0000
0000
0330
,
2000
0000
0010
0010
0000
0100
0100
0000
,
0001
0001
0000
0010
3010
1000
1002
0000
,
0023
0000
0001
0001
0000
1000
1000
0000
,
0100
0100
0000
0001
0031
0010
1000
0010
,
0001
2000
0100
0100
0000
0010
0010
0000
,
0001
0001
0000
0100
3100
1000
1002
0000
,
0203
0000
0010
0010
0000
1000
1000
0000
,
0001
0001
0000
0310
0110
0000
0000
0000
,
1002
0000
0000
1003
0020
0100
0130
0000
,
0100
0000
0001
0010
0001
0000
1000
0000
1100
0000
0000
0000
0101
0000
0001
0000
,
1000
0020
0100
0130
0000
0010
1001
0000
,
1000
0000
0100
0000
0010
0000
0001
0000
0100
0000
0001
1000
0001
0000
0000
0000
,
0011
0000
0000
1000
0010
1000
0010
0000
0200
0000
0001
0000
0301
0000
0000
0000
,
0001
0000
1000
0100
1000
0000
0010
0000
0100
0000
0001
0000
1001
0000
0000
0000
,
0220
0000
0300
2000
,
0000
0030
0002
3000
,
0103
0001
0100
0002
1000
1000
1003
0000
,
0010
0000
1000
0000
0010
0000
0000
0200
0001
0000
0001
0000
0301
0000
1000
0000
,
0100
0010
0100
1000
0010
0010
0010
0000
,
0101
0000
0000
0001
0000
1000
0000
0100
1000
0000
0010
0100
0010
0000
1000
0000
,
0100
1000
0001
0020
0001
0001
0031
0000
,
0001
0000
1000
0000
0001
0000
0000
2000
0100
0000
0100
0000
3100
0000
1000
0000
,
0010
0100
0001
0010
0001
0001
0001
1000
,
1100
0000
0000
0000
1000
0010
0000
0100
0000
0001
0100
0001
0100
0000
0001
1000
,
0001
1000
0100
1000
0100
0010
0001
0010
,
0200
0000
0000
0000
1300
0000
0001
1000
0000
0010
2000
0000
0100
0000
0100
0000
,
3100
1000
0000
1001
0000
0001
0010
0000
,
0010
0001
0000
2000
0010
0010
3010
0000
,
0100
0010
0100
0010
0001
0010
0001
0010
,
2000
0000
0000
0000
3100
0000
1000
0001
0000
0010
0002
0000
0100
0000
0100
0000
,
0103
0001
0000
1001
0000
1000
0010
0000
,
0010
0000
0100
0000
0000
0000
0100
0000
0001
0000
1000
0001
1000
0000
1001
0000
;

//---------------dance-single - ----------------
#NOTEDATA:;
#CHARTNAME:CHALLENGE;
#CHARTHASH:2702415991;
#STEPSTYPE:dance-single;
#BANNER:;
#DESCRIPTION:;
#CHARTSTYLE:;
#DIFFICULTY:Challenge;
#METER:15;
#METERF:15.000000;
#LASTSECONDHINT:88.501343;
#RADARVALUES:0.751797,0.791507,0.251641,0.579869,0.590810,481.000000,458.000000,23.000000,53.000000,0.000000,0.000000,0.000000,0.000000,0.000000,0.751797,0.791507,0.251641,0.579869,0.590810,481.000000,458.000000,23.000000,53.000000,0.000000,0.000000,0.000000,0.000000,0.000000;
#CREDIT:YonabearCWY;
#NOTES:
0000
0000
0000
0000
,
0000
0000
0000
0000
,
1002
0000
1003
0100
0010
0001
0010
0200
,
0000
0000
2300
0000
0000
0000
3200
0000
0000
1300
0001
0000
0100
0010
0100
0000
,
0202
0000
0303
2200
0000
3300
0220
0000
,
0330
0000
2001
0000
0000
0000
3001
0000
0100
0000
0010
0000
1000
0001
1000
0001
,
2000
0000
3001
0010
0100
0010
0001
2000
,
0000
0000
3020
0000
0000
0000
0230
0000
0000
0301
0100
0000
0010
1000
0010
1000
,
2020
0000
3030
0202
0000
0303
0120
0000
,
1030
0000
0001
0000
0100
0010
0000
1000
0000
0001
0100
0000
0010
0100
0010
0100
,
0010
0000
1000
0000
1000
0000
0100
0000
1000
0000
0001
0100
1000
0100
0001
0000
,
0100
0000
0000
0010
0000
1000
0100
0000
0010
0000
0001
1000
0100
0001
0100
0000
,
1000
0000
0001
0010
0100
0010
0001
0000
1000
0000
0010
0100
0000
0010
0000
1000
,
0100
0010
0001
0000
0100
0000
0010
0000
1000
0000
0001
0100
0001
0000
1000
0010
,
1000
0000
0010
0000
0001
0000
0010
0000
1000
0000
0100
0010
0100
1000
0100
0000
,
0010
0000
0001
0100
0000
0001
1000
0100
0010
0001
1000
0000
0001
0000
0100
0010
,
0100
0000
0001
0000
0010
0000
0100
0000
1000
0100
0010
0001
0000
0100
0010
1000
,
0001
0100
0001
0000
0010
0000
0001
0000
1000
0100
0001
0100
1000
0000
0010
0100
,
0010
1000
0001
2000
0000
0001
0000
3200
,
0010
0000
0010
0000
0310
0000
0000
0010
0001
1000
0001
0000
0100
0000
0010
0000
,
1000
0000
0001
0000
0100
0000
0001
0020
0000
0000
0100
0000
0000
0000
0031
0000
,
0010
0000
1001
0000
0000
0000
1000
0000
1100
0000
0000
0001
1000
0000
0000
0100
,
0010
0001
1000
0020
0000
0001
0000
2030
,
0100
0000
0100
0000
3100
0000
0000
1000
0001
0010
0001
0000
0100
0000
0010
0000
,
1000
0000
0001
0000
0010
0000
0001
0200
0000
0000
1000
0000
0000
0000
0310
0000
,
0100
0000
0010
0100
0010
0100
0010
0100
0001
1000
0001
1000
0002
0000
0000
0000
,
2003
0000
3001
0010
1000
0001
0100
1000
,
0001
0010
1000
0001
0100
1000
2000
0000
,
3002
0000
1003
0100
0001
1000
0010
0001
,
1000
0000
0100
0000
0001
0000
1000
0000
0010
0000
0000
0001
0000
0100
0000
0001
,
2000
0000
3001
1000
0100
0001
1000
0010
,
0001
1000
0100
0001
1000
0010
2001
0000
,
3002
0000
1003
0001
0010
1000
0001
0100
,
1000
0001
0010
1000
2002
0000
0000
3003
,
0120
0000
1030
0010
2000
0000
0001
3002
,
0000
0000
0013
0000
0100
0000
1000
0000
0001
0000
0000
1000
0100
0000
1000
0000
,
0012
0000
0000
1003
0001
0000
0001
0000
0000
0010
0100
0000
1000
0000
0100
0000
,
0010
0000
0001
0100
0001
0000
1000
0000
0010
0100
0000
0010
1000
0001
1000
0000
,
1100
0000
1000
0100
0010
0001
0010
0000
0011
0000
0001
0000
1000
0000
0001
0000
,
0201
0000
0000
0310
0100
0000
0010
0000
1000
0000
0001
1000
0100
0010
0100
0000
,
1001
0010
0200
2000
0000
0300
0002
0000
,
0000
0000
3000
0000
0200
0000
0000
0303
,
1001
0000
0000
1000
0100
0000
0010
0000
0100
1000
0000
0001
1000
0000
0010
0000
,
0100
0000
0001
0100
0000
0000
0100
0010
0000
1000
0001
0000
0010
0000
0001
1000
,
0001
0000
0000
0001
0100
0000
0010
0000
1000
0001
0000
0100
0001
0000
1000
0000
,
1010
0000
0000
0010
0000
0100
0000
0001
0100
0001
0100
0001
1000
0001
1000
0001
,
1000
0000
0100
0000
0010
0000
0100
0000
1000
0001
0000
0010
0001
0000
0100
0001
,
0000
0000
0001
0000
0010
0000
0100
1000
0000
0001
1000
0000
0010
0100
0010
0100
,
0010
1000
0000
0001
0100
0000
0010
0100
0000
0000
0010
0000
1000
0000
0100
0000
,
0010
0001
0010
0000
0001
1000
0000
0100
1000
0100
1000
0000
0001
0000
0100
0010
,
0100
0001
1000
0100
0001
1000
0010
0001
,
2000
0000
0000
0000
3001
0000
1000
0100
0000
0010
0002
0000
0100
0000
0100
0000
,
0103
0001
0000
0021
0000
0031
1000
0100
,
0010
0002
0000
2003
0100
0100
3100
1000
,
0001
1000
0010
0001
1000
0100
0001
1000
,
0020
0000
0000
0000
0130
0000
0001
1000
0000
0100
0020
0000
0001
0000
0001
0000
,
0031
1000
0000
0102
0000
2003
0010
0010
,
3010
0000
1000
0000
0001
0100
0000
0010
0000
1000
0001
0000
0100
0000
1001
0000
;
