#TITLE:赤い鈴;
#SUBTITLE:;
#ARTIST:あさき;
#TITLETRANSLIT:Akai suzu;
#SUBTITLETRANSLIT:;
#ARTISTTRANSLIT:Asaki;
#GENRE:VISUAL KEI;
#CREDIT:YonabearCWY;
#BANNER:Akai suzu.png;
#BACKGROUND:Akai suzu-bg.png;
#LYRICSPATH:;
#CDTITLE:GUITAR FREAKS & drummania.png;
#MUSIC:Akai suzu.ogg;
#OFFSET:-0.040000;
#SAMPLESTART:85.098907;
#SAMPLELENGTH:15.000000;
#SELECTABLE:YES;
#DISPLAYBPM:220.000000;
#BPMS:0.000000=220.000000
;
#STOPS:
;
#BGCHANGES:0.000=Akai suzu.mp4=1.000=1=0=0=StretchNoLoop==CrossFade==,
481.000=Akai suzu-bg.png=1.000=1=0=1===CrossFade==,
99999.000=-nosongbg-=1.000=0=0=0=StretchNoLoop====,
99999=-nosongbg-=1.000=0=0=0 // don't automatically add -songbackground-
;
#KEYSOUNDS:;
#ATTACKS:;

//---------------dance-single - ----------------
#NOTES:
     dance-single:
     BEGINNER:
     Beginner:
     5:
     0.162064,0.265681,0.051233,0.058552,0.000000,155.000000,148.000000,7.000000,8.000000,0.000000,0.000000,0.162064,0.265681,0.051233,0.058552,0.000000,155.000000,148.000000,7.000000,8.000000,0.000000,0.000000:
0000
0000
0000
0000
,
0000
0000
0000
0000
,
0000
0000
0000
0000
,
0000
0000
0000
0000
,
0000
0000
0000
0000
,
0000
0000
0000
0000
,
0000
0000
0000
0000
,
0000
0000
0000
0000
,
1000
0000
0000
0000
,
0000
0000
0000
0000
,
1000
0000
0000
0000
,
0000
0000
0000
0000
,
0001
0000
0000
0000
,
0000
0000
0000
0000
,
0001
0000
0000
0000
,
0000
0000
0000
0000
,
1000
0000
1000
0000
,
1000
0000
1000
0000
,
1000
0000
0000
0000
,
0001
0000
0000
0000
,
1000
0000
1000
0000
,
1000
0000
1000
0000
,
1000
0000
0000
0000
,
0001
0000
0000
0000
,
0100
0000
0100
0000
,
0100
0000
0100
0000
,
0100
0000
0000
0000
,
0100
0000
0000
0000
,
0010
0000
0010
0000
,
0010
0000
0010
0000
,
0010
0000
0000
0000
,
0010
0000
0000
0000
,
1000
0000
1000
0000
,
1000
0000
1000
0000
,
1000
0000
0000
0000
,
1000
0000
0000
0000
,
0002
0000
0003
0000
,
2000
0000
3000
0000
,
0001
0000
0001
0000
,
0001
0000
0000
0000
,
1000
0000
1000
0000
,
1000
0000
1000
0000
,
1000
0000
0000
0000
,
0001
0000
0000
0000
,
1000
0000
1000
0000
,
1000
0000
1000
0000
,
1000
0000
0000
0000
,
0001
0000
0000
0000
,
0100
0000
0010
0000
,
0100
0000
0001
0000
,
1000
0000
0000
0000
,
0010
0000
0000
0000
,
0100
0000
0001
0000
,
0010
0000
0001
0000
,
1000
0000
0000
0000
,
0001
0000
0000
0000
,
0010
0000
0100
0000
,
0010
0000
0001
0000
,
0010
0000
0000
0000
,
0001
0000
0000
0000
,
2000
0000
3000
0000
,
0002
0000
0003
0000
,
1000
0000
1000
0000
,
0001
0000
0001
0000
,
0100
0000
0000
0000
,
0100
0000
0000
0000
,
0010
0000
0000
0000
,
0010
0000
0000
0000
,
1000
0000
1000
0000
,
0000
0000
0000
0000
,
0001
0000
0001
0000
,
0000
0000
0000
0000
,
1000
0000
0000
0000
,
1000
0000
0000
0000
,
0010
0000
0000
0000
,
0010
0000
0000
0000
,
0100
0000
0100
0000
,
0010
0000
0010
0000
,
0000
1000
0000
1000
,
2002
0000
0000
3003
,
0100
0000
0100
0000
,
0100
0000
0010
0000
,
0010
0000
0010
0000
,
1000
0000
1000
0000
,
1000
0000
0001
0000
,
0001
0000
0001
0000
,
1000
0000
1000
0000
,
1000
0000
0000
0000
,
0010
0000
0010
0000
,
0010
0000
0100
0000
,
0100
0000
0100
0000
,
0001
0000
0001
0000
,
0001
0000
0010
0000
,
0010
0000
0010
0000
,
0100
0000
0100
0000
,
0100
0000
1000
0000
,
1001
0000
0000
0000
,
0000
0000
0000
0000
,
1000
0000
0000
0000
,
0000
0000
0000
0000
,
0001
0000
0000
0000
,
0000
0000
0000
0000
,
0100
0000
0100
0000
,
0100
0000
0100
0000
,
1001
0000
0000
0000
,
0000
0000
0000
0000
,
1001
0000
0000
0000
,
0000
0000
0000
0000
,
0110
0000
0000
0000
,
0000
0000
0000
0000
,
0110
0000
0000
0000
,
0000
0000
0000
0000
,
1000
0000
1000
0000
,
1000
0000
1000
0000
,
1000
0000
0000
0000
,
0001
0000
0001
0000
,
0001
0000
0000
0000
,
0100
0000
0000
0000
,
0010
0000
0000
0000
,
1000
0000
0000
0000
,
0000
2002
0000
0000
,
3003
0000
0000
0000
;

//---------------dance-single - ----------------
#NOTES:
     dance-single:
     DIFFICULT:
     Medium:
     12:
     0.541609,0.752763,0.278123,0.365952,0.365952,518.000000,480.000000,38.000000,50.000000,0.000000,0.000000,0.541609,0.752763,0.278123,0.365952,0.365952,518.000000,480.000000,38.000000,50.000000,0.000000,0.000000:
0000
0000
0000
0000
,
0000
0000
0000
0000
,
0000
0000
0000
0000
,
0000
0000
0000
0000
,
0000
0000
0000
0000
,
0000
0000
0000
0000
,
0000
0000
0000
0000
,
0000
0000
0000
0000
,
1000
0000
0000
0001
0000
0000
1000
0000
0000
0000
0000
0010
,
0000
0100
0001
0010
,
0001
0000
0000
1000
0000
0000
0001
0000
0000
0100
0000
0100
,
0000
0010
1000
0100
,
0010
0000
0000
0001
0000
0000
1000
0000
0000
0001
0000
0001
,
0000
1000
0100
0010
,
0100
1000
0001
0100
,
0001
0000
0001
1000
0000
0001
1000
0000
0010
1000
0000
0010
,
2000
0100
0010
0001
,
0010
0000
0000
0100
0000
0000
0010
0000
3010
0000
0000
1002
,
0000
0000
0100
0000
0000
0000
0100
0000
0000
0103
0000
0000
,
1001
0010
1000
0010
,
1000
0000
1000
0010
0000
0000
0100
0000
0100
0001
0000
0000
,
0010
0000
0010
0001
0000
0010
0001
0000
1000
0010
0000
1000
,
0010
0000
0100
0001
0000
0100
0010
0000
0100
0000
0000
2001
,
0000
3010
0100
0001
,
2000
0010
0000
3010
,
0200
1000
0000
1300
,
0001
0101
1000
1010
,
0010
0000
0000
0110
0000
0000
1000
0000
0001
0000
0000
0000
,
0021
1000
0001
1000
,
0032
1000
0100
1000
,
0103
0000
0000
0100
0000
0000
0001
0000
1000
0000
0000
0120
,
0000
0000
0000
1030
0000
0000
0100
0000
0000
0010
0000
0001
,
0000
2001
0010
0100
,
0010
0100
0001
3100
,
1000
0000
0000
0010
0000
0000
0100
0000
0000
0001
0000
0001
,
0000
0000
0001
0010
0000
0010
0100
0000
0100
1000
0000
1000
,
0002
0000
0000
1000
0000
0000
0000
0000
1000
0000
0000
2003
,
0000
0000
3020
0000
,
0230
0000
0302
0000
,
0013
0110
0100
1100
,
1001
0010
0100
0010
,
1001
0000
0000
0100
0000
0000
0010
0000
0000
0100
0000
0002
,
0000
0000
0000
1000
0000
0000
0010
0000
0000
1000
0000
2003
,
0000
0010
0100
3001
,
1100
0000
0000
1001
0000
0000
0011
0000
0000
0001
0000
0100
,
0000
0000
0010
0000
0000
0100
0001
0000
0000
1001
0000
0000
,
0120
0000
0000
1000
0000
0000
1000
0000
1030
0000
0000
2001
,
0000
3001
0010
0100
,
2000
0001
0000
3001
,
0020
0100
0000
0031
,
1000
0101
0001
1100
,
1000
0000
0000
0010
0000
0000
0100
0000
0001
0000
0000
0000
,
0120
1000
0100
1030
,
0200
0001
0010
0301
,
0010
0000
0000
0010
0000
0000
0100
0000
0001
0000
0000
0001
,
1000
0010
0100
0001
,
1002
0100
0010
0100
,
1000
0010
0100
0010
,
1003
0000
0001
0100
0000
0000
0010
0000
1000
0100
0000
0000
,
1000
0000
0001
0100
0000
0100
0010
0000
0010
1000
0000
1000
,
0002
0000
0000
0100
0000
0000
0000
0000
0100
0000
0000
0203
,
0000
0000
0320
0000
,
2030
0000
3020
0000
,
0130
0000
0000
0001
0000
0000
0100
0000
0010
1000
0000
0010
,
2000
0001
0010
0001
,
0100
0000
0000
3001
0000
1000
0000
0000
1000
0100
0000
1000
,
0200
0010
1000
0010
,
1000
0000
0000
0000
0000
0000
1300
0000
0000
0000
0001
0000
0000
0000
0000
0000
0001
0000
1000
0000
0000
0010
0000
0000
,
2000
0000
0000
0010
0000
0010
0000
0000
3002
0000
0000
0000
,
1003
0100
0010
0001
,
2001
0000
0000
0000
0000
0001
0000
0000
3001
0000
0000
1002
,
0000
0103
0010
1000
,
0201
0001
0010
0001
,
0010
0000
0000
0001
0000
0301
0000
0000
1000
0100
0000
1000
,
0200
1000
0001
1000
,
0001
0000
0000
1000
0000
1300
0000
0000
1000
0001
0000
1000
,
0002
0000
0000
0010
0000
0013
0000
0000
0000
0000
0000
0000
,
2001
0000
0000
0100
0000
3100
0000
0000
0000
0010
0000
0000
,
1000
1001
0010
1001
,
0220
0000
0000
0330
,
1000
0010
0100
0001
,
0100
0010
1000
0100
,
0001
0100
1000
0010
,
0100
0010
1000
0001
,
0010
1000
0010
0001
,
0100
0010
0001
0010
,
0100
0001
1000
0010
,
0100
0000
0000
0001
0000
0100
0000
0000
0010
1000
0000
0010
,
1000
0100
0010
0001
,
0010
0000
0000
0100
0000
0000
0010
0000
0001
1000
0000
0001
,
1000
0010
0100
0010
,
1000
0001
1000
0100
,
1000
0000
0000
0001
0000
0000
0100
0000
0100
0000
0000
0001
,
1000
0010
0100
0010
,
1000
0000
0000
0010
0000
0010
0000
0000
1000
0100
0000
1000
,
0001
0010
0201
0000
,
0301
1000
0010
1000
,
0001
0100
0001
1000
,
0020
1000
0000
1030
,
0100
0010
0001
1000
,
0200
1000
0000
1300
,
0001
0010
0001
1000
,
0020
0100
0000
0130
,
1001
0000
0000
0010
0000
0000
1000
0000
0020
0000
0000
0000
,
0130
0000
0000
0001
0000
0000
0100
0000
0000
0010
0000
1000
,
0000
0000
1000
0100
0000
0000
0010
0000
0000
0001
0000
0000
,
0010
0000
0000
0100
0000
0000
1000
0000
0000
0001
0000
1000
,
0001
0010
0001
0100
,
0010
1000
0100
0010
,
0001
0000
0010
0001
0000
1000
0001
0000
0000
0100
0000
0000
,
0010
1000
0010
0100
,
0001
1100
0001
0110
,
2001
0010
0100
0010
,
0100
0000
0000
0001
0000
0000
0010
0000
3010
0000
0000
1002
,
0000
0000
0100
0000
0000
0000
1000
0000
0000
1000
0000
0000
,
1003
0010
0100
0001
,
0010
0000
0001
0010
0000
0001
0010
0000
0001
1000
0000
0001
,
1000
0000
0100
0010
0000
0100
0010
0000
0010
0001
0000
0010
,
0001
0000
0001
1000
0000
0000
0010
0000
0100
0000
0000
1002
,
0000
0000
0000
1003
0000
0000
0010
0000
0000
0100
0000
0010
,
0000
2002
0000
0000
,
3003
0000
0000
0000
;

//---------------dance-single - ----------------
#NOTES:
     dance-single:
     BASIC:
     Easy:
     9:
     0.403593,0.531362,0.168338,0.212252,0.139062,386.000000,363.000000,23.000000,29.000000,0.000000,0.000000,0.403593,0.531362,0.168338,0.212252,0.139062,386.000000,363.000000,23.000000,29.000000,0.000000,0.000000:
0000
0000
0000
0000
,
0000
0000
0000
0000
,
0000
0000
0000
0000
,
0000
0000
0000
0000
,
0000
0000
0000
0000
,
0000
0000
0000
0000
,
0000
0000
0000
0000
,
0000
0000
0000
0000
,
1000
0000
0000
0010
0000
0000
1000
0000
0000
0000
0000
0001
,
0000
0010
0001
0100
,
0010
0100
0010
1000
,
0001
0000
0100
0000
,
0010
0000
0000
1000
0000
0000
0010
0000
0000
0000
0000
0100
,
0000
0001
0010
0100
,
1000
1000
0001
0001
,
0010
0011
0001
1001
,
1200
0000
1000
0000
,
0010
0000
1300
0001
,
1002
0000
0010
0000
,
0100
0000
0010
0000
,
1003
0100
0001
0100
,
1000
0100
0010
0100
,
1000
0000
0000
0001
0000
0000
0100
0000
0100
0000
0000
0110
,
0000
1000
0010
0100
,
0002
1000
0000
0010
,
0000
1000
0000
0010
,
2003
0001
0000
0100
,
0000
0001
0000
0100
,
3001
1000
0100
0010
,
0001
0100
0010
1000
,
0101
0000
0000
1001
0000
0000
0010
0000
0100
0000
0000
1001
,
0000
1000
0100
0010
,
0002
1000
0000
0010
,
0000
1000
0000
0100
,
0013
0000
0000
0001
0000
0000
1000
0000
0000
0001
0000
0100
,
0000
0010
1000
0100
,
0022
0000
0000
0000
0000
0000
0033
0000
2000
0000
0000
0002
,
0000
0000
3003
0000
,
0010
0010
0100
0100
,
0001
0010
0100
1000
,
0001
0000
0000
0100
0000
0000
0010
0000
0000
1000
0000
0010
,
0000
0000
0000
0100
0000
0000
0001
0000
0000
0100
0000
0001
,
0000
0000
0000
0010
0000
0000
0100
0000
0000
1000
0000
0001
,
0000
1000
0010
0100
,
0101
0000
0000
0001
0000
0000
1001
0000
0000
0000
0000
1000
,
0000
0000
0010
0000
0000
1000
0001
0000
0000
0100
0000
0000
,
0110
0000
0000
0010
0000
0000
0010
0000
1000
0000
0000
1001
,
0000
0001
0010
0100
,
2000
0010
0000
0001
,
0010
0001
0000
0001
,
3100
1100
1000
1001
,
0010
0000
0000
0100
0000
0000
0010
0000
0100
0000
0000
0000
,
0002
1000
0000
0100
,
1000
0100
0000
1000
,
0013
0010
0001
0001
,
1000
0010
0100
0001
,
2001
0010
0000
0100
,
0010
0100
0000
0010
,
3001
0000
0000
1000
0000
0000
0010
0000
0000
0100
0000
0001
,
0000
0010
0001
1000
,
2002
0000
0000
0000
0000
0000
3003
0000
0200
0000
0000
0020
,
0000
0000
0330
0000
,
0001
0100
0010
0000
,
1000
1000
0010
0010
,
0100
0001
0010
0100
,
1000
0000
0000
0010
0000
2000
0000
0000
0000
0000
0000
0000
,
3001
0100
0001
1000
,
0010
0000
0000
0100
0000
0020
0000
0000
0000
0000
0000
0000
,
1030
0000
0000
0001
0000
0100
0000
0000
0020
0000
0000
2000
,
0000
0000
0000
3030
,
1000
0000
0000
0010
0000
0100
0000
0000
0002
0000
0000
2000
,
0000
0000
0000
3003
,
1000
0010
0100
0001
,
0010
0000
0000
0001
0000
1000
0000
0000
0001
0100
0000
0000
,
0010
1000
0100
0010
,
0001
0000
0000
1000
0000
0001
0000
0000
0100
0010
0000
0000
,
1010
0000
0000
0020
0000
0200
0000
0000
0000
0330
0000
0000
,
0101
0000
0000
0200
0000
0020
0000
0000
0000
0330
0000
0000
,
0000
1000
0000
1000
,
0001
0001
0001
0001
,
1000
0100
0010
0000
,
0001
0010
0100
0000
,
1000
0100
0001
0000
,
0001
0100
1000
0000
,
0001
0010
1000
0000
,
1000
0010
0001
0000
,
0010
0001
0100
0010
,
1000
0010
0100
0000
,
0001
0001
0001
0000
,
1000
1000
1000
0000
,
0010
0010
0010
0000
,
0100
0100
0100
0000
,
0001
0010
0100
1000
,
0010
0100
0001
1000
,
0100
0000
0100
0000
,
1000
0000
0100
0000
,
0110
0010
0000
0001
,
0000
0100
0000
0010
,
1000
0010
0000
0100
,
0000
0001
0010
0100
,
1000
0001
0000
1000
,
0000
0010
0000
0100
,
0001
0001
0010
0010
,
0100
0000
0000
1000
0000
0000
0001
0000
0100
0000
0000
0000
,
0010
1000
0010
0000
,
1000
0000
1000
0000
,
0001
0100
0001
0000
,
0100
0000
0100
0000
,
0010
0100
0010
0000
,
1000
0000
1000
0000
,
0100
0010
0001
1000
,
0010
0100
0001
1000
,
0002
0000
0010
0000
,
1000
0000
0010
0000
,
1000
0000
0010
0000
,
0103
0000
0100
0100
,
1001
0010
0100
0010
,
1000
0010
0100
0001
,
1000
0000
0000
0010
0000
0000
0100
0000
0001
0000
0000
1001
,
0000
1000
0001
1000
,
0000
2002
0000
0000
,
3003
0000
0000
0000
;

//---------------dance-single - ----------------
#NOTES:
     dance-single:
     EXPERT:
     Hard:
     15:
     0.690081,0.929884,0.234209,0.417185,0.859987,660.000000,628.000000,32.000000,57.000000,0.000000,0.000000,0.690081,0.929884,0.234209,0.417185,0.859987,660.000000,628.000000,32.000000,57.000000,0.000000,0.000000:
0000
0000
0000
0000
,
0000
0000
0000
0000
,
0000
0000
0000
0000
,
0000
0000
0000
0000
,
0000
0000
0000
0000
,
0000
0000
0000
0000
,
0000
0000
0000
0000
,
0000
0000
0000
0000
,
1000
0000
0000
0010
0000
0000
0100
0000
0000
0000
0000
0001
,
0000
0000
0001
0100
0000
0000
0010
0000
0000
1000
0000
0000
,
0100
0000
0000
0010
0000
0000
0001
0000
0000
1000
0000
0001
,
1000
0010
0001
0010
,
1000
0000
0000
0010
0000
0000
0100
0000
0000
0001
0000
0001
,
0000
0000
1000
0100
0000
0000
0010
0000
0000
0001
0000
0000
,
0010
0100
1000
0001
,
1000
0010
1000
0010
0100
0010
0100
0001
0100
0001
1000
0001
,
2000
0010
0001
0010
,
0100
0000
0000
0010
0000
0000
0100
0000
3100
0000
0000
1002
,
0000
0000
0100
0000
0000
0000
0103
0000
0000
0001
0000
1000
,
0001
0000
0000
0010
0000
0000
0001
0100
0001
0100
0010
1000
,
0010
1000
0100
0010
,
0001
0010
0100
1000
,
0001
1000
0001
1000
0000
1000
0100
0000
0010
0000
0000
1002
,
0000
0000
0000
0103
0010
0100
0001
1000
0100
0010
0000
0000
,
0002
0100
1000
0100
,
0013
0000
0000
0001
0000
0200
0000
0000
0000
0010
0000
0000
,
0320
1000
0230
0001
,
0320
0000
0000
0100
0000
0000
1030
0000
0010
0000
0000
0000
,
1002
0010
0100
0010
,
2003
0010
0001
0010
,
3100
0000
1000
0001
0000
0000
0010
0000
0001
1000
0000
0000
,
0110
0000
0000
0100
0001
0010
0100
1000
0100
0010
0001
1000
,
0000
0120
1000
0001
,
2030
0100
0001
0100
,
3010
0000
0010
1000
0000
1000
0010
0000
0010
0100
0000
0100
,
0000
0000
0001
0100
0000
0100
0010
0000
0010
1000
0000
1000
,
0002
0000
0000
0100
0000
0000
0000
0000
0100
0000
0000
0203
,
0000
0000
0320
0000
,
2030
0001
3200
1000
,
0310
0011
0100
1100
,
1001
0000
0001
0100
0000
0000
0010
0000
1000
0010
0000
0100
,
0000
0000
0001
0100
0000
0100
0001
0000
0001
1000
0000
0010
,
0000
0000
1000
0100
0000
0000
0010
0000
0000
0001
0000
1000
,
0000
0000
1000
0100
0000
0100
0010
0000
0010
0001
0010
0001
,
1000
0000
0000
1010
0000
0000
0101
0000
0000
1000
0000
1001
,
0000
0000
0110
0000
0000
0010
1000
0000
0000
0110
0000
0000
,
0101
0000
0000
0010
0000
0001
1000
0000
0100
0000
0000
2001
,
0000
0000
0000
3010
1000
0100
0010
0001
1000
0010
0000
0000
,
2001
0000
0000
0010
0000
0010
0000
0000
0000
0100
0000
0000
,
3002
0000
0000
0100
0000
0100
0000
0000
1003
0001
0000
0000
,
0020
1000
0001
1000
,
0032
0000
0000
1000
0000
0000
0013
0000
0001
0000
0000
0000
,
1002
0000
0000
0010
0000
0010
0000
0000
1003
0100
0000
0000
,
2000
0000
0000
0010
0000
0010
0000
0000
3001
0100
0000
0001
,
1000
0000
0000
0110
0000
0000
1000
0000
0001
0000
0000
0001
,
0100
0000
0000
0010
1000
0100
1000
0010
0100
0001
0000
0000
,
0012
1000
0100
1000
,
0010
0100
0010
1000
,
0103
0000
0100
0001
0000
0001
0010
0000
0010
0100
0000
0100
,
0000
0000
1000
0100
0000
0100
0010
0000
0010
0001
0000
0001
,
2000
0000
0000
0010
0000
0000
0000
0000
0010
0000
0000
3020
,
0000
0000
0230
0001
,
0320
1000
0230
1000
,
0301
0000
0001
0100
0000
0100
0010
0000
0010
1000
0000
0000
,
1200
1000
0001
1000
,
0001
0000
0000
1000
0000
1300
0000
0000
1000
0001
0000
1000
,
0002
1000
0010
1000
,
0010
0000
0000
0000
0000
0000
1003
0000
0000
0000
1000
0000
0000
0000
0000
0000
0001
0000
0010
0000
0000
0100
0000
0000
,
2000
0000
0000
0010
0000
0010
0000
0000
0010
0000
0000
3020
,
0000
2030
3200
0310
,
0012
0000
0000
0000
0000
1000
0000
0000
1000
0000
0000
2003
,
0000
0000
0000
3001
0010
0100
1000
0100
0010
0001
0000
0000
,
0210
0001
1000
0001
,
1000
0000
0000
0001
0000
0301
0000
0000
0001
0100
0000
0001
,
0020
0001
1000
0001
,
1000
0000
0000
0001
0000
0031
0000
0000
1000
0100
0010
0001
,
0020
0000
0000
0100
0000
0130
0000
0000
0001
1000
0010
0100
,
0002
0000
0000
1000
0000
1003
0000
0000
0001
0010
0100
1000
,
0100
1100
1000
1001
,
0100
0010
0100
0010
0100
0010
0100
0010
0100
0010
0100
0010
,
0100
0000
0100
0001
0000
0001
1000
0000
1000
0010
0000
0010
,
0100
0000
0100
0001
0000
0001
0010
0000
0010
0100
0000
0100
,
1000
0000
1000
0100
0000
0100
0010
0000
0010
0001
0000
0001
,
1000
0000
1000
0001
0000
0001
0100
0000
0100
0010
0000
0010
,
1000
0000
1000
0100
0000
0100
0001
0000
0001
0100
0000
0100
,
1000
0000
1000
0001
0000
0001
1000
0000
1000
0010
0000
0010
,
0001
0000
0001
0010
0000
0010
1000
0000
1000
0100
0000
0100
,
0010
0000
0000
0000
0010
0000
0001
0000
0000
0000
0001
0000
0000
0000
0000
0000
0100
0000
0001
0000
0000
1000
0000
0000
,
0010
0000
0010
1000
0000
0010
0100
0000
0010
1000
0000
0010
,
0001
0000
0010
0100
0000
0010
1000
0000
1000
0100
0000
0100
,
0010
0000
0100
0001
0000
0100
1000
0000
0100
0010
0000
0100
,
0001
0000
0000
0000
0100
0000
1000
0000
0000
0010
0000
0000
0100
0000
0000
0000
0001
0000
0100
0000
0000
0000
0001
0000
,
1000
0000
0000
0010
0000
0000
0100
0000
0100
0000
0000
1001
,
0000
0000
0001
0020
0000
0000
0230
0000
0000
2300
0000
0000
,
3001
1000
0010
0100
,
0001
0010
0210
0000
,
1300
0000
0000
0001
0000
0000
1000
0000
0000
0001
0000
0001
,
0000
0000
0100
0001
0000
0000
0010
0000
0000
0100
0000
0000
,
0010
0000
0000
0001
0000
0000
1000
0000
0000
0100
0000
1000
,
0010
1000
0100
0010
,
0001
0000
0000
1000
0000
0000
0010
0000
0000
0100
0000
0100
,
0000
0000
0001
0100
0000
0000
0010
0000
0000
1000
0000
0000
,
0010
0000
0000
0100
0000
0000
0001
1000
0001
1000
0000
1000
,
0010
0000
0000
0100
0001
0100
0001
0000
1001
0000
0000
0000
,
0120
1000
0100
1000
,
0001
1000
0001
2030
,
3200
0001
1000
0001
,
1000
0010
1000
0320
,
0032
1000
0010
1000
,
0010
1000
0100
2003
,
3100
1000
0010
0100
,
0001
1000
0001
1000
0100
0010
0001
0010
0100
1000
0010
0100
,
0002
1000
0010
0100
,
0010
0000
0000
1000
0000
0000
0010
0000
0013
0000
0000
2001
,
0000
0000
0100
0000
0000
0000
0100
0000
0000
3100
0000
1000
,
0001
0000
0000
0010
0000
0000
0001
0100
0001
0100
0010
1000
,
0010
0000
0010
0100
0000
0100
0001
0000
0001
0010
0000
0010
,
0100
0000
0100
1000
0000
1000
0001
0000
0001
1000
0000
1000
,
0010
1000
0010
0100
0000
0100
0001
0000
1001
0000
0000
0120
,
0000
0000
0000
1030
0100
0010
0001
0100
0010
1000
0001
0010
,
0001
2002
0000
0000
,
3003
0000
0000
0000
;

//---------------dance-double - ----------------
#NOTES:
     dance-double:
     EXPERT:
     Hard:
     15:
     0.717266,0.929884,0.446461,0.461099,0.812413,686.000000,625.000000,61.000000,63.000000,0.000000,0.000000,0.717266,0.929884,0.446461,0.461099,0.812413,686.000000,625.000000,61.000000,63.000000,0.000000,0.000000:
// measure 0
00000000
00000000
00000000
00000000
,  // measure 1
00000000
00000000
00000000
00000000
,  // measure 2
00000000
00000000
00000000
00000000
,  // measure 3
00000000
00000000
00000000
00000000
,  // measure 4
00000000
00000000
00000000
00000000
,  // measure 5
00000000
00000000
00000000
00000000
,  // measure 6
00000000
00000000
00000000
00000000
,  // measure 7
00000000
00000000
00000000
00000000
,  // measure 8
00010000
00000000
00000000
10000000
00000000
00000000
01000000
00000000
00000000
00000000
00000000
00100000
,  // measure 9
00000000
00000000
00001000
00010000
00000000
00000000
00000100
00000000
00000000
00010000
00000000
00000000
,  // measure 10
00000010
00000000
00000000
00000100
00000000
00000000
00000001
00000000
00000000
00001000
00000000
00000010
,  // measure 11
00000100
00000001
00000010
00000100
,  // measure 12
00010000
00000000
00000000
00001000
00000000
00100000
00000000
00000000
00000000
01000000
00000000
00000000
,  // measure 13
00100000
00001000
00100000
01000000
,  // measure 14
10000000
00000000
00000000
00010000
00000000
00000000
01000000
00000000
00010000
00100000
00000000
00000000
,  // measure 15
00010000
01000000
00010000
01000000
00100000
01000000
00001000
00100000
00010000
00100000
00001000
00010000
,  // measure 16
00002000
00010000
00100000
00013000
,  // measure 17
00021000
00000000
00000000
00000100
00000000
00000000
00031000
00000000
00011000
00000000
00000000
00020100
,  // measure 18
00000000
00000000
00030200
00000000
00000000
00000000
00000310
00000000
00000000
00000001
00000000
00001000
,  // measure 19
00000100
00000000
00000000
00000010
00000000
00000000
00000001
00000100
00000001
00000100
00000010
00001000
,  // measure 20
00000100
00000000
00000100
00010000
00000000
00010000
00001000
00000000
00001000
00100000
00000000
00100000
,  // measure 21
00010000
00000000
00010000
10000000
00000000
10000000
01000000
00000000
01000000
00100000
00000000
00000000
,  // measure 22
00010000
10000000
00010000
10000000
00000000
01000000
00100000
00000000
00101000
00000000
00000000
00012000
,  // measure 23
00000000
00000000
00000000
00013000
00000100
00000010
00000100
00000010
00000001
00001000
00000000
00000000
,  // measure 24
00001020
00000000
00000000
00000100
00000000
00000100
00000000
00000000
00000000
00000001
00000000
00000000
,  // measure 25
00002030
00000000
00000000
00000010
00000000
00000010
00000000
00000000
00000000
00010000
00000000
00000000
,  // measure 26
00003200
00010000
00002300
00000100
,  // measure 27
00003020
00000000
00000000
00001000
00000000
00000000
00010030
00000000
00010000
00000100
00000000
00000000
,  // measure 28
00012000
00100000
00010000
00100000
,  // measure 29
00023000
00000100
00001000
00030100
,  // measure 30
00010000
00000000
00001000
00100000
00000000
00000000
00010000
00000000
10000000
00100000
00000000
00100000
,  // measure 31
01000000
00000000
00000000
00010000
10000000
01000000
10000000
01000000
00100000
00001000
00010000
00001000
,  // measure 32
00000000
00000120
00000001
00001000
,  // measure 33
00000001
00001000
00000032
00001000
,  // measure 34
00000103
00000000
00000100
00000010
00000000
00000010
00010000
00000000
00010000
00001000
00000000
00002000
,  // measure 35
00000000
00000000
00103000
00001000
00000000
00001000
00010000
00000000
00010000
01000000
00000000
01000000
,  // measure 36
20000000
00000000
00000000
00100000
00000000
00000000
00000000
00000000
00010000
00000000
00000000
30020000
,  // measure 37
00000000
00000000
20030000
00100000
,  // measure 38
30020000
01000000
00230000
00301000
,  // measure 39
00011000
00010010
00000110
00000101
,  // measure 40
00001000
00000000
00000001
00000010
00000000
00000001
00000010
00000000
00000001
00001000
00000000
00000000
,  // measure 41
00000100
00000000
00010000
00000100
00000000
00001000
00000100
00000000
00001000
00000100
00000000
00000000
,  // measure 42
00010000
00000000
00000000
00001000
00000000
00000000
00100000
00000000
00000000
00010000
00000000
10010000
,  // measure 43
00000000
00000000
01000000
00100000
00000000
01000000
00010000
00000000
01000000
10000000
00000000
00000000
,  // measure 44
01100000
00000000
00000000
01001000
00000000
00000000
00011000
00000000
00000000
00010000
00000000
00010010
,  // measure 45
00000000
00000000
00000010
00000100
00000000
00000000
00000101
00000000
00000000
00001000
00000001
00000010
,  // measure 46
00000100
00000000
00000000
00001000
00000000
00000100
00000010
00000000
00000101
00000000
00000000
00001200
,  // measure 47
00000000
00000000
00000000
00010300
00000100
00010000
00001000
00010000
00001000
00100000
00000000
00000000
,  // measure 48
02000000
00000000
00000000
00010000
00000000
00010000
00000000
00000000
00000000
10000000
00000000
00000000
,  // measure 49
03200000
00000000
00000000
01000000
00000000
01000000
00000000
00000000
00000000
00001000
00000000
00000000
,  // measure 50
00310000
00000000
01000000
00010000
00000000
00000000
00100000
00000000
00001000
00010000
00000000
00000000
,  // measure 51
00001000
00000000
00000000
00010000
00000000
00000000
00000010
00000000
00000210
00000000
00000000
00000000
,  // measure 52
00000302
00000000
00000000
00001000
00000000
00000000
00000103
00000000
00001000
00000001
00000000
00000000
,  // measure 53
00000200
00000000
00000000
00000001
00000000
00000000
00000310
00000000
00000010
00001000
00000000
00001000
,  // measure 54
00000100
00000000
00000000
00010100
00000000
00000000
00010000
00000000
00011000
00000000
00000000
02001000
,  // measure 55
00000000
00000000
00000000
03100000
10000000
01000000
00100000
00000000
00010000
10000000
00000000
00000000
,  // measure 56
00200000
10000000
00010000
10000000
,  // measure 57
02300000
00001000
00100000
00001000
,  // measure 58
03010000
00000000
01000000
00010000
00000000
00010000
00100000
00000000
00100000
00001000
00000000
00001000
,  // measure 59
00000000
00000000
00010000
00001000
00000000
00001000
00000010
00000000
00000010
00000001
00000000
00000001
,  // measure 60
00002000
00000000
00000000
00000001
00000000
00000000
00000000
00000000
00000100
00000000
00000000
00003200
,  // measure 61
00000000
00000000
00020300
00000100
,  // measure 62
00032000
00100000
00023000
00031000
,  // measure 63
00101000
00110000
10010000
01100000
,  // measure 64
20100000
00010000
01000000
00010000
,  // measure 65
01000000
00000000
00000000
00010000
00000000
30020000
00000000
00000000
01030000
00001000
00000000
00001000
,  // measure 66
00020000
00000010
00000100
00000010
,  // measure 67
00000100
00000000
00000000
00000000
00000000
00000000
00031000
00000000
00000000
00000000
00002000
00000000
00000000
00000000
00000000
00000000
00013000
00000000
00001000
00000000
00000000
00000010
00000000
00000000
,  // measure 68
00000200
00000000
00000000
00001000
00000000
00001000
00000000
00000000
00000310
00000000
00000000
00001002
,  // measure 69
00000000
00000103
00000010
00010000
,  // measure 70
00020100
00000000
00000000
00001000
00000000
00031000
00000000
00000000
00011000
00000000
00000000
00102000
,  // measure 71
00000000
00000000
00000000
00013000
00100000
01000000
10000000
01000000
00100000
01000000
00000000
00000000
,  // measure 72
01010000
00010000
10010000
10000000
,  // measure 73
10100000
00000000
00000000
00100000
00000000
02100000
00000000
00000000
03010000
00100000
00000000
00100000
,  // measure 74
00001000
00011000
00010000
00010010
,  // measure 75
00000210
00000000
00000000
00000001
00000000
00000301
00000000
00001000
00000100
00000010
00000001
00000010
,  // measure 76
00000100
00000000
00000000
00001100
00000000
00001200
00000000
00000000
00000000
00010300
00001000
00010000
,  // measure 77
00100000
00000000
00000000
01100000
00000000
01200000
00000000
00000000
00000000
10300000
00000000
00000000
,  // measure 78
00010000
01010000
01000000
01001000
,  // measure 79
00001000
00010000
00001000
00010000
00001000
00010000
00001000
00010000
00001000
00010000
00001000
00010000
,  // measure 80
00001000
00000000
00001000
00100000
00000000
00100000
00010000
00000000
00010000
10000000
00000000
10000000
,  // measure 81
01000000
00000000
01000000
00100000
00000000
00100000
00001000
00000000
00001000
00010000
00000000
00010000
,  // measure 82
00000100
00000000
00000100
00001000
00000000
00001000
00000010
00000000
00000010
00000001
00000000
00000001
,  // measure 83
00000010
00000000
00000010
00001000
00000000
00001000
00000100
00000000
00000100
00000010
00000000
00000010
,  // measure 84
00001000
00000000
00001000
00010000
00000000
00010000
00001000
00000000
00001000
01000000
00000000
01000000
,  // measure 85
00100000
00000000
00100000
00010000
00000000
00010000
00100000
00000000
00100000
01000000
00000000
01000000
,  // measure 86
00020000
00000000
00000000
00100000
00000000
00000000
01000000
00000000
00000000
00130000
00000000
00001000
,  // measure 87
00200000
00000000
00001000
00000000
00010000
00000000
00301000
00010000
,  // measure 88
00000010
00000000
00000100
00000001
00000000
00000001
00000010
00000000
00000001
00000010
00000000
00000010
,  // measure 89
00000100
00000000
00000000
00000000
00001000
00000000
00000100
00000000
00000000
00000000
00001000
00000000
00000100
00000000
00000000
00000000
00000000
00000000
00010000
00000000
00000000
00001000
00000000
00000000
,  // measure 90
00100000
00000000
00010000
10000000
00000000
00010000
10000000
00000000
01000000
00100000
00000000
00100000
,  // measure 91
00010000
00000000
00100000
00010000
00000000
00100000
01000000
00000000
00100000
10000000
00000000
00100000
,  // measure 92
10000000
00000000
00000000
00100000
00000000
00000000
00001000
00000000
00001000
00000000
00000000
00010000
,  // measure 93
00000000
00000000
00000100
00002000
00000000
00000000
00000010
00000000
00000000
00000100
00000000
00000000
,  // measure 94
00003002
00000010
00000100
00001000
,  // measure 95
00000103
00000000
00000000
00000010
00000000
00000000
00010000
00000100
00001000
00000100
00000000
00000000
,  // measure 96
00011000
00000000
00000000
00001000
00000000
00000000
00101000
00000000
00000000
00100000
00000000
00010000
,  // measure 97
10000000
00000000
10000000
01000000
00000000
01000000
00100000
00000000
00000000
00010000
00000000
00000000
,  // measure 98
01000000
01010000
00010000
00110000
,  // measure 99
00100000
00011000
00010100
00010010
,  // measure 100
00000210
00000000
00000001
00000000
00001000
00000000
00000301
00000100
,  // measure 101
00000020
00010000
00000100
00001000
,  // measure 102
00000130
00000000
00000010
00001000
00000000
00000000
00000100
00000000
00010000
00001000
00000000
00000000
,  // measure 103
00011000
00000000
00000000
00101000
00000000
00000000
01000000
00000000
10020000
00000000
00000000
00000000
,  // measure 104
00230000
01000000
10000000
01000000
,  // measure 105
10000000
01000000
00010000
01000000
,  // measure 106
00320000
00100000
01000000
00100000
,  // measure 107
01000000
00100000
00001000
00100000
,  // measure 108
00032000
00000100
00003020
00000001
,  // measure 109
00000230
00001000
00000302
00000100
,  // measure 110
00001003
00000100
00000010
00000100
,  // measure 111
00001000
00000100
00001000
00000100
00010000
00000100
00010000
00001000
01000000
00010000
00100000
00010000
,  // measure 112
20000000
01000000
00100000
00010000
,  // measure 113
00100000
00000000
00000000
01000000
00000000
00000000
00010000
00000000
30010000
00000000
00000000
10020000
,  // measure 114
00000000
00000000
01000000
00000000
00000000
00000000
00100000
00000000
00000000
00130000
00000000
00100000
,  // measure 115
00001000
00000000
00000000
00010000
00000000
00000000
00000100
00010000
00001000
00010000
00001000
00000100
,  // measure 116
00000010
00000000
00000010
00001000
00000000
00001000
00000001
00000000
00000001
00000010
00000000
00000010
,  // measure 117
00000100
00000000
00000100
00010000
00000000
00010000
00001000
00000000
00001000
00100000
00000000
00000000
,  // measure 118
00010000
10000000
01000000
10000000
00000000
00100000
01000000
00000000
01010000
00000000
00000000
00110000
,  // measure 119
00000000
00000000
00000000
00100000
00001000
00010000
00001000
00010000
00000010
00000100
00000010
00001000
,  // measure 120
00000000
00002002
00000000
00000000
,  // measure 121
00003003
00000000
00000000
00000000
;
