#VERSION:0.83;
#TITLE:Acid Line;
#SUBTITLE:;
#ARTIST:Joujouka;
#TITLETRANSLIT:;
#SUBTITLETRANSLIT:;
#ARTISTTRANSLIT:;
#GENRE:BIG BEAT;
#ORIGIN:;
#TAGS:;
#CREDIT:YonabearCWY;
#BANNER:Acid Line.png;
#BACKGROUND:Acid Line-bg.png;
#PREVIEWVID:;
#JACKET:Acid Line-jacket.png;
#CDIMAGE:;
#DISCIMAGE:;
#LYRICSPATH:;
#CDTITLE:cdtitle.png;
#MUSIC:Acid Line.ogg;
#OFFSET:-1.680000;
#SAMPLESTART:77.110352;
#SAMPLELENGTH:15.000000;
#SELECTABLE:YES;
#DISPLAYBPM:140.000000;
#BPMS:0.000000=140.000000
;
#STOPS:;
#DELAYS:;
#WARPS:;
#TIMESIGNATURES:0.000000=4=4
;
#TICKCOUNTS:0.000000=4
;
#COMBOS:0.000000=1
;
#SPEEDS:0.000000=1.000000=0.000000=0
;
#SCROLLS:0.000000=1.000000
;
#LABELS:0.000000=Song Start
;
#BGCHANGES:8.000=numbers2.mp4=0.900=1=0=1===CrossFade==,
16.000=numbers3.mp4=0.900=0=0=1=====,
24.000=lightning1.mp4=1.200=0=0=1=====,
32.000=geometry1.mp4=1.200=0=0=1=====,
40.000=lightning1.mp4=1.200=0=0=1=====,
48.000=spark1.mp4=1.400=0=0=1=====,
56.000=letters1.mp4=1.400=0=0=1=====,
64.000=spark1.mp4=1.400=0=0=1=====,
72.000=geometry1.mp4=1.200=0=1=1=StretchRewind====,
76.000=vortex1.mp4=1.600=0=0=1=====,
80.000=ring4.mp4=1.000=0=0=1=====,
88.000=ring11.mp4=1.200=0=0=1=====,
96.000=ring4.mp4=1.000=0=0=1=====,
104.000=ring11.mp4=1.200=0=0=1=====,
112.000=timer1.mp4=1.000=0=0=1=====,
120.000=tunnel2.mp4=1.400=0=0=1=====,
128.000=spikes1.mp4=1.000=0=0=1=====,
144.000=spikes2.mp4=1.000=0=0=1=====,
158.000=letters1.mp4=2.000=0=1=1=StretchRewind====,
160.000=lightning1.mp4=1.200=0=1=1=StretchRewind====,
168.000=geometry1.mp4=1.400=0=1=1=StretchRewind====,
176.000=numbers3.mp4=0.900=0=1=1=StretchRewind====,
184.000=numbers2.mp4=0.900=0=1=1=StretchRewind====,
192.000=numbers3.mp4=0.900=0=0=1=====,
200.000=numbers2.mp4=0.900=0=0=1=====,
208.000=ring4.mp4=1.000=0=1=1=StretchRewind====,
216.000=ring11.mp4=1.200=0=1=1=StretchRewind====,
224.000=ring4.mp4=1.000=0=0=1=====,
232.000=ring11.mp4=1.200=0=0=1=====,
240.000=timer1.mp4=1.000=0=1=1=StretchRewind====,
248.000=vortex1.mp4=1.600=0=1=1=StretchRewind====,
256.000=spark1.mp4=1.400=0=1=1=StretchRewind====,
264.000=lightning1.mp4=1.200=0=1=1=StretchRewind====,
272.000=geometry1.mp4=1.400=0=1=1=StretchRewind====,
288.000=tunnel2.mp4=1.400=0=1=1=StretchRewind====,
304.000=Acid Line-bg.png=1.000=0=0=1=====,
99999.000=-nosongbg-=1.000=0=0=0=StretchNoLoop====,
99999=-nosongbg-=1.000=0=0=0 // don't automatically add -songbackground-
;
#KEYSOUNDS:;
#ATTACKS:
;

//---------------dance-single - ----------------
#NOTEDATA:;
#CHARTNAME:BEGINNER;
#CHARTHASH:738504856;
#STEPSTYPE:dance-single;
#BANNER:;
#DESCRIPTION:;
#CHARTSTYLE:;
#DIFFICULTY:Beginner;
#METER:6;
#METERF:6.000000;
#LASTSECONDHINT:135.394287;
#RADARVALUES:0.184786,0.278711,0.085757,0.014293,0.000000,181.000000,169.000000,12.000000,2.000000,0.000000,0.000000,0.000000,0.000000,0.000000,0.184786,0.278711,0.085757,0.014293,0.000000,181.000000,169.000000,12.000000,2.000000,0.000000,0.000000,0.000000,0.000000,0.000000;
#CREDIT:YonabearCWY;
#DISPLAYBPM:140.000000;
#NOTES:
0000
0000
0000
0000
,
0000
0000
0000
0000
,
0000
0000
0000
0000
,
0000
0000
0000
0000
,
0000
1000
0000
0000
0000
1000
0000
0000
,
0000
0001
0000
0000
0000
0001
0000
0000
,
0000
1000
0000
0000
0000
1000
0000
0000
,
0000
0010
0000
0000
0000
0010
0000
0000
,
0000
0100
0000
0000
0000
0100
0000
0000
,
0000
0001
0000
0000
0000
0001
0000
0000
,
0000
0010
0000
0000
0000
0010
0000
0000
,
0000
0100
0000
0000
0000
0100
0000
0000
,
1000
1000
1000
0000
,
0100
0100
0100
0000
,
1000
1000
1000
0000
,
0010
0010
0010
0000
,
0100
0100
0100
0000
,
0001
0001
0001
0000
,
0010
0010
0010
0000
,
0001
0001
1001
0000
,
0110
0000
0000
0000
,
0000
0000
0000
0100
0000
0000
0000
0000
,
0000
0000
0000
1001
0000
0000
0000
0000
,
0000
0000
0000
0000
,
0110
0000
0000
0000
,
0000
0000
0000
0010
0000
0000
0000
0000
,
0000
0000
0000
1001
0000
0000
0000
0000
,
0000
0000
0000
0000
,
1001
0000
0000
0000
,
0000
0000
0000
0100
0000
0000
0000
0000
,
0110
0000
0000
0000
,
0000
0000
1001
0000
,
0001
0010
0100
1000
,
0001
0000
0001
0000
,
1000
0100
0010
0001
,
1000
0000
1000
0000
,
1000
0100
1000
0010
,
1000
0001
0100
0001
,
0010
0001
1000
0010
,
1001
0000
0000
0000
,
0001
0000
0001
0000
,
0001
0100
1000
0100
,
0001
0000
0001
0000
,
0001
0010
1000
0010
,
0001
0000
0000
0001
0000
0000
0000
0000
,
0000
0000
1000
1000
,
1000
0000
0000
1000
0000
0000
0000
0000
,
0000
0000
0010
0010
,
0010
0000
0000
0010
0000
0000
0000
0000
,
0000
0000
0100
0100
,
0100
0000
0000
0100
0000
0000
0000
0000
,
0000
0000
0010
0010
,
0110
0000
0010
1000
,
0001
0000
0000
0001
0000
0000
0000
0000
,
0001
0100
0010
0000
,
0010
1000
0100
0000
,
1001
0000
1000
0010
,
0100
0000
0100
0010
,
1000
0000
1000
0100
,
0001
0000
0001
0100
,
1000
0000
1000
0000
,
1000
0010
1000
0000
,
0001
0000
0001
0000
,
0001
0100
0001
0000
,
1000
1000
0010
0010
,
0100
0100
0001
0001
,
0010
0010
0001
0001
,
0100
0100
0001
0001
,
1000
0000
1000
0000
,
0010
0000
0010
0000
,
0100
0000
0100
0000
,
0001
0000
0001
0000
,
0010
0000
0100
0000
,
1000
0000
0100
0000
,
0001
0000
0100
0000
,
1000
0000
0100
0000
,
2002
0000
0000
0000
,
0000
0000
0000
0000
,
3003
0000
0000
0000
;

//---------------dance-single - ----------------
#NOTEDATA:;
#CHARTNAME:BASIC;
#CHARTHASH:2147483647;
#STEPSTYPE:dance-single;
#BANNER:;
#DESCRIPTION:;
#CHARTSTYLE:;
#DIFFICULTY:Easy;
#METER:9;
#METERF:0.000000;
#LASTSECONDHINT:135.394287;
#RADARVALUES:0.353238,0.390195,0.343029,0.085757,0.000000,346.000000,298.000000,48.000000,12.000000,0.000000,0.000000,0.000000,0.000000,0.000000,0.353238,0.390195,0.343029,0.085757,0.000000,346.000000,298.000000,48.000000,12.000000,0.000000,0.000000,0.000000,0.000000,0.000000;
#CREDIT:YonabearCWY;
#DISPLAYBPM:140.000000;
#NOTES:
0000
0000
0000
0000
,
0000
0000
0000
0000
,
0000
0000
0000
0000
,
0000
0000
0000
0000
,
0000
1000
0000
1000
0010
1000
0000
0001
,
0000
0100
0000
0001
0010
0001
0000
0100
,
0000
0001
0000
1000
0001
1000
0000
0001
,
0000
0100
0000
0010
1000
0010
0000
0100
,
0000
0001
0000
1000
0010
0100
0000
0010
,
0000
1000
0000
0001
0100
0010
0000
1000
,
0000
0100
0000
1000
0100
0010
0000
0100
,
0000
1000
0000
0100
0010
0001
0000
0000
,
1001
0001
0101
0100
,
0110
0010
1010
1000
,
1001
0100
1001
0010
,
1001
0100
0101
1000
,
1010
0010
0110
0100
,
0101
0001
1001
1000
,
1001
0001
0101
0100
,
0110
0000
0010
0010
0000
0100
0100
0000
,
2002
0003
0100
0000
,
3100
0000
1000
0010
,
0101
0000
0000
2002
0000
0000
0000
0000
,
3000
0000
0000
0010
0013
0000
0001
0000
,
0202
0300
1000
0000
,
1003
0000
1000
0010
,
0110
0000
0000
2002
0000
0000
0000
0000
,
0003
0000
0000
0100
3100
0000
1000
0000
,
1010
0010
0100
0000
,
0101
0001
0010
0000
,
1001
1000
0100
0000
,
1001
0001
0010
0100
,
1100
0000
0000
1000
0000
0000
0010
0000
,
0101
0000
0000
0010
0000
0000
0001
0000
,
1000
0010
1000
0000
0001
0000
0100
0000
,
0010
1000
0010
0000
0100
0000
0001
0000
,
1000
0000
1000
0000
0001
0100
0001
0000
,
0010
0000
0010
0000
0001
1000
0001
0000
,
1000
0000
1000
0000
0100
1000
0100
0000
,
1000
0010
0100
0000
2002
0000
0003
0000
,
3100
0000
1000
0000
0100
0000
1000
0010
,
0100
0000
0001
0000
0100
0000
0001
1000
,
0010
0000
0100
0000
0001
0000
0100
0001
,
1000
0000
0001
0000
0100
0000
0010
1000
,
0001
0000
0000
0001
0000
0000
0100
0000
,
0001
0000
0100
0000
0010
1000
0010
0000
,
1000
0000
0000
1000
0000
0000
0100
0000
,
1000
0000
0010
0000
1000
0100
0010
0001
,
1000
0000
0000
1000
0000
0000
0001
0000
,
0100
0000
0010
0000
1000
0001
1000
0000
,
0001
0000
0000
0001
0000
0000
0100
0000
,
0001
0010
0001
0000
0001
0010
0100
1000
,
0001
0000
0001
0000
0001
0100
0010
0000
,
0010
0000
0010
1000
0100
0000
1000
0000
,
1001
0000
1000
1000
0000
0001
0001
0000
,
0100
0000
0100
0000
0010
1000
1010
0000
,
0100
0000
0100
0000
1000
0001
0100
0000
,
0010
0000
0010
0000
1000
0100
0010
0000
,
0001
0000
0101
0000
0001
1000
0100
1000
,
0100
1000
0010
0100
,
0001
0000
0000
0100
0000
0000
0010
0000
,
1000
0000
0000
0100
0000
0000
1000
0000
,
0010
0000
0000
0100
0000
0000
0001
0000
,
1000
0000
0000
0010
0000
0100
0001
0100
,
0010
0000
0000
0100
0000
0000
0001
0010
,
0100
0000
0000
1000
0000
0000
1000
0100
,
0010
0000
0000
0001
0000
0000
0001
1000
,
0010
0000
0000
1000
0000
0000
0010
1000
,
0001
0101
0001
1001
,
1000
1010
0010
0110
,
0100
0101
0001
1001
,
1000
1001
0001
0101
,
0110
1000
0110
0001
,
0110
1000
0110
0001
,
1001
0100
1001
0010
,
1001
0100
1001
0010
,
2002
0000
0000
0000
,
0000
0000
0000
0000
,
3003
0000
0000
0000
;

//---------------dance-single - ----------------
#NOTEDATA:;
#CHARTNAME:DIFFICULT;
#CHARTHASH:2147483647;
#STEPSTYPE:dance-single;
#BANNER:;
#DESCRIPTION:;
#CHARTSTYLE:;
#DIFFICULTY:Medium;
#METER:12;
#METERF:0.000000;
#LASTSECONDHINT:135.394287;
#RADARVALUES:0.502292,0.557422,0.171514,0.207246,0.303723,492.000000,468.000000,24.000000,29.000000,0.000000,0.000000,0.000000,0.000000,0.000000,0.502292,0.557422,0.171514,0.207246,0.303723,492.000000,468.000000,24.000000,29.000000,0.000000,0.000000,0.000000,0.000000,0.000000;
#CREDIT:YonabearCWY;
#DISPLAYBPM:140.000000;
#NOTES:
0000
0000
0000
0000
,
0000
0000
0000
0000
,
0000
0000
0000
0000
,
0000
0000
0000
0000
,
1000
0100
0001
0100
0010
0001
0010
0000
,
0001
0100
1000
0100
0010
0100
0001
0000
,
0001
1000
0010
1000
0100
0010
0001
0000
,
0001
0000
0100
0000
0010
0000
1000
0000
0100
0000
1000
0000
0010
1000
0010
1000
,
0001
0000
0100
0000
1000
0000
0100
0000
0001
0000
0010
0000
0001
0000
0000
0001
,
1000
0000
0100
0000
0010
0000
0001
0000
0010
0000
1000
0000
0010
0000
0000
0010
,
0100
0000
1000
0000
0100
0000
0010
0000
0100
0000
1000
0000
0001
0000
0000
0001
,
0100
0001
1000
0010
0100
0010
1001
0000
,
0001
0100
0000
0000
0010
0000
0000
0000
1000
0010
0000
0000
0100
0000
0000
0000
,
0001
1000
0000
0000
0100
0000
0000
0000
1000
0001
0000
0000
0010
0000
0000
0000
,
1000
0100
0000
0000
0001
0000
0000
0000
0001
0100
0000
0000
1000
0000
0000
0000
,
1000
0010
0000
0000
0100
0000
0000
0000
0001
0100
0000
0000
0010
0000
0000
0000
,
1000
0100
0000
0000
1000
0000
0010
0000
1000
0001
0000
0000
0100
0000
0000
0000
,
0001
0010
0000
0000
0001
0000
1000
0000
0010
1000
0000
0000
0001
0000
0000
0000
,
1000
0100
0000
0000
1000
0000
0010
0000
0100
0001
0000
0000
0001
0000
0000
0000
,
0010
0001
0010
0001
1000
1000
0010
0100
,
0202
0000
0300
0000
1000
1000
0000
0000
,
1000
1003
0000
2010
0000
0000
3100
1000
,
1001
0000
0200
0002
0000
0000
0000
0000
,
0000
0000
0300
0000
0000
0000
1000
0000
1003
0000
0000
0000
0001
0000
1000
0001
,
2000
0000
0000
0000
0010
0010
0000
0000
,
0010
3010
0000
0102
0000
0000
0013
0001
,
1001
0000
0020
2000
0000
0000
0000
0000
,
0030
0000
0000
0000
0000
0000
0001
0000
3001
0000
0000
0000
0001
0000
0100
0010
,
0200
0000
0000
0000
0010
0010
0000
0000
,
0010
0310
0000
1002
0000
1003
0100
0000
,
1000
0010
1000
0000
0001
0100
0001
0000
,
0010
0001
1000
0100
0100
1000
0010
1000
,
1001
0000
0001
0000
0100
0000
0000
0001
0000
0100
0001
0000
1000
0000
0000
0000
,
1010
0000
1000
0000
0100
0000
0000
1000
0000
0000
0100
0000
0010
0000
0010
0000
,
0011
0000
0001
0000
0100
0000
0000
0001
0000
1000
0001
0000
0001
0100
0000
0001
,
0000
1000
0000
0010
0000
1000
0000
0100
0000
1000
0000
0001
0000
0000
1000
0000
,
0100
0000
1000
0000
0100
1000
0100
0010
,
0100
0000
1000
0000
0010
0100
0010
0001
,
0010
0000
0000
0000
0100
0000
0000
0001
1000
0000
0100
0000
0001
0000
0100
0000
,
1000
0000
0010
0000
1000
0100
1000
0000
0202
0000
0000
0000
0300
0000
0000
0000
,
1003
0000
0000
0000
1000
0000
0000
1000
0010
0000
0100
0000
0001
0000
0000
0000
,
0100
0000
0000
0000
0100
0000
0000
0001
1000
0001
1000
0000
0001
0000
0000
0000
,
0100
0000
0000
0000
0100
0000
0000
0100
0001
0000
1000
0000
0010
0000
1000
0100
,
1000
0000
0000
0000
1000
0000
0000
1000
0001
1000
0001
0000
0010
0000
0000
0000
,
0102
0000
0000
1000
0000
0000
0013
0001
,
1000
0000
0000
0000
0010
0000
0000
0010
1000
0000
0010
0000
0110
0000
0000
0000
,
0201
0000
0000
1000
0000
0000
0310
0100
,
0001
0000
0000
0001
1000
0000
0000
1000
0001
0000
0100
0000
0010
0000
1000
0000
,
1200
0000
0000
0010
0000
0000
1300
0001
,
0100
0000
0000
0000
0010
0000
0000
0010
1000
0000
0001
0000
0101
0000
0000
0000
,
1020
0000
0000
0001
0000
0000
0130
0010
,
1000
0000
0000
1000
0001
0000
0000
0001
0100
0000
1000
0000
0100
0000
0001
0000
,
2000
0000
0000
0000
0010
0000
0000
0000
3010
1000
0010
1000
0000
0001
0100
0000
,
0001
0000
0000
0000
0010
0000
0001
0000
0000
0000
0001
0000
0100
0001
0100
0000
,
0001
0000
0000
0001
1000
0000
0001
0000
0100
0000
0000
0000
0001
0000
0010
0000
,
0001
0000
0000
0000
1000
0000
0010
1000
0010
0000
1000
0000
0001
0000
1000
0010
,
0200
0000
0000
0000
0010
0000
0000
0000
0310
0100
0010
0100
0000
0010
1000
0000
,
0010
0000
0000
0000
1000
0000
0100
0000
0000
0000
1000
0000
0001
0100
0001
0000
,
0010
0001
0100
0000
0001
1000
0100
0000
,
1000
0000
0010
0000
0100
0000
0001
0010
0001
0000
1000
0000
0100
0000
0010
0000
,
0002
0100
1000
0100
,
0013
0000
0001
0000
0100
0000
0010
1000
0000
0000
0010
0000
1000
0100
1000
0000
,
0020
0001
1000
0001
,
0130
0000
0000
0000
0010
0000
1000
0010
1000
0000
0001
0100
0001
0100
0001
0100
,
0010
0100
0010
1000
0100
0001
0100
0000
,
1000
0010
0100
0001
0100
0010
1000
0000
,
0001
0100
0010
1000
0010
0001
0010
0000
,
0100
0010
0100
1000
0100
0001
0010
0000
,
0101
0000
0000
0001
0000
0000
1000
0000
0010
0000
1000
0100
0000
0000
1000
0000
,
1010
0000
0000
0100
0000
0000
0001
0000
1000
0000
0001
0100
0000
0001
0100
0000
,
0001
0000
0000
1001
0000
0000
1000
0000
0010
0000
0010
0100
0000
0000
0100
0000
,
0101
0000
0000
0001
0000
0000
1000
0000
0010
0000
1000
0100
0000
1000
0100
0000
,
2000
0000
0000
0010
0000
0000
3010
0000
0200
0000
0000
0001
0000
0000
0301
0000
,
2000
0000
0000
0010
0000
0000
3010
0000
2000
0000
0000
0001
0000
0000
3001
0000
,
0200
0000
0000
0001
0000
0000
0301
0000
0020
0000
0000
0001
0000
0000
0031
0000
,
1001
0000
0000
1000
0000
0000
0010
0000
0110
0000
0000
0001
0000
0000
0100
0000
,
2002
0000
0000
0000
,
0000
0000
0000
0000
,
3003
0000
0000
0000
;

//---------------dance-single - ----------------
#NOTEDATA:;
#CHARTNAME:EXPERT;
#CHARTHASH:2147483647;
#STEPSTYPE:dance-single;
#BANNER:;
#DESCRIPTION:;
#CHARTSTYLE:;
#DIFFICULTY:Hard;
#METER:16;
#METERF:16.000000;
#LASTSECONDHINT:135.394287;
#RADARVALUES:0.746292,0.780390,0.121489,0.250125,0.868291,731.000000,714.000000,17.000000,35.000000,0.000000,0.000000,0.000000,0.000000,0.000000,0.746292,0.780390,0.121489,0.250125,0.868291,731.000000,714.000000,17.000000,35.000000,0.000000,0.000000,0.000000,0.000000,0.000000;
#CREDIT:YonabearCWY;
#DISPLAYBPM:140.000000;
#NOTES:
0000
0000
0000
0000
,
0000
0000
0000
0000
,
0000
0000
0000
0000
,
0000
0000
0000
0000
,
1000
0010
0100
0001
0010
1000
0010
0001
,
1000
0000
0100
0000
0001
0000
0100
0000
0010
0000
0001
0000
0010
0000
0100
1000
,
0001
0010
1000
0001
0100
1000
0100
0001
,
1000
0000
0010
0000
0100
0000
1000
0000
0001
0000
0010
0000
0100
1000
0100
0010
,
0002
0000
0000
1003
0100
0000
0010
0000
0100
1000
0100
0000
1000
0000
0001
0000
,
0020
0001
0000
0031
0100
0000
0010
0000
1000
0001
1000
0000
0001
0000
0010
0100
,
2000
0000
0000
3001
0100
0000
0010
0000
1000
0100
0010
0100
1000
0000
0001
0000
,
0200
0010
0000
0310
1000
0000
0001
0000
0100
0000
0001
1000
0100
1000
0100
0000
,
0010
0001
0000
0000
0001
0100
0000
0000
0100
0010
0000
0000
0010
1000
0000
0000
,
1000
0100
0000
0000
0100
0001
0000
0000
0001
0100
0000
0000
0100
1000
0000
0000
,
1000
0010
0000
0000
0010
0100
0000
0000
0100
0001
0000
0000
0001
1000
0000
0000
,
1000
0010
0000
0000
0010
0001
0000
0000
0001
0010
0000
0000
0010
1000
0000
0000
,
1000
0010
0001
0010
1000
0000
0010
0000
0100
0001
0000
0010
0100
0010
0000
0001
,
0100
1000
0100
0001
0100
0000
0010
0000
1000
0001
0000
0001
0200
0000
0000
0000
,
0301
0100
1000
0100
0001
0000
0010
0000
0100
0000
1000
0100
0010
0200
0000
0000
,
1300
0001
0010
0001
0100
0000
1001
0000
0001
0010
0100
0010
0100
0000
1000
0100
,
2002
0000
0003
0000
0010
0010
0000
0000
,
0010
0000
0010
0000
0000
0000
3010
2000
0000
0000
3001
0000
1000
0100
0010
0000
,
0001
0000
1000
0000
0100
0000
1000
0010
2000
0000
0001
0000
0000
0000
0001
0000
,
3010
0000
0100
0000
1000
0000
0100
0001
1000
0000
0000
1000
0100
0010
0001
0010
,
2200
0000
0300
0000
0001
0001
0000
0000
,
0001
0000
0001
0000
0000
0000
3010
0200
0000
0000
0301
0000
1000
0100
0010
0001
,
0010
0000
0100
0000
0010
0000
0001
1000
0002
0000
0100
0000
0000
0000
0010
0000
,
1003
0000
0001
0000
0010
0000
0100
1000
0001
1000
0000
1000
0100
0000
0010
0001
,
2002
0000
3000
0000
0100
0100
0000
0000
,
1000
0000
1000
0000
1003
0000
0001
0100
0010
0000
1000
0000
0100
0010
0001
0000
,
0010
0000
0100
0000
1000
0000
0100
0001
0100
1000
0100
0000
1000
0000
0001
1000
,
0010
1000
0001
0000
0100
0001
0010
0100
1000
0000
0100
0000
0010
0001
1000
0001
,
0101
0000
0001
0000
0010
0000
0000
0100
0000
1000
0001
0000
0010
0100
0010
0001
,
0010
0000
1100
0000
0000
1000
0001
0010
0000
0100
1000
0000
0100
0010
0001
1000
,
0001
0000
0100
0000
0110
0000
0000
1000
0000
0001
0100
0001
2000
0010
0000
0010
,
0000
0010
0000
0010
0000
0010
0000
0010
0000
0010
0000
0010
0000
3010
0000
1000
,
0001
0000
0010
0000
0100
0000
1000
0100
0000
0000
0010
0000
0001
0000
1000
0000
,
0001
0000
0010
0000
0100
0000
0010
0001
0010
0001
1000
0001
0000
0010
0100
0000
,
1000
0000
0100
0000
0001
0000
0100
1000
0001
1000
0000
0000
0001
0000
0010
0100
,
1000
0000
0100
0000
0010
0000
0001
0000
1000
0001
0100
0001
0100
0010
1000
0100
,
1000
0000
0000
0001
0100
0000
0000
0010
1000
0000
0000
0100
0001
0000
0100
0000
,
1000
0000
0000
0001
0100
0000
0000
0010
1000
0010
0000
1000
0100
0000
0010
0000
,
0001
0000
0000
1000
0010
0000
0000
0100
0001
0000
0000
0010
0100
0000
1000
0000
,
0001
0000
0000
0100
0010
0000
0000
1000
0001
1000
0000
0001
0010
0100
1000
0000
,
0001
0010
0001
0010
0001
0000
1000
0001
1000
0001
1000
0000
0001
0010
0001
0000
,
1000
0100
0010
0001
0010
0000
0100
1000
0100
0001
0100
0000
1002
0000
0000
0000
,
1003
0100
1000
0100
1000
0000
0001
1000
0001
1000
0001
0000
0100
0010
0100
0010
,
0001
0000
0010
0100
1000
0100
0010
0000
0102
0000
0023
0000
0130
0000
2100
0000
,
3001
1000
0100
1000
0100
0000
0010
0001
0010
0001
1000
0000
0001
0100
0001
0100
,
1000
0000
0100
0001
0100
0010
0100
0010
1000
0000
0100
0000
0012
0000
0000
0000
,
1003
0001
0010
0001
0010
0000
0100
1000
0100
1000
0001
0000
0100
0010
0100
0010
,
1000
0000
0001
0100
0010
0100
0010
1000
0200
0000
1300
0000
1002
0000
0023
0000
,
0230
0000
0000
1300
0001
0000
0010
0000
0100
0000
1000
0002
0000
0000
0013
0100
,
2000
0000
0000
0000
3001
0000
0010
0000
0100
0000
1000
0100
0001
0100
1000
0000
,
0001
0010
0001
0010
0000
0000
0100
0000
1000
0100
1000
0100
0000
0000
0010
0000
,
0001
1000
0001
0010
0000
0000
0100
0000
1000
0000
0100
0010
0001
0010
0100
0000
,
2000
0000
0000
3010
0100
0000
0001
0000
1000
0000
0100
0020
0000
0000
0031
0010
,
1000
0000
0010
0000
0001
0000
1000
0000
0100
0000
0010
0001
0010
0001
1000
0000
,
0001
0100
0001
0100
0000
0000
0010
0000
1000
0100
1000
0001
0000
0000
0010
0000
,
0100
1000
0100
0001
0000
0000
0100
0000
1000
0000
0001
1000
0100
1000
0100
0010
,
0001
0000
0000
1000
0100
0000
0000
0010
0001
0000
0000
0010
0100
0000
1000
0000
,
0001
0100
0000
0010
1000
0000
0100
0000
0010
0000
0000
0001
1000
0000
0000
0100
,
0010
0000
0000
0001
0100
0000
0000
0010
1000
0010
0000
0100
0001
0000
1000
0000
,
0100
0000
1000
0001
0000
0000
0010
0001
0010
0000
0100
1000
0100
0010
0001
0010
,
0100
0000
1000
0000
0001
0000
1000
0001
0010
0000
0100
0000
1000
0000
0100
0000
,
0001
0000
0100
1000
0010
0000
0100
0001
0010
0000
0001
1000
0100
0001
0100
0000
,
1000
0000
0001
0000
0010
0000
0100
1000
0001
0000
0100
0001
0010
0100
0010
0000
,
0100
0000
1000
0001
0010
0001
0100
0000
0010
1000
0100
1000
0100
0010
0001
1000
,
1002
0000
0000
1003
0100
0000
1000
0000
2001
0000
0000
3001
0100
0000
0001
1000
,
0020
0000
0000
0130
0010
0000
0100
0000
0001
0000
0010
0100
1000
0100
0001
0000
,
0100
1000
0100
0010
0100
0000
1001
0000
0001
0010
0100
0010
0000
0000
0001
0000
,
1000
0100
0001
0100
1000
0000
0110
0000
0001
1000
0100
1000
0000
0000
0001
0000
,
0100
0000
0010
1000
0010
0000
0100
0000
0001
0000
0010
0100
1000
0000
0100
0000
,
0010
0000
0100
1000
0001
0000
1000
0000
0100
0000
0010
0001
1000
0001
0010
0000
,
0100
0000
0001
0100
1000
0000
0100
0000
0010
0000
0100
1000
0001
0100
0001
0000
,
1000
0000
0001
0010
1000
0000
0010
0000
0001
1000
0100
1000
0100
0010
0001
0000
,
2002
0000
0000
0000
,
0000
0000
0000
0000
,
3003
0000
0000
0000
;

//---------------dance-single - ----------------
#NOTEDATA:;
#CHARTNAME:CHALLENGE;
#CHARTHASH:2147483647;
#STEPSTYPE:dance-single;
#BANNER:;
#DESCRIPTION:;
#CHARTSTYLE:;
#DIFFICULTY:Challenge;
#METER:17;
#METERF:0.000000;
#LASTSECONDHINT:135.394287;
#RADARVALUES:0.808568,0.836132,0.178661,0.214393,1.036232,792.000000,767.000000,25.000000,30.000000,155.000000,0.000000,0.000000,0.000000,0.000000,0.808568,0.836132,0.178661,0.214393,1.036232,792.000000,767.000000,25.000000,30.000000,155.000000,0.000000,0.000000,0.000000,0.000000;
#CREDIT:YonabearCWY;
#DISPLAYBPM:140.000000;
#NOTES:
0000
0000
0000
0000
,
0000
0000
0000
0000
,
0000
0000
0000
0000
,
0000
0000
0000
0000
,
1000
0001
MMMM
0010
0100
1000
MMMM
0100
,
0010
0000
0001
0000
MMMM
0000
1000
0000
0100
0000
0001
0000
0100
0000
0010
0001
,
1000
0000
0000
MMM1
0010
0000
0100
0000
1000
0000
0001
0000
0010
0000
MMMM
0000
,
0100
0001
0000
0100
1000
0000
0100
0000
0001
0000
1000
0000
0010
0000
0100
1000
,
0100
0010
MMMM
0001
0100
1000
MMMM
0100
,
0010
0000
1000
0000
MMMM
0000
0001
0000
0010
0000
1000
0000
0010
0000
0100
0001
,
0100
0000
0000
1MMM
0001
0000
0010
0000
0100
0000
0010
0000
1000
0000
0001
0000
,
0100
0000
1000
0000
0100
0000
0000
1MMM
0001
1000
0001
0000
0010
0000
0100
0000
,
1000
0010
0000
0010
0100
0000
0001
0000
1000
0100
1000
0100
0001
0100
0001
0000
,
0100
1000
0000
1000
0001
0000
0010
0000
0001
0100
0001
0100
1000
0100
1000
0000
,
0100
0010
0000
0010
0001
0000
0010
0000
1000
0001
1000
0001
0010
0001
0010
0000
,
0100
1000
0000
1000
0001
0000
0100
0000
0010
1000
0010
1000
0100
0010
0100
0000
,
1000
0001
0010
0100
0010
0001
1000
0000
0001
0100
0000
0100
0010
0000
MMMM
0000
,
1000
0100
0001
0100
1000
0010
0100
0000
0001
0010
0000
0010
0100
0000
1001
0000
,
0100
0010
0001
0010
0100
0010
1000
0000
0001
0100
0000
0100
0010
0000
MMMM
0000
,
1000
0001
1000
0010
0110
0000
0101
0000
0001
1000
0100
1000
0001
0000
0010
0001
,
2001
0010
0000
0100
0100
0100
0000
0010
,
0010
0000
0010
0000
0000
0000
3001
0200
0000
0000
0310
0000
1000
0100
0010
0000
,
0012
0000
0000
0000
1003
0000
0001
0100
0001
0100
0001
0100
0001
0100
0001
0100
,
0002
0000
0000
0000
0000
0000
0000
0000
0000
1003
0000
0000
0100
0000
0000
0000
0000
0000
0010
0000
0001
0000
0010
0000
0001
0000
0000
0000
0000
0000
0000
0000
0000
0001
0000
0000
1000
0000
0000
0000
0000
0000
0010
0000
0100
0000
0010
0000
,
0200
0001
0000
1000
1000
1000
0000
0010
,
0010
0000
0010
0000
0000
0000
0301
2000
0000
0000
3100
0000
0010
0001
1000
0001
,
0200
0000
0000
0000
0301
0000
1000
0010
1000
0010
1000
0010
1000
0010
1000
0010
,
2000
0000
0000
0000
0000
0000
0000
0000
0000
3001
0000
0000
0010
0000
0000
0000
0000
0000
0001
0000
1000
0000
0100
0000
1000
0000
0000
0000
0000
0000
0000
0000
0000
0100
0000
0000
0010
0000
0000
0000
0000
0000
0001
0000
0010
0000
0100
0000
,
2000
0010
0000
0100
0100
0100
0000
0001
,
0001
0000
0001
0000
0000
0000
3010
0100
1000
0000
0100
0000
0010
0001
1000
0000
,
1010
0000
0001
0000
0010
0000
1000
0000
0001
0100
1000
0000
1100
0000
0001
0000
,
0101
0000
0000
0000
0000
0000
0010
0000
0000
0000
0000
0000
1000
0000
0000
0000
0000
0000
0001
0000
0100
0000
0001
0000
0010
0000
0000
0000
0000
0000
0100
0000
0000
1000
0000
0000
0100
0000
0000
0010
0000
0000
0001
0000
0000
1000
0000
0000
,
1001
0000
0001
0000
0010
0000
0000
M1MM
0000
1000
0100
0000
0010
0001
0010
1000
,
0010
0000
1001
0000
MMMM
1000
0100
1000
0000
0001
0010
0000
0100
1000
0100
0001
,
0100
0000
1001
0000
0010
0000
0100
0001
0000
0001
0010
0000
0100
2000
0000
0001
,
0000
0001
0000
0001
0000
0001
0000
0001
0000
0001
0000
3001
0000
MMMM
0000
0001
,
1000
0000
0010
0000
0001
0000
0010
1000
0010
0100
0010
0000
0100
0001
0000
0001
,
0010
0000
0100
0000
1000
0000
0001
1000
0100
1000
0000
0100
0010
0001
1000
0000
,
0001
0000
0100
0000
0001
0000
0010
0100
0000
0100
1000
0000
0100
0010
0001
0010
,
1000
0000
0101
0000
0010
0100
0010
0000
1000
0100
0001
0100
1000
0001
1000
0010
,
0001
0000
0000
MM1M
1000
0000
0100
0010
0001
0010
0100
0000
1000
0000
0001
0000
,
1000
0000
1000
0000
1000
0000
1000
0001
0000
0001
0010
0000
0100
1000
0100
0010
,
0001
0000
0000
1MMM
0100
0000
0010
0001
0000
0010
0100
1000
0100
0000
0000
1MMM
,
0001
0000
0001
0000
0001
0000
0001
0010
0000
0010
0100
0000
1000
0100
0001
0100
,
1000
0010
1000
0010
MMMM
0000
0001
0010
0001
0010
MMMM
0000
1000
0010
1000
0000
,
0001
0100
1000
0100
0000
0010
0001
0010
0100
0000
0001
0000
2001
0000
0000
0000
,
3001
0010
0001
0010
MMMM
0000
1000
0010
1000
0010
MMMM
0000
0001
0010
0001
0000
,
1000
0100
0010
0100
0000
0001
0100
1000
1200
0000
1300
0000
1002
0000
0023
0000
,
0130
1000
0100
1000
MMMM
0000
0100
0001
0100
0001
MMMM
0000
0100
1000
0001
0000
,
0010
0100
0010
0001
0000
1000
0010
0001
0010
0000
0100
0000
1002
0000
0000
0000
,
0013
0001
0010
0001
MMMM
0000
0010
1000
0010
1000
MMMM
0000
0010
0001
1000
0000
,
0100
0010
0001
0010
0000
0100
1000
0100
0201
0000
2300
0000
3001
0000
0021
0000
,
0130
0000
0MMM
1000
0100
0000
0010
0000
0001
0010
0001
0010
0000
0100
1000
0000
,
0012
0000
0000
0000
1000
0000
0103
0000
0001
0000
0100
1000
0100
0001
0100
0000
,
1001
0000
MMM0
0001
0010
0100
0010
0100
1000
0000
0100
0001
0100
1000
0100
0010
,
0100
0000
0000
0000
0000
0000
0MMM
0000
0000
1000
0000
0000
0001
0000
0000
0010
0000
0000
0001
0000
0000
0010
0000
0000
0100
0000
0000
0000
0000
0000
1000
0000
0000
0000
0000
0000
0001
0000
0000
0000
0000
0000
1000
0000
0100
0000
0010
0000
,
0100
0000
0000
1MMM
0001
0000
0100
0000
0010
1000
0001
0100
0020
0000
1000
0000
,
0230
0000
0001
0000
0310
0000
1000
0000
0001
0000
0010
0000
1000
0010
0001
0000
,
0011
0000
0MMM
1000
0100
0010
0100
0001
0100
0000
1000
0001
0010
1000
0010
0001
,
0100
0000
MMM0
0001
1000
0100
0010
0001
0100
0000
0001
0010
0100
0010
0001
1000
,
1100
0000
MMM0
0001
0100
0001
1000
0000
0001
0001
0010
1000
0010
0100
1000
0000
,
0101
0000
0MMM
1000
0001
0100
0001
0000
1000
1000
0001
0010
0100
0010
1000
0000
,
0011
0000
0000
0000
0000
0000
0MMM
0000
0000
1000
0000
0000
0001
0000
0000
0010
0000
0000
0001
0000
0000
0010
0000
0000
0100
0000
0000
0000
0000
0000
1000
0000
0001
0000
1000
0000
0001
0000
0000
0010
0000
0000
0100
0000
0000
1000
0000
0000
,
0100
0000
0000
0000
0000
0000
0MMM
0000
0000
1000
0000
0000
0001
0000
0000
0010
0000
0000
0100
0000
0000
0010
0000
0000
0100
0000
0000
0000
0000
0000
0010
0000
0001
0000
0010
0000
0001
0000
0000
0010
0000
0000
1000
0000
0000
0010
0000
0000
,
0001
0000
1000
0000
0100
0000
1000
0001
0010
0000
0100
1000
0100
0001
0100
0000
,
0010
0000
0001
0000
1000
0000
0010
0100
0000
1000
0100
0001
0100
0010
0100
0010
,
1000
0000
0001
0000
0010
0000
1000
0010
0001
0000
0010
0100
1000
0100
0001
0000
,
0100
0000
1000
0000
0001
0000
0100
0001
0010
0001
0010
0100
1000
0100
1000
0100
,
0020
0000
MM0M
0031
1000
0100
1000
0000
0001
0100
0000
1000
0100
0001
0100
0000
,
0020
0000
MM0M
1030
0010
0100
0010
0000
0100
0001
0000
1000
0100
0001
0100
0000
,
1000
0010
1000
0002
MMM0
0000
0103
0000
0001
1000
0100
1000
0000
0001
0010
0000
,
0100
1000
0100
0002
MMM0
0000
0103
0000
1000
0001
0010
0100
0000
1000
0100
0000
,
1000
0001
0010
0001
0100
0000
MMMM
0000
1000
0100
0010
0100
0001
0100
1000
0000
,
0001
0010
0100
0010
1000
0000
MMMM
0000
1000
0001
0010
0100
0010
0001
1000
0000
,
0001
0010
1000
0010
0001
0000
MMMM
0000
1000
0001
1000
0100
0010
0001
0100
0000
,
0001
0100
1000
0100
0001
0000
MMMM
0000
1000
0100
0010
0001
0010
0100
0010
0000
,
2002
0000
0000
0000
0000
0000
0000
0000
0000
3000
0000
0000
0000
0000
2000
0000
0000
0000
0000
0000
0000
3000
0000
0000
,
0000
0000
0020
0000
0000
0000
0000
0000
0000
0030
0000
0000
0000
0000
2000
0000
0000
0000
0000
0000
0000
0000
0000
0000
,
3003
0000
0000
0000
;

//---------------dance-double - ----------------
#NOTEDATA:;
#CHARTNAME:CHALLENGE;
#CHARTHASH:2147483647;
#STEPSTYPE:dance-double;
#BANNER:;
#DESCRIPTION:;
#CHARTSTYLE:;
#DIFFICULTY:Challenge;
#METER:17;
#METERF:17.000000;
#LASTSECONDHINT:135.394287;
#RADARVALUES:0.753438,0.780390,0.064318,0.135782,0.925463,738.000000,729.000000,9.000000,19.000000,281.000000,0.000000,0.000000,0.000000,0.000000,0.753438,0.780390,0.064318,0.135782,0.925463,738.000000,729.000000,9.000000,19.000000,281.000000,0.000000,0.000000,0.000000,0.000000;
#CREDIT:YonabearCWY;
#DISPLAYBPM:140.000000;
#NOTES:
// measure 0
00000000
00000000
00000000
00000000
,  // measure 1
00000000
00000000
00000000
00000000
,  // measure 2
00000000
00000000
00000000
00000000
,  // measure 3
00000000
00000000
00000000
00000000
,  // measure 4
00000001
00001000
00000010
00001000
00000100
00010000
00000100
MMMMMMMM
,  // measure 5
00010000
00001000
01000000
00100000
00010000
00100000
01000000
MMMMMMMM
,  // measure 6
00100000
10000000
00000000
10000000
01000000
00000000
00100000
00000000
00010000
00000000
00100000
00000000
00001000
00000000
MMMMMMMM
00000000
,  // measure 7
00010000
00000000
00000010
00000000
00000100
00000000
00001000
00000000
00000100
00000010
00000000
00000010
00001000
00000000
MMMMMMMM
00000000
,  // measure 8
00000100
00000000
00010000
00000000
00001000
00000000
00010000
00000000
00000100
00000000
00010000
00000000
00001000
01000000
00010000
00000000
,  // measure 9
MMMMMMMM
00000000
00100000
00000000
01000000
00000000
10000000
00000000
01000000
00100000
00010000
00000000
01000000
00000000
MMMMMMMM
00000000
,  // measure 10
00010000
00000000
00100000
00000000
00001000
00000000
00100000
00000000
00010000
00000000
00100000
00000000
00001000
00010000
00000100
00000000
,  // measure 11
MMMMMMMM
00000000
00001000
00000000
00000001
00000000
00000010
00000000
00000100
00000000
00001000
00000001
00000010
00000000
MMMMMMMM
00000000
,  // measure 12
00000100
00001000
00000000
00000000
00001000
00000010
00000000
00000000
00000010
00010000
00001000
00010000
00000100
00001000
00000100
00000000
,  // measure 13
00010000
00001000
00000000
00000000
00001000
01000000
00000000
00000000
01000000
00100000
00000000
00100000
00010000
00000000
00100000
00000000
,  // measure 14
01000000
00010000
00000000
00000000
00010000
00100000
00000000
00000000
01000000
00100000
00010000
00100000
00001000
00010000
00001000
00000000
,  // measure 15
00010000
00000010
00000000
00000000
00000010
00000100
00000000
00000000
00000100
00000001
00000000
00001000
00000001
00000010
00000001
00000000
,  // measure 16
00000010
00000100
00001000
00000100
00000010
00000000
00000100
00000000
00010000
00000100
00000000
00000000
00000100
00001000
00000000
00000000
,  // measure 17
00000010
00010000
00001000
00010000
00000100
00000000
00010000
00000000
00001000
00100000
00000000
00000000
00100000
00010000
00000000
00000000
,  // measure 18
00010000
10000000
01000000
00100000
01000000
00000000
00100000
00000000
00010000
01000000
00000000
00000000
00100000
10000000
00000000
10000000
,  // measure 19
01000000
00000000
00000000
00100000
00000000
00000000
00010000
00000000
00000000
01000000
00000000
00000000
00010000
00000000
00000000
00000000
00000000
00000000
10010000
00000000
00000000
00000000
00000000
00000000
00100000
00000000
00000000
01000000
00000000
00000000
00010000
00000000
01000000
00000000
00010000
00000000
01000000
00000000
00000000
00010000
00000000
00000000
00100000
00000000
00000000
00001000
00000000
00000000
,  // measure 20
00020000
00001000
00000000
00100000
00100000
00100000
00000000
00001000
,  // measure 21
00001000
00000000
00031000
00000000
00000000
00000000
00010000
00001000
00000000
00001000
00010000
00000000
00000100
00000000
00000010
00000000
,  // measure 22
00000102
00000000
00000000
00000000
00001003
00000000
00000001
00000010
00000100
00000010
00000100
00000010
00000100
00000010
00000100
00000010
,  // measure 23
00000100
00000000
00000000
00001000
00000000
00000000
00000000
00000000
00000000
00001000
00000000
00000000
00000010
00000000
00000000
00000000
00000000
00000000
00001000
00000000
00000100
00000000
00001000
00000000
00000100
00000000
00000000
00000000
00000000
00000000
00010000
00000000
00000000
00000000
00000000
00000000
00001000
00000000
00000000
00000000
00000000
00000000
00100000
00000000
00010000
00000000
10000000
00000000
,  // measure 24
00010000
02100000
00000000
00010000
00010000
00010000
00000000
10000000
,  // measure 25
10000000
00000000
13000000
00000000
00000000
00000000
00100000
01000000
00000000
01000000
00100000
00000000
01000000
00000000
00001000
00000000
,  // measure 26
00010000
00000000
00100000
00000000
00010000
00000000
00001000
00010000
00000100
00010000
00000100
00010000
00000100
00010000
00000100
00010000
,  // measure 27
00000100
00000000
00000000
00001000
00000000
00000000
00000000
00000000
00000000
00001000
00000000
00000000
00000010
00000000
00000000
00000000
00000000
00000000
00000100
00000000
00000001
00000000
00000100
00000000
00000001
00000000
00000000
00000000
00000000
00000000
00001000
00000000
00000000
00000000
00000000
00000000
00000010
00000000
00000000
00000000
00000000
00000000
00010000
00000000
00000100
00000000
00010000
00000000
,  // measure 28
00001000
00021000
00000000
00000100
00000100
00000100
00000000
00001000
,  // measure 29
00001000
00000000
00031000
00000000
00000000
00000000
00010000
00001000
00000000
00001000
00100000
00000000
00001000
00000000
00010000
00000000
,  // measure 30
00100000
00000000
01000000
00000000
00010000
00000000
10000000
00000000
01000000
00100000
01000000
00000000
00100000
00000000
00010000
00000000
,  // measure 31
10000000
00000000
00000000
00010000
00000000
00000000
00100000
00000000
00000000
00000000
00000000
00000000
00010000
00000000
00000000
00000000
00000000
00000000
01000000
00000000
00001000
00000000
00010000
00000000
00001000
00000000
00000000
00000000
00000000
00000000
00010000
00000000
00000000
00000000
00000000
00000000
00000100
00000000
00000000
00010000
00000000
00000000
00001000
00000000
00000000
00000100
00000000
00000000
,  // measure 32
00000010
00000000
00000100
00000000
00000001
00000000
00000000
MMMM1MMM
00000000
00000010
00000100
00000000
00000001
00000000
00001000
00000000
,  // measure 33
00000100
00000000
00000010
00000000
00000000
000M01MM
00001000
00000100
00000000
00010000
00000100
00000000
00001000
00000000
00000100
00010000
,  // measure 34
00000100
00000000
00010000
00000000
00001000
00000000
00100000
00010000
00000000
00010000
10000000
00000000
00100000
02000000
00000000
00010000
,  // measure 35
00000000
00000000
00010000
00000000
00000000
00000000
00010000
00000000
00000000
00000000
00010000
00000000
00000000
00000000
00010000
00000000
00000000
00000000
00010000
00000000
00000000
00000000
00010000
00000000
00000000
00000000
03010000
00000000
00000000
MMMMMM00
00000000
00000000
,  // measure 36
01000000
00000000
00100000
00000000
10000000
00000000
01000000
00100000
01000000
00100000
00010000
00100000
00001000
00010000
00000000
00010000
,  // measure 37
00001000
00000000
00010000
00000000
00000010
00000000
00000100
00001000
00000100
00001000
00000001
00000100
00000001
00000100
00000010
00001000
,  // measure 38
00000100
00000000
00010000
00000000
00001000
00000000
00100000
00010000
00000000
00010000
01000000
00000000
00100000
10000000
00000000
10000000
,  // measure 39
01000000
00000000
00100000
00000000
00010000
01000000
00010000
00000000
00100000
00001000
00010000
00100000
01000000
00100000
00010000
00100000
,  // measure 40
01000000
00000000
00000000
MM01M000
00100000
00000000
00000000
01MMM000
10000000
00010000
10000000
00000000
00100000
00000000
01000000
00000000
,  // measure 41
00001000
00000000
00010000
00000000
00001000
00000000
00100000
00010000
00000000
00010000
01000000
00000000
00001000
00000000
00010000
00000100
,  // measure 42
00001000
00000000
00000000
000MM10M
00000010
00000000
00000000
000M0MM1
00001000
00000000
00000010
00000100
00000001
00000000
00000010
00000000
,  // measure 43
00000100
00000000
00010000
00000000
00001000
00000000
00010000
00000100
00001000
00000100
00001000
00000000
00000010
00000000
00010000
00000000
,  // measure 44
00001000
00010000
00001000
00010000
MMM0M000
00000000
00100000
01000000
00100000
01000000
M0MMM000
00000000
00010000
10000000
00010000
00000000
,  // measure 45
10000000
01000000
10000000
01000000
M0MMM000
00000000
00100000
00010000
00100000
00010000
M0M0M000
01000000
00001000
00010000
00001000
00000000
,  // measure 46
00010000
00000100
00010000
00000100
000MM0MM
00000000
00000010
00000100
00000010
00000100
000MM0MM
00000000
00000010
00000001
000MMM10
00000000
,  // measure 47
00000001
00001000
00000100
00000010
00000100
00000000
00001000
00000100
00020100
00000000
00032000
00000000
02003000
00000000
03200000
00000000
,  // measure 48
00310000
00100000
00010000
00100000
MM0MM000
00000000
10000000
00100000
10000000
00100000
MM0MM000
00000000
01000000
00010000
01000000
00000000
,  // measure 49
00010000
10000000
01000000
10000000
0MMMM000
00000000
01000000
00100000
00010000
00100000
00000000
00001000
00010000
00000100
00010000
00000000
,  // measure 50
00001000
00010000
00001000
00010000
00M0MMM0
00000000
00010000
00000010
00010000
00000010
00MMMM00
00000000
00001000
00000001
000M1MM0
00000000
,  // measure 51
00000001
00000010
00000100
00000010
00000100
00000000
00001000
00000100
00000120
00000000
00000230
00000000
00020300
00000000
00032000
00000000
,  // measure 52
00103000
00000000
00010000
00000000
01000000
00000000
00100000
00000000
01000000
00000000
00010000
00100000
01000000
10000000
01000000
00000000
,  // measure 53
10000000
00000000
00100000
00000000
01000000
00000000
00010000
01000000
00100000
00000000
00010000
00000000
MM0MM000
00100000
01000000
00000000
,  // measure 54
00001000
00100000
00010000
00001000
00000100
00000000
00001000
00000000
00000010
00000100
00000001
00000100
00000000
00000010
00001000
00000000
,  // measure 55
00000100
00000000
00000000
00000010
00000000
00000000
00000001
00000000
00000000
00000010
00000000
00000000
00000100
00000000
00000000
00000000
00000000
00000000
00001000
00000000
00000000
00000000
00000000
00000000
00000001
00000000
00000000
00000010
00000000
00000000
00000100
00000000
00000000
00000010
00000000
00000000
00000000
00000000
00000000
00000100
00000000
00000000
00001000
00000000
00000100
00000000
00010000
00000000
,  // measure 56
00000100
00000000
00010000
00000000
00001000
00000000
00100000
00000000
00001000
00100000
00010000
00100000
00020000
00000000
00000000
00000000
,  // measure 57
10030000
00000000
01000000
00000000
00100000
00000000
00010000
10000000
01000000
00000000
00100000
00000000
00010000
01000000
00100000
00000000
,  // measure 58
10000000
00010000
00100000
01000000
00100000
00000000
01000000
00000000
00100000
00010000
00100000
00001000
00000000
00010000
00001000
00000000
,  // measure 59
00010000
00000000
00000000
00000010
00000000
00000000
00010000
00000000
00000000
00001000
00000000
00000000
00000100
00000000
00000000
00000000
00000000
00000000
00000010
00000000
00000000
00000000
00000000
00000000
00001000
00000000
00000000
00000100
00000000
00000000
00000001
00000000
00000000
00000000
00000000
00000000
00000100
00000000
00000000
00000000
00000000
00000000
00000010
00000000
00000001
00000000
00001000
00000000
,  // measure 60
00000001
00000000
MMMMM0MM
00000100
00000010
00000100
00000001
00000000
00001000
00000000
MMMMM0MM
00000100
00010000
00001000
00010000
00000000
,  // measure 61
00001000
00000000
MM0MMMMM
00100000
00010000
10000000
01000000
00000000
00100000
00010000
00100000
00010000
10000000
00100000
10000000
00000000
,  // measure 62
00010000
00000000
MM0MMMMM
00100000
01000000
10000000
00010000
00000000
01000000
00000000
MMMM0MMM
00001000
00100000
00001000
00010000
00000000
,  // measure 63
00000100
00000000
MMMM0MMM
00001000
00000100
00001000
00000001
00000000
00000100
00000010
00000100
00001000
00000100
00000001
00000100
00000010
,  // measure 64
00001000
00000000
00000010
00000000
00000100
00000000
00000010
00000000
00010000
00000000
00001000
00000000
00100000
00010000
10000000
00000000
,  // measure 65
01000000
00000000
00100000
00000000
00010000
00000000
10000000
00000000
00010000
00000000
01000000
00100000
01000000
00010000
01000000
00000000
,  // measure 66
00001000
00000000
00100000
00000000
00010000
00000000
00001000
00000000
00000100
00000000
00010000
00000000
00000100
00001000
00000100
00000000
,  // measure 67
00001000
00000000
00000001
00000000
00000010
00000000
00000100
00000000
00001000
00000000
00000001
00000100
00000001
00001000
00000100
00001000
,  // measure 68
00000010
00000000
MMM0MMMM
00010000
00001000
00000000
00101000
00000000
MMMMMMMM
00000000
00010000
10000000
00000000
10000000
01000000
00000000
,  // measure 69
MMMMMMMM
00000000
MM0MMMMM
00100000
00010000
00000000
00011000
00000000
MMMMMMMM
00000000
00000100
00001000
00000000
00001000
00000010
00000000
,  // measure 70
MMMMMMMM
00000000
00010000
00001000
00000000
00001000
00100000
00000000
MMMMMMMM
00000000
00010000
10000000
01000000
10000000
01000000
00000000
,  // measure 71
MMMMMMMM
00000000
00100000
00001000
00000000
00001000
00010000
00000000
MMMMMMMM
00000000
00000010
00000100
00000010
00000100
00000001
00000000
,  // measure 72
00001000
00000100
00000001
00000100
00001000
00000000
00000010
00000000
MMMMMMMM
00000000
00010000
00001000
00000000
00001000
00010000
00000000
,  // measure 73
00001000
00100000
01000000
00100000
00001000
00000000
00010000
00000000
MMMMMMMM
00000000
00001000
01000000
00000000
01000000
00100000
00000000
,  // measure 74
10000000
00100000
00010000
00100000
10000000
00000000
01000000
00000000
MMMMMMMM
00000000
00100000
00001000
00000000
00001000
00010000
00000000
,  // measure 75
00001000
00100000
00010000
00100000
00001000
00000000
00010000
00000000
00000100
00001000
00000100
00000010
00000001
00000010
00000100
00001000
,  // measure 76
00002002
00000000
00000000
00000000
00000000
00003000
00000000
00000200
00000000
00000000
00000000
00000300
,  // measure 77
00000000
00000000
00000000
00002000
00000000
00000000
00000000
00000000
00000000
00003000
00000000
00000000
00000000
00000000
00000200
00000000
00000000
00000000
00000000
00000000
00000000
00000000
00000000
00000000
,  // measure 78
00000303
00000000
00000000
00000000
;
