#VERSION:0.83;
#TITLE:AUSLANDSGESPRÄCH;
#SUBTITLE:;
#ARTIST:V.C.O.;
#TITLETRANSLIT:AUSLANDSGESPRACH;
#SUBTITLETRANSLIT:;
#ARTISTTRANSLIT:;
#GENRE:80's WERK;
#ORIGIN:;
#TAGS:;
#CREDIT:YonabearCWY & Pandemonium X;
#BANNER:AUSLANDSGESPRACH.png;
#BACKGROUND:AUSLANDSGESPRACH-bg.png;
#PREVIEWVID:;
#JACKET:AUSLANDSGESPRACH-jacket.png;
#CDIMAGE:;
#DISCIMAGE:;
#LYRICSPATH:;
#CDTITLE:pop'n music.png;
#MUSIC:AUSLANDSGESPRACH.ogg;
#OFFSET:-0.120000;
#SAMPLESTART:31.513000;
#SAMPLELENGTH:15.000000;
#SELECTABLE:YES;
#BPMS:0.000000=130.000000
;
#STOPS:;
#DELAYS:;
#WARPS:;
#TIMESIGNATURES:0.000000=4=4
;
#TICKCOUNTS:0.000000=4
;
#COMBOS:0.000000=1
;
#SPEEDS:0.000000=1.000000=0.000000=0
;
#SCROLLS:0.000000=1.000000
;
#FAKES:;
#LABELS:0.000000=Song Start
;
#BGCHANGES:4.000=robot16.mp4=1.000=1=0=1===CrossFade==,
12.000=robot14.mp4=0.400=0=0=1=====,
14.000=robot15.mp4=2.000=0=0=1=====,
16.000=robot14.mp4=0.400=0=1=1=StretchRewind====,
18.000=robot15.mp4=2.000=0=1=1=StretchRewind====,
20.000=robot17.mp4=1.000=0=0=1=====,
28.000=robot14.mp4=0.400=0=1=1=StretchRewind====,
30.000=robot15.mp4=2.000=0=1=1=StretchRewind====,
32.000=robot14.mp4=0.400=0=1=1=StretchRewind====,
34.000=robot15.mp4=2.000=0=1=1=StretchRewind====,
36.000=phone1.mp4=1.000=0=0=1=====,
52.000=numbers1.mp4=1.000=0=0=1=====,
60.000=numbers3.mp4=1.000=0=0=1=====,
64.000=numbers2.mp4=1.000=0=0=1=====,
68.000=robot16.mp4=1.000=0=1=1=StretchRewind====,
76.000=robot14.mp4=0.400=0=1=1=StretchRewind====,
78.000=robot15.mp4=2.000=0=1=1=StretchRewind====,
80.000=robot14.mp4=0.400=0=1=1=StretchRewind====,
82.000=robot15.mp4=2.000=0=1=1=StretchRewind====,
84.000=robot17.mp4=1.000=0=1=1=StretchRewind====,
92.000=robot14.mp4=0.400=0=1=1=StretchRewind====,
94.000=robot15.mp4=2.000=0=1=1=StretchRewind====,
96.000=robot14.mp4=0.400=0=1=1=StretchRewind====,
98.000=robot15.mp4=2.000=0=1=1=StretchRewind====,
100.000=phone1.mp4=1.000=0=1=1=StretchRewind====,
116.000=numbers1.mp4=1.000=0=1=1=StretchRewind====,
124.000=numbers3.mp4=1.000=0=1=1=StretchRewind====,
128.000=numbers2.mp4=1.000=0=1=1=StretchRewind====,
132.000=lines1.mp4=1.000=0=0=1=====,
140.000=lines4.mp4=1.000=0=0=1=====,
148.000=lines1.mp4=1.000=0=1=1=StretchRewind====,
156.000=lines4.mp4=1.000=0=1=1=StretchRewind====,
164.000=robot18.mp4=1.000=0=0=1=====,
172.000=phone1.mp4=1.000=0=1=1=StretchRewind====,
180.000=robot18.mp4=1.000=0=1=1=StretchRewind====,
188.000=phone1.mp4=1.000=0=1=1=StretchRewind====,
196.000=robot16.mp4=1.000=0=1=1=StretchRewind====,
198.000=phone1.mp4=1.000=0=1=1=StretchRewind====,
204.000=robot14.mp4=0.400=0=1=1=StretchRewind====,
206.000=robot15.mp4=2.000=0=1=1=StretchRewind====,
208.000=phone1.mp4=1.000=0=1=1=StretchRewind====,
212.000=robot17.mp4=1.000=0=1=1=StretchRewind====,
218.000=phone1.mp4=1.000=0=1=1=StretchRewind====,
224.000=robot14.mp4=0.400=0=1=1=StretchRewind====,
226.000=robot15.mp4=2.000=0=1=1=StretchRewind====,
228.000=AUSLANDSGESPRACH-bg.png=1.000=0=0=1=====,
99999.000=-nosongbg-=1.000=0=0=0=StretchNoLoop====,
99999=-nosongbg-=1.000=0=0=0 // don't automatically add -songbackground-
;
#KEYSOUNDS:;
#ATTACKS:
;

//---------------dance-single - Pandemonium X----------------
#NOTEDATA:;
#CHARTNAME:Pandemonium X;
#CHARTHASH:1863421249;
#STEPSTYPE:dance-single;
#BANNER:;
#DESCRIPTION:Pandemonium X;
#CHARTSTYLE:;
#DIFFICULTY:Beginner;
#METER:2;
#METERF:0.000000;
#LASTSECONDHINT:106.273842;
#RADARVALUES:0.121471,0.182044,0.054274,0.000000,0.000000,94.000000,88.000000,6.000000,0.000000,0.000000,0.000000,0.000000,0.000000,0.000000,0.121471,0.182044,0.054274,0.000000,0.000000,94.000000,88.000000,6.000000,0.000000,0.000000,0.000000,0.000000,0.000000,0.000000;
#CREDIT:Pandemonium X;
#NOTES:
// measure 0
0000
0000
0000
0000
,  // measure 1
0001
0000
0000
0000
,  // measure 2
1000
0000
0000
0000
,  // measure 3
0001
0000
0100
0000
,  // measure 4
0001
0000
0100
0000
,  // measure 5
0010
0000
0000
0000
,  // measure 6
1000
0000
0000
0000
,  // measure 7
0100
0000
0010
0000
,  // measure 8
0100
0000
1000
0000
,  // measure 9
0010
0000
0000
0000
,  // measure 10
0100
0000
0001
0000
,  // measure 11
1000
0000
0001
0000
,  // measure 12
0010
0000
0001
0000
,  // measure 13
1000
0000
0010
0000
,  // measure 14
0100
0000
0001
0000
,  // measure 15
1000
1000
0001
0000
,  // measure 16
0110
0000
0000
0000
,  // measure 17
1000
0000
0100
0000
,  // measure 18
0000
0000
0000
0000
,  // measure 19
0010
0000
0001
0000
,  // measure 20
0000
0000
0000
0000
,  // measure 21
0100
0000
0001
0000
,  // measure 22
0000
0000
0000
0000
,  // measure 23
1000
0000
0100
0000
,  // measure 24
0000
0000
0000
0000
,  // measure 25
0010
0000
0000
0000
,  // measure 26
0100
0000
1000
0000
,  // measure 27
0010
0000
0100
0000
,  // measure 28
0000
0000
0001
1000
,  // measure 29
0001
0000
0010
0000
,  // measure 30
0100
0000
1000
0000
,  // measure 31
0010
0010
0100
0000
,  // measure 32
1001
0000
0000
0000
,  // measure 33
0001
0000
0000
0000
,  // measure 34
1000
0000
0000
0000
,  // measure 35
0100
0000
0000
0000
,  // measure 36
0010
0000
0100
0000
,  // measure 37
1000
0000
0000
0000
,  // measure 38
0001
0000
0000
0000
,  // measure 39
0110
0000
0000
0000
,  // measure 40
0000
0000
0000
0000
,  // measure 41
0001
0000
1000
0000
,  // measure 42
0100
0000
0010
0000
,  // measure 43
0001
0000
0010
0000
,  // measure 44
0100
0000
1000
0000
,  // measure 45
0000
0000
0001
0000
,  // measure 46
0100
0000
0010
0000
,  // measure 47
1000
0000
0001
0000
,  // measure 48
1000
0000
0100
0000
,  // measure 49
0010
0000
1001
0000
,  // measure 50
0000
0000
0000
0000
,  // measure 51
0001
0000
0100
0000
,  // measure 52
0110
0000
0000
0000
,  // measure 53
1000
0000
0001
0000
,  // measure 54
1000
0000
0110
0000
,  // measure 55
0000
0000
1000
0000
,  // measure 56
0001
0000
1000
0000
,  // measure 57
0010
0010
0010
0000
;

//---------------dance-single - Pandemonium X----------------
#NOTEDATA:;
#CHARTNAME:Pandemonium X;
#CHARTHASH:1398844520;
#STEPSTYPE:dance-single;
#BANNER:;
#DESCRIPTION:Pandemonium X;
#CHARTSTYLE:;
#DIFFICULTY:Easy;
#METER:4;
#METERF:0.000000;
#LASTSECONDHINT:107.196922;
#RADARVALUES:0.183498,0.236092,0.063320,0.488467,0.000000,142.000000,135.000000,7.000000,54.000000,0.000000,0.000000,0.000000,0.000000,0.000000,0.183498,0.236092,0.063320,0.488467,0.000000,142.000000,135.000000,7.000000,54.000000,0.000000,0.000000,0.000000,0.000000,0.000000;
#CREDIT:Pandemonium X;
#NOTES:
0000
0000
0000
0000
,
0001
0000
1000
0000
0200
0000
0000
0300
,
0010
0000
0001
0000
0200
0000
0000
0300
,
0010
1000
0001
0001
,
1000
0001
1000
1000
,
0100
0000
1000
0000
0020
0000
0000
0030
,
0100
0000
0001
0000
0020
0000
0000
0030
,
0100
0010
0100
0100
,
0010
0100
0010
0010
,
0002
0000
2003
0000
,
3020
0000
0230
0000
,
0301
0000
2000
0000
,
3100
0000
0020
0031
,
0200
0000
0320
0000
,
2030
0000
3002
0000
,
1003
1000
0002
0003
,
2002
0000
0000
3003
,
0001
0000
1000
0000
0020
0000
0000
0030
,
0100
0000
0001
0000
0020
0000
0000
0030
,
0200
0000
0310
0010
,
0200
0000
0310
0010
,
0100
1000
0002
0000
,
1003
0010
2000
0000
,
3010
1000
0200
0000
,
0310
0000
0001
0000
0200
0000
0000
0300
,
0002
0000
0000
0000
,
1003
0000
0200
0000
,
0310
0001
0200
0000
,
0310
1000
0200
0010
,
0320
0000
0032
0000
,
0203
0000
0320
0000
,
1030
1000
0200
0300
,
2002
0000
0000
3003
,
0002
0003
1000
0000
,
0020
0030
0100
0000
,
0002
0003
0010
0000
,
0200
0300
1000
0000
,
0020
0030
0100
0000
,
0002
0003
1000
0000
,
0220
0000
0000
0000
,
0330
0000
0000
0000
,
0001
0000
1000
0000
,
0100
0000
0010
0000
,
0001
0000
0100
0000
,
0010
0000
1000
0000
,
0000
0000
0001
0000
,
1000
0000
0100
0000
,
1000
0000
0010
0000
,
0100
0000
0001
0000
,
1000
0001
0220
0000
,
0000
0000
0000
0330
,
0100
0010
2000
3000
,
2002
0000
0000
3003
,
1000
0001
0020
0000
,
0130
1000
2002
0000
,
0000
3003
1000
1000
,
0001
0100
0010
0010
,
2002
0000
0000
0000
,
3003
0000
0000
0000
;

//---------------dance-single - Pandemonium X----------------
#NOTEDATA:;
#CHARTNAME:Pandemonium X;
#CHARTHASH:1264244346;
#STEPSTYPE:dance-single;
#BANNER:;
#DESCRIPTION:Pandemonium X;
#CHARTSTYLE:;
#DIFFICULTY:Medium;
#METER:7;
#METERF:0.000000;
#LASTSECONDHINT:107.196922;
#RADARVALUES:0.354074,0.367255,0.235188,0.298507,0.063320,274.000000,248.000000,26.000000,33.000000,0.000000,0.000000,0.000000,0.000000,0.000000,0.354074,0.367255,0.235188,0.298507,0.063320,274.000000,248.000000,26.000000,33.000000,0.000000,0.000000,0.000000,0.000000,0.000000;
#CREDIT:Pandemonium X;
#NOTES:
0000
0000
0000
0000
,
0001
0000
0000
0000
1000
0000
0000
0000
0100
0000
0000
0100
0000
0000
0100
0000
,
0010
0000
0000
0000
0001
0000
0000
0000
0100
0000
0000
0100
0000
0000
0100
0000
,
0020
0000
0000
0000
1030
0100
1000
0100
,
2000
0000
0000
0000
3010
1000
0010
1000
,
0010
0000
0000
0000
0100
0000
0000
0000
0001
0000
0000
0001
0000
0000
0001
0000
,
1000
0000
0000
0000
0001
0000
0000
0000
1000
0000
0000
1000
0000
0000
1000
0000
,
0200
0000
0000
0000
1300
0010
1000
0010
,
0200
0000
0001
0000
0310
1000
0010
1000
,
0002
0000
0000
0000
0000
0000
1003
0001
,
0100
0000
0000
0001
0000
0000
0010
0000
0200
0000
0000
0000
0000
0000
0000
0000
,
0310
0001
2000
0000
,
3010
0000
0100
0000
0002
0000
1003
0100
,
0010
0100
2000
0000
,
3001
0100
0020
0000
,
0130
0001
0100
1000
0200
0000
0000
0000
,
0301
0000
1000
0001
0000
0000
0000
0000
0001
0000
0001
0000
0000
0000
0000
0000
,
1000
0000
0001
0000
0010
0000
0000
0000
0100
0000
0000
0100
0000
0000
0100
0000
,
0010
0000
0001
0000
1000
0000
0000
0000
0010
0000
0000
0010
0000
0000
0010
0000
,
0200
0000
0000
0000
0301
1000
0001
1000
,
0200
0000
0000
0000
0310
0001
0010
0001
,
0010
0000
0100
0000
1000
0000
0000
0000
0100
0000
0000
0100
0000
0000
0100
0000
,
0010
0000
0100
0000
1000
0000
0000
0000
0010
0000
0000
0010
0000
0000
0010
0000
,
0200
0000
0000
0000
0301
0010
0001
0010
,
0200
0000
0000
0000
1300
0001
1000
0100
,
0020
0001
0230
0000
,
1300
0000
0000
0001
0000
0000
0010
0000
0200
0000
0000
0000
0000
0000
0000
0000
,
0310
0100
1000
0000
0002
0000
0000
0000
,
0103
0010
1000
0000
0200
0000
0310
0100
,
1000
0001
0100
0000
0020
0000
0000
0000
,
0130
0001
0010
0000
0200
0000
0000
0000
,
0310
1000
0010
0001
2000
0000
0000
0000
,
3010
0000
0010
0100
0000
0000
0000
0000
0010
0000
0010
0000
0000
0000
0000
0000
,
0101
0001
0010
0100
,
1100
0100
1000
0010
,
0101
0001
1000
0100
,
0110
0100
1001
0010
,
1001
0000
0001
0000
0100
0000
0010
1000
,
1100
0000
0100
0000
0010
0000
0001
0010
,
2002
0000
3003
0000
,
0110
0000
0000
0000
,
1000
0001
1100
0100
,
0110
0010
0011
0001
,
0101
0100
0110
0010
,
1010
1000
1001
0001
,
0010
0100
1100
1000
,
1010
0010
0110
0100
,
0101
0001
0011
0010
,
0110
0100
1100
1000
,
0001
1000
0100
0000
0220
0000
0000
0000
,
0000
0000
0000
0000
0000
0000
0000
0000
0000
0000
0000
0330
0000
0000
1000
0000
,
0002
0000
0100
0000
1003
0001
1000
0001
,
2200
0000
0000
3300
,
0010
0000
0001
0000
0100
0000
0000
0000
0010
0000
0000
0010
0000
0000
0010
0000
,
1000
0010
0100
0000
0202
0000
0000
0000
,
0000
0000
0000
0303
1000
0001
1000
0001
,
0010
0000
0100
0000
1000
0001
1000
0001
,
1000
0100
0010
0000
0100
2000
0000
0000
,
3000
0000
0000
0000
;

//---------------dance-single - Pandemonium X----------------
#NOTEDATA:;
#CHARTNAME:Pandemonium X;
#CHARTHASH:2147483647;
#STEPSTYPE:dance-single;
#BANNER:;
#DESCRIPTION:Pandemonium X;
#CHARTSTYLE:;
#DIFFICULTY:Hard;
#METER:13;
#METERF:0.000000;
#LASTSECONDHINT:107.196922;
#RADARVALUES:0.573755,0.708277,0.189959,0.542741,0.266848,444.000000,423.000000,21.000000,60.000000,0.000000,0.000000,0.000000,0.000000,0.000000,0.573755,0.708277,0.189959,0.542741,0.266848,444.000000,423.000000,21.000000,60.000000,0.000000,0.000000,0.000000,0.000000,0.000000;
#CREDIT:Pandemonium X;
#NOTES:
0000
0000
0000
0000
,
1000
0000
0010
0000
0100
0000
0000
0000
0010
0000
0000
0010
0000
0000
0010
0000
,
0100
0000
0001
0000
0010
0000
0000
0000
0100
0000
0000
0100
0000
0000
0100
0000
,
0010
0001
1000
0010
0100
0100
0100
0100
,
0010
1000
0001
0010
0100
0100
0100
0100
,
0010
0000
0001
0000
1000
0000
0000
0000
0010
0000
0000
0010
0000
0000
0010
0000
,
1000
0000
0001
0000
0100
0000
0000
0000
0010
0000
0000
0010
0000
0000
0010
0000
,
0100
0001
0010
0001
1000
1000
1000
1000
,
0001
1000
0010
0100
0001
0001
0001
0001
,
0020
0000
0001
0000
0230
0000
1300
0010
,
0200
0000
0000
0320
0000
0000
2030
0000
3200
0000
0000
0000
0310
0000
0001
0000
,
1000
0001
0010
0000
1002
0000
0000
0000
,
0013
0100
1000
0000
2100
0000
0000
0000
,
3010
0100
0001
1000
1002
0000
0000
0000
,
0103
0010
1000
0001
2001
0000
0001
3001
,
0100
0001
0100
0001
1000
0010
1000
0010
0000
0000
0000
0000
0000
0000
0000
0000
,
0100
0000
0001
1000
0000
0000
0000
0000
0001
0000
0001
0000
0000
0001
1000
0001
,
1000
0000
0100
0000
0010
0000
0000
0000
0011
0000
0000
0011
0000
0000
0011
0000
,
0010
0000
0100
0000
1000
0000
0001
0000
0101
0000
0000
0101
0000
0000
0101
0000
,
0001
1000
0001
0010
0100
0100
0100
0100
,
0010
0001
1000
0010
0100
0100
0100
0100
,
0010
0000
1000
0000
0001
0000
0010
0000
0110
0000
0000
0110
0000
0000
0110
0000
,
0010
0000
0001
0000
1000
0000
0001
0000
0011
0000
0000
0011
0000
0000
0011
0000
,
0001
0010
0100
1000
0001
0001
0001
0001
,
0010
0001
0100
0010
1000
1000
1000
1000
,
0002
0000
0100
0000
0010
0000
0103
0010
,
2000
0000
0000
3200
0000
0000
0320
0000
0230
0000
0000
0000
1300
0000
0001
0000
,
0100
0001
0010
0000
0200
0000
0310
0001
,
1000
0000
0000
0000
0001
0000
0000
0000
0200
0000
0000
0000
0301
0010
0001
1000
,
0001
0010
1000
0010
0002
0000
0000
0000
,
0103
1000
0100
0001
2000
0000
0000
0000
,
3001
0100
0001
0100
0010
1000
0010
1000
0002
0000
0000
0000
0000
0000
0000
0000
,
1003
0000
0001
1000
0000
0000
0000
0000
0001
0000
0001
0000
0000
0001
1000
0001
,
1000
0000
0001
0000
0100
0000
0001
0000
1000
0000
0100
0000
1000
0000
0001
0100
,
0010
0000
1000
0000
0001
0000
0010
0000
0001
0000
1000
0000
0010
0000
0100
0001
,
1000
0000
0001
0000
0100
0000
0001
0000
1000
0000
0100
0000
1000
0000
0001
1000
,
0010
0010
0001
0010
0100
0100
0001
1000
,
0001
0000
0010
0000
0100
0000
0010
0000
0001
0000
0010
0000
0100
0000
0010
0001
,
1000
0010
0100
0010
1000
0010
0100
0010
,
2001
0000
3010
0000
,
1002
0000
0103
0000
,
0001
0010
0001
0100
0020
2030
3002
0023
,
0031
1000
0010
1000
0002
0023
0032
2003
,
3001
1000
0010
1000
0002
0203
0302
2003
,
3001
0010
0100
1000
0200
0320
0230
2300
,
3001
0001
1000
0010
0200
0320
2030
3020
,
0130
0100
0010
1000
0002
0023
0230
2300
,
3100
0100
1000
0010
0200
0302
0023
0230
,
0310
0010
0100
0010
0002
0203
0320
2030
,
3001
0000
0010
0000
0100
0000
0000
0000
1000
0100
1000
0100
1000
0100
1000
0100
,
1000
0100
1000
0100
1000
0100
1000
0100
1000
0100
1000
0000
0000
0000
0001
0000
,
2000
0000
3100
0010
0001
0001
0001
0001
,
0010
0100
0010
0100
0010
0100
0010
0100
0010
0100
0010
0100
0010
0100
0010
0100
,
0010
0000
0001
0000
1000
0000
0000
0000
0101
0000
0000
0101
0000
0000
0101
0000
,
0001
0000
0010
0000
0100
0000
1000
0000
0001
0100
0001
0100
0001
0100
0001
0100
,
0001
0100
0001
0100
0001
0100
0001
0100
0010
0000
0010
0000
0010
0000
0010
0000
,
1000
0000
0100
0010
0000
0000
0000
0000
0010
0000
0010
0000
0010
0100
0010
0100
,
0020
0032
0203
0000
0302
2000
0000
0000
,
3003
0000
0000
0000
;

//---------------dance-single - ----------------
#NOTEDATA:;
#CHARTNAME:;
#CHARTHASH:2147483647;
#STEPSTYPE:dance-single;
#BANNER:;
#DESCRIPTION:;
#CHARTSTYLE:;
#DIFFICULTY:Challenge;
#METER:16;
#METERF:0.000000;
#LASTSECONDHINT:106.966156;
#RADARVALUES:0.749499,0.968510,0.361827,0.036183,0.809588,580.000000,540.000000,40.000000,4.000000,0.000000,0.000000,0.000000,0.000000,0.000000,0.749499,0.968510,0.361827,0.036183,0.809588,580.000000,540.000000,40.000000,4.000000,0.000000,0.000000,0.000000,0.000000,0.000000;
#CREDIT:;
#NOTES:
0000
0000
0000
0000
,
1000
0000
0001
0000
1000
0000
0000
0000
0010
0000
0000
0010
0000
0000
0010
0000
,
0100
0000
0001
0000
1000
0000
0000
0000
0100
0000
0000
0100
0000
0000
1000
0000
,
0001
0100
0000
0001
0010
0000
0000
0000
1100
0000
1100
0000
1100
0000
1100
0000
,
1000
0001
0000
1000
0010
0000
0000
0000
0101
0000
0101
0000
0101
0000
0101
0000
,
0001
0000
1000
0000
0001
0000
0000
0000
0100
0000
0000
0100
0000
0000
0100
0000
,
0001
0000
0010
0000
0100
0000
0000
0000
1000
0000
0000
1000
0000
0000
0001
0000
,
0100
0010
0000
1000
0010
0000
0000
0000
0110
0000
0110
0000
0110
0000
0110
0000
,
0100
0001
0000
1000
0001
0000
0000
0000
1001
0000
1001
0000
1001
0000
1001
0000
,
0001
0000
0100
0000
0001
0000
1000
0000
0100
0000
0000
0010
0000
0000
0001
0000
,
0010
0000
0100
0000
1000
0000
0100
0000
0001
0000
0000
0100
0000
1000
0001
0000
,
0100
0000
0010
0000
0100
0000
0001
0000
1000
0000
0000
0001
0000
0000
0010
0000
,
0001
0000
0100
0000
0000
0001
1000
0000
0000
0100
0010
0000
0000
0001
1000
0001
,
1000
0000
0010
0000
0100
0000
0001
0000
0010
0000
0000
0001
0000
0000
1000
0000
,
0010
0000
0100
0000
0001
0000
0010
0000
0100
0000
0000
1000
0000
0000
0001
0000
,
1000
0100
1000
0100
0010
0001
0010
0001
1000
0000
0000
0010
0000
0000
0100
0000
,
0001
0000
0010
0001
0000
1000
0001
1000
0010
0000
0100
0000
0000
0001
1000
0001
,
0100
0000
0010
0000
0100
0000
0000
0000
0001
0000
0000
0001
0000
0000
0001
0000
,
1000
0100
1000
0000
0010
0000
0100
0000
0001
0000
0000
1000
0000
0000
0100
0000
,
1000
0010
0000
0100
0001
0000
0000
0000
1010
0000
1010
0000
1010
0000
1010
0000
,
0010
0100
0000
0001
1000
0000
0000
0000
0101
0000
0101
0000
0101
0000
0101
0000
,
0001
0000
1000
0000
0001
0000
0000
0000
0100
0000
0000
0100
0000
0000
0100
0000
,
0001
0010
0001
0000
1000
0000
0010
0000
0100
0000
0000
0001
0000
0000
1000
0000
,
0100
1000
0000
0010
0100
0000
0000
0000
0011
0000
0011
0000
0011
0000
0011
0000
,
0001
1000
0000
0100
0010
0000
0000
0000
1100
0000
1100
0000
1100
0000
1100
0000
,
1000
0000
0001
0000
0100
0000
0010
0000
1000
0000
0000
0001
0000
0000
0010
0000
,
0001
1000
0001
0000
0100
0000
0010
0000
1000
0000
0000
0010
0000
0100
0001
0000
,
0010
0000
0100
0000
1000
0000
0001
0000
0100
0000
0000
0010
0000
0000
0100
0000
,
0001
0010
0001
0000
1000
0000
0010
0000
1000
0000
1000
0000
0000
0001
0100
0001
,
0100
0000
0010
0000
1000
0000
0100
0000
0010
0000
0000
0001
0000
0000
1000
0000
,
0010
0100
0010
0000
1000
0000
0100
0000
0001
0000
0000
0100
0000
1000
0001
0000
,
0010
0001
0010
0001
1000
0100
1000
0100
0010
0000
0000
0001
0000
0000
1000
0000
,
0001
0000
0100
0010
0100
0000
0001
0000
0010
0000
0010
0000
0000
0001
1000
0100
,
2000
0000
0001
0000
0100
0000
0001
0000
0100
0000
0001
0000
3100
0000
0001
1000
,
0002
0000
1000
0000
0010
0000
1000
0000
0010
0000
1000
0000
0013
0000
1000
0001
,
2000
0000
0010
0000
0100
0000
0010
0000
0100
0000
0010
0000
3100
0000
0010
1000
,
0002
0000
0100
0000
1000
0000
0100
0000
1000
0000
0100
0000
1003
0000
0100
0001
,
1000
0000
1000
0000
0001
0000
0001
0000
0010
0000
0010
0000
0100
0000
1000
0100
,
0001
0000
0001
0000
0100
0000
0100
0000
1000
0000
1000
0000
0010
0000
0100
0010
,
1000
0000
0001
0000
0100
0000
0000
0000
0001
0000
0000
1000
0000
0010
0100
0000
,
0001
0000
0010
0000
0100
0000
0000
0000
1000
0000
0001
0000
0100
0000
0010
1000
,
0010
0000
1000
0100
1000
0100
1000
0100
0001
0100
0001
0100
0001
0100
1000
0001
,
0000
0000
1000
0010
1000
0010
1000
0010
0001
0010
0001
0010
0001
0010
1000
0001
,
0000
0000
0100
0010
0100
0010
0100
0010
1000
0010
1000
0010
1000
0010
0100
0001
,
0000
0000
0001
0100
0001
0100
0001
0100
0010
0100
0010
0100
0010
1000
0100
0010
,
0000
0000
0001
0100
0001
0000
1000
0010
1000
0000
0010
0100
0010
0000
1000
0001
,
1000
0000
0001
0010
0001
0000
0100
0010
0100
0000
0001
1000
0001
1000
0100
0000
,
1000
0000
0010
0100
0010
0000
0100
0001
0100
0000
0010
0100
0010
0000
1000
0010
,
1000
0000
0001
0100
0001
0000
0010
0001
0010
0000
0001
1000
0001
1000
0010
0000
,
0100
0000
0000
0010
0000
0000
0100
0000
0000
0000
0000
0000
0010
1000
0010
1000
0010
1000
0010
1000
0010
1000
0010
1000
,
0010
1000
0010
1000
0010
1000
0010
1000
0010
1000
0010
1000
0010
1000
0010
0000
0000
0000
0000
0000
0000
0000
0000
0000
,
0100
0001
0000
0100
0010
0000
0000
0000
1001
0000
1001
0000
1001
0000
1001
0000
,
0100
0010
0100
0010
0100
0010
0100
0010
0100
0010
0100
0010
0100
0010
0100
0010
0100
0010
0100
0010
0100
0010
0100
0010
,
0100
0000
0010
0000
0100
0000
0000
0000
0000
0000
0000
0000
0000
0000
0000
0000
0000
0000
0000
0000
0000
0000
0000
0000
0001
0000
0000
0000
0000
0000
0000
0000
0000
0001
0000
0000
0000
0000
0000
0000
0000
0000
0001
0000
0000
0000
0000
0000
,
1000
0000
0000
0100
0000
0000
0010
0000
0000
0000
0000
0000
0001
0100
0001
0100
0001
0100
0001
0100
0001
0100
0001
0100
,
0001
0100
0001
0100
0001
0100
0001
0100
0001
0100
0001
0100
0001
0100
0001
0000
0000
0000
0000
0000
0000
0000
0000
0000
,
1000
0000
0010
0100
0010
0000
1000
0001
1000
0000
0110
0000
0110
0000
0110
0000
,
0100
0000
0001
0000
1000
0000
0000
0000
0010
0000
0000
0010
0000
0000
1001
0000
;
